Subcategories

Michal Kanka, Frantisek Host, Jiri Hudec, Jaroslav Tuma - Mysliveček: Sonatas for Two Cellos and Continuo (1999)

Posted By: tirexiss
Michal Kanka, Frantisek Host, Jiri Hudec, Jaroslav Tuma - Mysliveček: Sonatas for Two Cellos and Continuo (1999)

Michal Kanka, Frantisek Host, Jiri Hudec, Jaroslav Tuma - Mysliveček: Sonatas for Two Cellos and Continuo (1999)
EAC | FLAC (image+.cue, log) | Covers Included | 01:00:17 | 356 MB
Genre: Classical | Label: Praga Digitals | Catalog: PRD 250 132

Recordings of sonatas for two cellos and continuo are, one assumes, thin on the ground, so anyone looking for some will doubtless welcome this release. Josef Mysliveeek's sonatas (mostly transcriptions of existing works) are elegant enough exemplars of the early classical style, and are certainly well played here. I am not sure who would care to listen to them for an hour, to be honest, but it is quite fun to hear the eggshell-treading heroics of the continuo double-bass.'

Michal Kanka, Frantisek Host, Jiri Hudec, Jaroslav Tuma - Mysliveček: Sonatas for Two Cellos and Continuo (1999)

Track List:

Sonata I en La majeur
01. I. Andante [0:04:48.52]
02. II. Allegro [0:04:22.03]
03. III.Presto [0:02:23.50]
Sonata II en Ré majeur
04. I. Allegretto [0:05:05.07]
05. II. Andante [0:03:03.30]
06. III. Minuetto con variazioni [0:03:27.70]
Sonata III en Sol majeur
07. I. Allegro [0:02:48.50]
08. II. Andante [0:01:52.50]
09. III. Presto [0:02:17.35]
Sonata IV en Fa majeur
10. I. Allegretto [0:05:07.68]
11. II. Andante [0:02:35.40]
12. III. Allegro [0:02:54.65]
Sonata V en Ré majeur
13. I. Andante [0:02:07.15]
14. II. Allegro [0:02:06.65]
15. III. Presto [0:02:43.62]
Sonata VI en Sib majeur
16. I. Andante [0:05:06.08]
17. II. Allegro [0:03:19.15]
18. III. Tempo di Minuetto [0:04:05.65]

Performers:
Michal Kaňka & František Host (cellos)
Jiří Hudec (double bass)
Jaroslav Tůma (harpsichord)

Exact Audio Copy V1.3 from 2. September 2016

EAC extraction logfile from 3. June 2019, 5:09

Myslivecek / Sonate a Due Violoncelli e basso - Host, Hudec & Tuma

Used drive : hp CDDVDW SU-208GB Adapter: 1 ID: 0

Read mode : Secure
Utilize accurate stream : Yes
Defeat audio cache : Yes
Make use of C2 pointers : No

Read offset correction : 6
Overread into Lead-In and Lead-Out : No
Fill up missing offset samples with silence : Yes
Delete leading and trailing silent blocks : No
Null samples used in CRC calculations : Yes
Used interface : Native Win32 interface for Win NT & 2000

Used output format : User Defined Encoder
Selected bitrate : 1024 kBit/s
Quality : High
Add ID3 tag : No
Command line compressor : C:\Program Files (x86)\Exact Audio Copy\FLAC\FLAC.EXE
Additional command line options : -6 -V -T "ARTIST=%artist%" -T "TITLE=%title%" -T "ALBUM=%albumtitle%" -T "DATE=%year%" -T "TRACKNUMBER=%tracknr%" -T "GENRE=%genre%" -T "COMMENT=%comment%" -T "BAND=%albuminterpret%" -T "ALBUMARTIST=%albuminterpret%" -T "COMPOSER=%composer%" %haslyrics%–tag-from-file=LYRICS="%lyricsfile%"%haslyrics% -T "DISCNUMBER=%cdnumber%" -T "TOTALDISCS=%totalcds%" -T "TOTALTRACKS=%numtracks%" %hascover%–picture="%coverfile%"%hascover% %source% -o %dest%


TOC of the extracted CD

Track | Start | Length | Start sector | End sector
––––––––––––––––––––––––––––-
1 | 0:00.00 | 4:48.52 | 0 | 21651
2 | 4:48.52 | 4:22.03 | 21652 | 41304
3 | 9:10.55 | 2:23.50 | 41305 | 52079
4 | 11:34.30 | 5:05.07 | 52080 | 74961
5 | 16:39.37 | 3:03.30 | 74962 | 88716
6 | 19:42.67 | 3:27.70 | 88717 | 104311
7 | 23:10.62 | 2:48.50 | 104312 | 116961
8 | 25:59.37 | 1:52.50 | 116962 | 125411
9 | 27:52.12 | 2:17.35 | 125412 | 135721
10 | 30:09.47 | 5:07.68 | 135722 | 158814
11 | 35:17.40 | 2:35.40 | 158815 | 170479
12 | 37:53.05 | 2:54.65 | 170480 | 183594
13 | 40:47.70 | 2:07.15 | 183595 | 193134
14 | 42:55.10 | 2:06.65 | 193135 | 202649
15 | 45:02.00 | 2:43.62 | 202650 | 214936
16 | 47:45.62 | 5:06.08 | 214937 | 237894
17 | 52:51.70 | 3:19.15 | 237895 | 252834
18 | 56:11.10 | 4:05.65 | 252835 | 271274


Range status and errors

Selected range

Filename C:\Users\MATS\Downloads\Myslivecek Kanka\Myslivecek - Sonate a Due Violoncelli e basso - Host, Hudec & Tuma.wav

Peak level 96.6 %
Extraction speed 4.1 X
Range quality 100.0 %
Test CRC 77CA51B9
Copy CRC 77CA51B9
Copy OK

No errors occurred


AccurateRip summary

Track 1 accurately ripped (confidence 3) [025F9BC3] (AR v2)
Track 2 accurately ripped (confidence 3) [A06B71AE] (AR v2)
Track 3 accurately ripped (confidence 3) [F850BECD] (AR v2)
Track 4 accurately ripped (confidence 3) [1699A715] (AR v2)
Track 5 accurately ripped (confidence 3) [84F6E6F7] (AR v2)
Track 6 accurately ripped (confidence 3) [12A06FC7] (AR v2)
Track 7 accurately ripped (confidence 3) [28ED358E] (AR v2)
Track 8 accurately ripped (confidence 3) [C0B16C20] (AR v2)
Track 9 accurately ripped (confidence 3) [B3F934C9] (AR v2)
Track 10 accurately ripped (confidence 3) [78D555F1] (AR v2)
Track 11 accurately ripped (confidence 3) [495B31BD] (AR v2)
Track 12 accurately ripped (confidence 3) [BAA5405A] (AR v2)
Track 13 accurately ripped (confidence 3) [51577850] (AR v2)
Track 14 accurately ripped (confidence 3) [3A76232D] (AR v2)
Track 15 accurately ripped (confidence 3) [242A1FFC] (AR v2)
Track 16 accurately ripped (confidence 3) [B3E5BEF9] (AR v2)
Track 17 accurately ripped (confidence 3) [6B4102EE] (AR v2)
Track 18 accurately ripped (confidence 3) [F89A6159] (AR v2)

All tracks accurately ripped

End of status report

–– CUETools DB Plugin V2.1.6

[CTDB TOCID: 0ao4EsVtFtNQgL9uYxwLhJxafwA-] found
Submit result: 0ao4EsVtFtNQgL9uYxwLhJxafwA- has been confirmed
Track | CTDB Status
1 | (3/3) Accurately ripped
2 | (3/3) Accurately ripped
3 | (3/3) Accurately ripped
4 | (3/3) Accurately ripped
5 | (3/3) Accurately ripped
6 | (3/3) Accurately ripped
7 | (3/3) Accurately ripped
8 | (3/3) Accurately ripped
9 | (3/3) Accurately ripped
10 | (3/3) Accurately ripped
11 | (3/3) Accurately ripped
12 | (3/3) Accurately ripped
13 | (3/3) Accurately ripped
14 | (3/3) Accurately ripped
15 | (3/3) Accurately ripped
16 | (3/3) Accurately ripped
17 | (3/3) Accurately ripped
18 | (3/3) Accurately ripped


==== Log checksum E636146930C88A2E7741F90A542C82ED2FBB56316EC66C3E825C67059FDE6A8D ====

Thanks to the Original ripper (unknown)!

Download: