Subcategories

Nature's Symphony - The Sounds Of The Everglades (1998) {Orange Tree Productions} **[RE-UP]**

Posted By: TestTickles
Nature's Symphony - The Sounds Of The Everglades (1998) {Orange Tree Productions} **[RE-UP]**

Nature's Symphony - The Sounds Of The Everglades (1998) {Orange Tree Productions}
EAC Rip | FLAC with CUE and log | scans | 171 mb
MP3 CBR 320kbps | RAR | 62 mb
Genre: easy listening, natural sound, meditation

The Sounds Of The Everglades is a 1998 CD by Nature's Symphony. Released by Orange Tree Productions, this disc is part of their National Park Series and is a blend of natural sound with meditative music, both put together by Ross Pallone.

Nature's Symphony - The Sounds Of The Everglades (1998) {Orange Tree Productions} **[RE-UP]**

01. Flamingo
02. Spring Fever
03. Anhinga
04. Caribbean Breeze
05. Cypress Song
06. Oyster Bay
07. Torch
08. Mahogany Hammock

When recording in the wild, we use our special binaural microphone that creates a 3-dimensional effect for the listener. The KU 100 is a human head replace with microphones inside of the ears, so you hear sounds with incredible realism.

Tim Heintz-piano & keyboards
David Goldblatt-piano & keyboards
Grant Geissman-acoustic guitar
Bill Mize-acoustic guitar
Melissa Hasin-cello
Dan Higgins-woodwinds
Lee Ann Harris-percussion

Produced by Randy Petersen & Robb Klein
Music composed by Randy Petersen
Additional music by Bill Mize, Tim Heintz & David Goldblatt

Recorded on location in the Everglades Nationak Park
Music recorded & mixed by Ross Pallone

Exact Audio Copy V1.1 from 23. June 2015

EAC extraction logfile from 29. November 2016, 11:13

Nature's Symphony / The Sounds Of The Everglades

Used drive : TEAC DVD-ROM DV-28SW Adapter: 1 ID: 0

Read mode : Secure
Utilize accurate stream : Yes
Defeat audio cache : Yes
Make use of C2 pointers : No

Read offset correction : 6
Overread into Lead-In and Lead-Out : No
Fill up missing offset samples with silence : Yes
Delete leading and trailing silent blocks : No
Null samples used in CRC calculations : Yes
Used interface : Native Win32 interface for Win NT & 2000
Gap handling : Appended to previous track

Used output format : Internal WAV Routines
Sample format : 44.100 Hz; 16 Bit; Stereo


TOC of the extracted CD

Track | Start | Length | Start sector | End sector
––––––––––––––––––––––––––––-
1 | 0:00.00 | 5:29.38 | 0 | 24712
2 | 5:29.38 | 5:34.27 | 24713 | 49789
3 | 11:03.65 | 4:56.48 | 49790 | 72037
4 | 16:00.38 | 5:25.03 | 72038 | 96415
5 | 21:25.41 | 4:44.44 | 96416 | 117759
6 | 26:10.10 | 5:48.39 | 117760 | 143898
7 | 31:58.49 | 5:51.08 | 143899 | 170231
8 | 37:49.57 | 7:12.18 | 170232 | 202649


Track 1

Filename C:\My Documents\My FLAC\Nature's Symphony - The Sounds Of The Everglades (1998) [FLAC] {Orange Tree Productions}\01 - Flamingo.wav

Pre-gap length 0:00:02.00

Peak level 87.5 %
Extraction speed 2.8 X
Track quality 100.0 %
Test CRC C81A9054
Copy CRC C81A9054
Cannot be verified as accurate (confidence 1) [0872E7D0], AccurateRip returned [3C624202] (AR v2)
Copy OK

Track 2

Filename C:\My Documents\My FLAC\Nature's Symphony - The Sounds Of The Everglades (1998) [FLAC] {Orange Tree Productions}\02 - Spring Fever.wav

Peak level 72.8 %
Extraction speed 3.2 X
Track quality 100.0 %
Test CRC CC95BFF3
Copy CRC CC95BFF3
Cannot be verified as accurate (confidence 1) [1C70D814], AccurateRip returned [906688BA] (AR v2)
Copy OK

Track 3

Filename C:\My Documents\My FLAC\Nature's Symphony - The Sounds Of The Everglades (1998) [FLAC] {Orange Tree Productions}\03 - Anhinga.wav

Peak level 95.8 %
Extraction speed 2.7 X
Track quality 100.0 %
Test CRC B7EC21D9
Copy CRC B7EC21D9
Cannot be verified as accurate (confidence 1) [67716D9F], AccurateRip returned [C10B16C7] (AR v2)
Copy OK

Track 4

Filename C:\My Documents\My FLAC\Nature's Symphony - The Sounds Of The Everglades (1998) [FLAC] {Orange Tree Productions}\04 - Caribbean Breeze.wav

Peak level 99.9 %
Extraction speed 2.8 X
Track quality 99.9 %
Test CRC 23D0AB00
Copy CRC 23D0AB00
Cannot be verified as accurate (confidence 1) [A4B99E43], AccurateRip returned [41457054] (AR v2)
Copy OK

Track 5

Filename C:\My Documents\My FLAC\Nature's Symphony - The Sounds Of The Everglades (1998) [FLAC] {Orange Tree Productions}\05 - Cypress Song.wav

Peak level 98.9 %
Extraction speed 2.5 X
Track quality 99.9 %
Test CRC 0E51B557
Copy CRC 0E51B557
Cannot be verified as accurate (confidence 1) [EBAC4165], AccurateRip returned [6439DBEA] (AR v2)
Copy OK

Track 6

Filename C:\My Documents\My FLAC\Nature's Symphony - The Sounds Of The Everglades (1998) [FLAC] {Orange Tree Productions}\06 - Oyster Bay.wav

Peak level 88.0 %
Extraction speed 3.0 X
Track quality 100.0 %
Test CRC 00744CD5
Copy CRC 00744CD5
Cannot be verified as accurate (confidence 1) [2EA7BBB8], AccurateRip returned [A4F56C9E] (AR v2)
Copy OK

Track 7

Filename C:\My Documents\My FLAC\Nature's Symphony - The Sounds Of The Everglades (1998) [FLAC] {Orange Tree Productions}\07 - Torch.wav

Peak level 79.2 %
Extraction speed 3.2 X
Track quality 100.0 %
Test CRC F33C412D
Copy CRC F33C412D
Cannot be verified as accurate (confidence 1) [C2A699B3], AccurateRip returned [0845F246] (AR v2)
Copy OK

Track 8

Filename C:\My Documents\My FLAC\Nature's Symphony - The Sounds Of The Everglades (1998) [FLAC] {Orange Tree Productions}\08 - Mahogany Hammock.wav

Peak level 65.9 %
Extraction speed 3.9 X
Track quality 99.9 %
Test CRC F403FD57
Copy CRC F403FD57
Cannot be verified as accurate (confidence 1) [9DD07FC9], AccurateRip returned [13627140] (AR v2)
Copy OK


No tracks could be verified as accurate
You may have a different pressing from the one(s) in the database

No errors occurred

End of status report

–– CUETools DB Plugin V2.1.6

[CTDB TOCID: IwOVjeKAVmP_VK9dj52GfAj2_B8-] found
Submit result: IwOVjeKAVmP_VK9dj52GfAj2_B8- has been confirmed
Track | CTDB Status
1 | (9/9) Accurately ripped
2 | (9/9) Accurately ripped
3 | (9/9) Accurately ripped
4 | (9/9) Accurately ripped
5 | (9/9) Accurately ripped
6 | (9/9) Accurately ripped
7 | (9/9) Accurately ripped
8 | (9/9) Accurately ripped


==== Log checksum 24600CA2CF5E109059FE3B2D67BFD52CF2FB4C301498A07C041A096EBCE27F48 ====


Nature's Symphony - The Sounds Of The Everglades (1998) {Orange Tree Productions} **[RE-UP]**