Subcategories

Naked Eyes - The Best Of Naked Eyes (1991)

Posted By: Designol
Naked Eyes - The Best Of Naked Eyes (1991)

Naked Eyes - The Best Of Naked Eyes (1991)
EAC | FLAC | Image (Cue&Log) ~ 398 Mb | Mp3 (CBR320) ~ 148 Mb | Scans included
New Wave, Synthpop | Label: EMI | # CDP-7-95843-2 | Time: 00:58:22

Best of Naked Eyes offers 15 tracks of the synth pop duo's best moments from their two U.S. albums, 1983's Naked Eyes and 1984's Burning Bridges. The collection is surpassed by the more extensive Very Best Of from 1994, but is notable for the inclusion of one track, "Could Be," which the second collection excluded.

Review by Chris Woodstra, Allmusic.com

First, thanks to Pete Byrne (the surviving half of Naked Eyes, along with the late Rob Fisher) for clarifying what happened with the two greatest hits collections of Naked Eyes in his Amazon review of Promises Promises (December 14, 2005) - EMI put this earlier compilation together, leaving off When the Lights Go Out, one of only four Top 40 hits by Naked Eyes (What WERE they thinking?). Pete subsequently put together a different, and somewhat superior, compilation (the aforementioned Promises Promises collection), but when EMI decided to delete one of them, they chose the wrong one and kept this one - Promises Promises is now long out of print, and used copies are usually VERY expensive. (Byrne, of course, makes nothing on the sale of used CD's, so don't blame him for profiteering.) This "Best Of" collection only contains 15 songs (all from their two U.S., studio albums), while "Promises Promises - The Very Best Of" contains 20 (including some bonus material).

That being said, even without When the Lights Go Out, this is a fantastic collection of songs by Naked Eyes, covering 9 of the 10 songs from their first album, the self-titled Naked Eyes, never yet released on CD. The Promises Promises collection leaves off only Could Be from their first album. By the way, looking at a Naked Eyes discography, I just found that the debut album was titled Burning Bridges in other countries, including two additional songs A Very Hard Act to Follow and The Time is Now, both included on Promises Promises, but not on this compilation.

Four of the ten songs from their other studio album, Fuel for the Fire (also never yet released on CD), are left off this compilation - Once is Enough and Answering Service do not appear on either compilation, while New Hearts and Me I See in You appear on Promises Promises. Of these four, all but New Hearts appear on Everything and More, a later compilation of rarities, b-sides, and remixes.

For the completist, almost everything from the two studio albums appears on either this Best Of package or the Everything and More rarities CD (and you can pick up When the Lights Go Out on the Back-to-Back Naked Eyes / Spandau Ballet CD quite cheaply - it has all 4 of their Top 40 hits). But hopefully Pete Byrne will be successful in the negotiations he mentioned in his review, to eventually bring out ALL of the Naked Eyes recorded output on CD. And hopefully this will include the song from the Dr. Pepper commercial done by Naked Eyes that someone in another review referred to - how cool.

Though they released only two studio albums, Naked Eyes had some of the catchiest pop songs of the 80's, and this CD is an excellent collection of all (except one) of their best!

Review by Dwight Blubaugh, Amazon.com

Naked Eyes - The Best Of Naked Eyes (1991)



Tracklist:

01. Always Something There To Remind Me (03:43)
02. Emotion In Motion (04:42)
03. Voices In My Head (03:48)
04. Low Life (03:56)
05. Flag Of Convenience (04:11)
06. Eyes Of A Child (03:38)
07. In The Name Of Love (04:27)
08. Promises, Promises (03:51)
09. Sacrifice (04:09)
10. No Flowers Please (04:04)
11. Flying Solo (04:32)
12. I Could Show You How (03:26)
13. Could Be (02:52)
14. Burning Bridges (03:38)
15. Fortune And Fame (03:18)


Exact Audio Copy V0.99 prebeta 4 from 23. January 2008

Отчёт EAC об извлечении, выполненном 3. февраля 2009, 17:21

Naked Eyes / The Best Of Naked Eyes

Дисковод: Optiarc DVD RW AD-7200S Adapter: 0 ID: 1

Режим чтения : Достоверность
Использование точного потока : Да
Отключение кэша аудио : Да
Использование указателей C2 : Нет

Коррекция смещения при чтении : 48
Способность читать области Lead-in и Lead-out : Нет
Заполнение пропущенных сэмплов тишиной : Да
Удаление блоков с тишиной в начале и конце : Нет
При вычислениях CRC использовались нулевые сэмплы : Да
Интерфейс : Встроенный Win32-интерфейс для Win NT/2000

Выходной формат : Внутренние WAV-операции
Формат сэмплов : 44.100 Гц; 16 бит; стерео


TOC извлечённого CD

Трек | Старт | Длительность | Начальный сектор | Конечный сектор
––––––––––––––––––––––––––––––––––-
1 | 0:00.00 | 3:43.20 | 0 | 16744
2 | 3:43.20 | 4:42.35 | 16745 | 37929
3 | 8:25.55 | 3:48.20 | 37930 | 55049
4 | 12:14.00 | 3:56.05 | 55050 | 72754
5 | 16:10.05 | 4:11.67 | 72755 | 91646
6 | 20:21.72 | 3:38.05 | 91647 | 108001
7 | 24:00.02 | 4:27.63 | 108002 | 128089
8 | 28:27.65 | 3:51.07 | 128090 | 145421
9 | 32:18.72 | 4:09.25 | 145422 | 164121
10 | 36:28.22 | 4:04.73 | 164122 | 182494
11 | 40:33.20 | 4:32.27 | 182495 | 202921
12 | 45:05.47 | 3:26.60 | 202922 | 218431
13 | 48:32.32 | 2:52.15 | 218432 | 231346
14 | 51:24.47 | 3:38.68 | 231347 | 247764
15 | 55:03.40 | 3:18.05 | 247765 | 262619


Характеристики диапазона извлечения и сообщения об ошибках

Выбранный диапазон

Имя файла D:\Download\Моя Раздача\Naked Eyes - The best of\Naked Eyes - The Best Of Naked Eyes.wav

Пиковый уровень 100.0 %
Качество диапазона 99.9 %
CRC копии 372F48FC
Копирование… OK

Ошибок не произошло


AccurateRip: сводка

Трек 1 точность не определена (достоверность 11) [5887F8D9], AccurateRip вернул [295A46BA]
Трек 2 точность не определена (достоверность 10) [C91121EF], AccurateRip вернул [809E398C]
Трек 3 точность не определена (достоверность 10) [8D76CCBA], AccurateRip вернул [77E0816C]
Трек 4 точность не определена (достоверность 10) [AEA09A38], AccurateRip вернул [1039D245]
Трек 5 точность не определена (достоверность 10) [B154A4EA], AccurateRip вернул [C1DB06D1]
Трек 6 точность не определена (достоверность 10) [064A40F0], AccurateRip вернул [185CF3A0]
Трек 7 точность не определена (достоверность 10) [A94F88A7], AccurateRip вернул [7A6A653E]
Трек 8 точность не определена (достоверность 10) [9851624F], AccurateRip вернул [97421691]
Трек 9 точность не определена (достоверность 10) [11DE06FF], AccurateRip вернул [4F4D135E]
Трек 10 точность не определена (достоверность 10) [EFE89EF5], AccurateRip вернул [5464FCB8]
Трек 11 точность не определена (достоверность 9) [7745B204], AccurateRip вернул [781FFFBE]
Трек 12 точность не определена (достоверность 10) [F4815F34], AccurateRip вернул [0775676C]
Трек 13 точность не определена (достоверность 9) [FBA7EB27], AccurateRip вернул [2A52DBA9]
Трек 14 точность не определена (достоверность 10) [EBAA4816], AccurateRip вернул [5A209215]
Трек 15 точность не определена (достоверность 10) [EFB0F449], AccurateRip вернул [14A3FDF1]

Ни один трек не прошёл проверки на точность
В вашей базе может быть иной вариант штамповки диска

Конец отчёта

[CUETools log; Date: 09.10.2015 16:22:35; Version: 2.1.4]
[CTDB TOCID: p2udG1T1Vsdoh6R9Chv_yr_j5Ao-] found.
Track | CTDB Status
1 | (21/23) Accurately ripped
2 | (22/23) Accurately ripped
3 | (22/23) Accurately ripped
4 | (22/23) Accurately ripped
5 | (21/23) Accurately ripped
6 | ( 6/23) Accurately ripped, or (14/23) differs in 1 samples @02:16:66
7 | (22/23) Accurately ripped
8 | (22/23) Accurately ripped
9 | (22/23) Accurately ripped
10 | (22/23) Accurately ripped
11 | (22/23) Accurately ripped
12 | (22/23) Accurately ripped
13 | (22/23) Accurately ripped
14 | (22/23) Accurately ripped
15 | (22/23) Accurately ripped
[AccurateRip ID: 00210a60-017518c4-c10dad0f] found.
Track [ CRC | V2 ] Status
01 [5887f8d9|d6653e5f] (11+09/78) Accurately ripped
02 [c91121ef|e85c7547] (10+09/74) Accurately ripped
03 [8d76ccba|50e93811] (10+09/74) Accurately ripped
04 [aea09a38|fa02d7a3] (10+09/73) Accurately ripped
05 [b154a4ea|1661ad2f] (10+09/74) Accurately ripped
06 [064a40f0|705ed087] (10+09/74) Accurately ripped
07 [a94f88a7|fbc48a22] (10+09/74) Accurately ripped
08 [9851624f|5b3f735d] (11+09/76) Accurately ripped
09 [11de06ff|957b7589] (10+09/74) Accurately ripped
10 [efe89ef5|0193a392] (10+09/74) Accurately ripped
11 [7745b204|0faff420] (10+09/72) Accurately ripped
12 [f4815f34|c8eb92db] (10+09/74) Accurately ripped
13 [fba7eb27|77182a28] (10+09/72) Accurately ripped
14 [ebaa4816|0fd4370d] (10+09/74) Accurately ripped
15 [efb0f449|0577683d] (10+09/73) Accurately ripped
Offsetted by -18:
01 [edda2a43] (03/78) Accurately ripped
02 [faebe231] (03/74) Accurately ripped
03 [10cc1eee] (03/74) Accurately ripped
04 [3b4a44da] (03/73) Accurately ripped
05 [a1067e50] (03/74) Accurately ripped
06 [fbf4c9d0] (03/74) Accurately ripped
07 [0b2ebaed] (03/74) Accurately ripped
08 [d3cb0a23] (03/76) Accurately ripped
09 [7ec44415] (03/74) Accurately ripped
10 [187d9073] (03/74) Accurately ripped
11 [4b387388] (03/72) Accurately ripped
12 [801f8464] (03/74) Accurately ripped
13 [11d4157b] (03/72) Accurately ripped
14 [dc45b16c] (03/74) Accurately ripped
15 [69e16dd9] (03/73) Accurately ripped
Offsetted by 2075:
01 [295a46ba] (27/78) Accurately ripped
02 [809e398c] (25/74) Accurately ripped
03 [77e0816c] (25/74) Accurately ripped
04 [1039d245] (25/73) Accurately ripped
05 [c1db06d1] (25/74) Accurately ripped
06 [02e2f3a0] (00/74) No match (V2 was not tested)
07 [7a6a653e] (25/74) Accurately ripped
08 [97421691] (25/76) Accurately ripped
09 [4f4d135e] (25/74) Accurately ripped
10 [5464fcb8] (25/74) Accurately ripped
11 [781fffbe] (23/72) Accurately ripped
12 [0775676c] (25/74) Accurately ripped
13 [2a52dba9] (24/72) Accurately ripped
14 [5a209215] (25/74) Accurately ripped
15 [14a3fdf1] (24/73) Accurately ripped

Track Peak [ CRC32 ] [W/O NULL] [ LOG ]
– 100,0 [372F48FC] [F8026C83] CRC32
01 100,0 [8ECECBC4] [FE751281]
02 100,0 [B904B894] [E3D06F80]
03 99,9 [A6690327] [8267E0D4]
04 100,0 [8D9ADE71] [F922496D]
05 89,3 [F82E9BA4] [CCFBB309]
06 100,0 [E373084D] [BA1D6742]
07 100,0 [CC1F7EA8] [A38F1CD8]
08 100,0 [B040BE1C] [AC523CBD]
09 100,0 [6420A2B0] [DCAACDE0]
10 100,0 [92A3CB86] [6B2EC017]
11 92,5 [3E7B46DE] [6D8B3975]
12 87,8 [CA7CE898] [91DA8ECD]
13 90,6 [3DEF40F0] [1E70A748]
14 100,0 [21EB9F74] [727D2BAA]
15 100,0 [857EAFE6] [4A2E425B]

foobar2000 1.2 / Dynamic Range Meter 1.1.1
log date: 2015-10-09 16:22:20

––––––––––––––––––––––––––––––––––––––––
Analyzed: Naked Eyes / The Best Of Naked Eyes
––––––––––––––––––––––––––––––––––––––––

DR Peak RMS Duration Track
––––––––––––––––––––––––––––––––––––––––
DR13 0.00 dB -15.04 dB 3:43 01-Always Something There To Remind Me
DR12 0.00 dB -15.63 dB 4:42 02-Emotion In Motion
DR13 -0.01 dB -14.59 dB 3:48 03-Voices In My Head
DR13 0.00 dB -15.62 dB 3:56 04-Low Life
DR12 -0.98 dB -15.31 dB 4:12 05-Flag Of Convenience
DR13 0.00 dB -16.40 dB 3:38 06-Eyes Of A Child
DR15 0.00 dB -16.61 dB 4:28 07-In The Name Of Love
DR13 0.00 dB -14.98 dB 3:51 08-Promises, Promises
DR14 0.00 dB -15.77 dB 4:09 09-Sacrifice
DR13 0.00 dB -14.92 dB 4:05 10-No Flowers Please
DR12 -0.67 dB -15.17 dB 4:32 11-Flying Solo
DR12 -1.13 dB -15.08 dB 3:27 12-I Could Show You How
DR12 -0.85 dB -15.02 dB 2:52 13-Could Be
DR12 0.00 dB -13.35 dB 3:39 14-Burning Bridges
DR11 0.00 dB -13.34 dB 3:18 15-Fortune And Fame
––––––––––––––––––––––––––––––––––––––––

Number of tracks: 15
Official DR value: DR13

Samplerate: 44100 Hz
Channels: 2
Bits per sample: 16
Bitrate: 905 kbps
Codec: FLAC
================================================================================

Naked Eyes - The Best Of Naked Eyes (1991)

Naked Eyes - The Best Of Naked Eyes (1991)

All thanks to original releaser - lomik70

More interesting music in My Blog