Subcategories

Natalie Merchant - Live In Concert (1999) CD & DVD Releases

Posted By: Designol
Natalie Merchant - Live In Concert (1999) CD & DVD Releases

Natalie Merchant - Live In Concert (1999) CD & DVD
EAC | FLAC | Image (Cue&Log) ~ 404 Mb | Mp3 (CBR320) ~ 144 Mb | Scans ~ 87 Mb | 01:00:06
DVD5 | ISO | NTSC 4:3 (720x480) VBR | AC3 5.1, 448Kbps; AC3 2.0, 192Kbps | 01:09:54 | ~ 4.2 Gb
Adult Alternative Pop/Rock, Folk Rock, Singer/Songwriter | Label: Elektra | # 7559-62479-2 (CD)

Erstwhile 10,000 Maniacs frontwoman Natalie Merchant continues her highly successful solo career with LIVE IN CONCERT, a show that was recorded at New York's Neil Simon Theater. The set opens, somewhat appropriately, with one of the songs that got Merchant's solo career off to a blazing start, "Wonder." As she usually does in live performance, Merchant plays with the lyrical phrasing of the song to add unexpected melisma and daring tonal gambits. Merchant lends the dark and ephemeral "San Andreas Fault" a lightly sultry quality not found on the studio version. Other familiar favorites include "Beloved Wife," "Carnival," and "Ophelia." Merchant revisits the Maniacs' catalog only once, for a rousing take on "Gun Shy." Two unexpected covers spice the middle of the set: a haunting and powerful reading of David Bowie's "Space Oddity," and a beautiful take on Neil Young's "After the Gold Rush." Merchant and her prodigiously talented backing band manage to breathe new life into the songs, which in lesser hands might come off as weak copies of the revered originals.

There is little question that Natalie Merchant has a devoted audience, yet it still is curious that she released Live in Concert as her third solo album. After all, two albums don't really provide enough of a repertoire for a live record, especially if she's reluctant to sing 10,000 Maniacs material. Furthermore, she doesn't really change the recorded arrangements of her songs for performance – which may not be a problem in a live setting, since a concert is about mood as well as music. But when that same performance is translated to disc, it doesn't have the same feeling, and that's the case with Live in Concert. Assembled from the tapes of her five-show stand at the Neil Simon Theater in June 1999, this recording leans heavily on Tigerlily, containing no less than five songs from her solo debut. The remainder of the record is devoted to covers, plus two 10,000 Maniacs numbers and just one song from 1998's Ophelia, the album she was supporting on the tour. Since Ophelia did not match Tigerlily's success, this sequencing highlights the material that the majority of her fans love, but it also makes Live in Concert feel like an alternate version of Tigerlily, especially since there's little difference between these live takes and the original versions. Merchant is in fine voice throughout the record, performing with conviction, and her backing band is appealingly professional, meaning that this is a solid record. However, since its material adheres so faithfully to the original recordings – even the 10,000 Maniacs songs are only slightly changed – it only becomes interesting when she tackles songs she hasn't recorded before: the covers, which she reworks into her signature style. Still, it's not enough to make Live in Concert more than anything but a souvenir for hardcore fans.

Review by Stephen Thomas Erlewine, Allmusic.com

Natalie Merchant - Live In Concert (1999) CD & DVD Releases

Natalie Merchant - Live In Concert (1999) CD & DVD Releases

Natalie Merchant at Allmusic
Natalie Merchant Website
Natalie Merchant at Wiki

Tracklist:

01. Wonder (05:36)
02. San Andreas Fault (05:00)
03. Beloved Wife (05:33)
04. Space Oddity (04:32)
05. Carnival (07:02)
06. Dust Bowl (05:11)
07. After the Gold Rush (03:46)
08. Gun Shy (05:28)
09. The Gulf of Araby (07:10)
10. Ophelia (05:23)
11. Seven Years (05:19)


Exact Audio Copy V0.99 prebeta 5 from 4. May 2009

Отчёт EAC об извлечении, выполненном 6. июля 2011, 23:07

Natalie Merchant / Live in Concert

Дисковод: PIONEER DVD-RW DVR-215D Adapter: 1 ID: 1

Режим чтения : Достоверность
Использование точного потока : Да
Отключение кэша аудио : Да
Использование указателей C2 : Нет

Коррекция смещения при чтении : 48
Способность читать области Lead-in и Lead-out : Нет
Заполнение пропущенных сэмплов тишиной : Да
Удаление блоков с тишиной в начале и конце : Нет
При вычислениях CRC использовались нулевые сэмплы : Да
Интерфейс : Встроенный Win32-интерфейс для Win NT/2000

Выходной формат : Пользовательский кодировщик
Выбранный битрейт : 1024 kBit/s
Качество : Высокий
Добавление ID3-тэга : Нет
Утилита сжатия : H:\Program Files\Exact Audio Copy\FLAC\FLAC.EXE
Дополнительные параметры : -6 -V -T "ARTIST=%a" -T "TITLE=%t" -T "ALBUM=%g" -T "DATE=%y" -T "TRACKNUMBER=%n" -T "GENRE=%m" -T "COMMENT=%e" %s -o %d


TOC извлечённого CD

Трек | Старт | Длительность | Начальный сектор | Конечный сектор
––––––––––––––––––––––––––––––––––-
1 | 0:00.00 | 5:36.57 | 0 | 25256
2 | 5:36.57 | 5:00.55 | 25257 | 47811
3 | 10:37.37 | 5:33.33 | 47812 | 72819
4 | 16:10.70 | 4:32.70 | 72820 | 93289
5 | 20:43.65 | 7:02.55 | 93290 | 124994
6 | 27:46.45 | 5:11.57 | 124995 | 148376
7 | 32:58.27 | 3:46.20 | 148377 | 165346
8 | 36:44.47 | 5:28.28 | 165347 | 189974
9 | 42:13.00 | 7:10.07 | 189975 | 222231
10 | 49:23.07 | 5:23.50 | 222232 | 246506
11 | 54:46.57 | 5:19.63 | 246507 | 270494


Характеристики диапазона извлечения и сообщения об ошибках

Выбранный диапазон

Имя файла L:\Audio Lossless\Natalie Merchant. 1999 Live In Concert New York City\Natalie Merchant - Live in Concert.wav

Пиковый уровень 100.0 %
Качество диапазона 100.0 %
CRC теста 79121D92
CRC копии 79121D92
Копирование… OK

Ошибок не произошло


AccurateRip: сводка

Трек 1 точное извлечение (доверие 42) [D3C3752D]
Трек 2 точное извлечение (доверие 42) [5497D3D4]
Трек 3 точное извлечение (доверие 41) [BDF08A5C]
Трек 4 точное извлечение (доверие 42) [5A5B20DC]
Трек 5 точное извлечение (доверие 43) [801392A2]
Трек 6 точное извлечение (доверие 42) [22BDE14F]
Трек 7 точное извлечение (доверие 42) [BD1FC085]
Трек 8 точное извлечение (доверие 42) [7049F4C7]
Трек 9 точное извлечение (доверие 42) [D74B62BF]
Трек 10 точное извлечение (доверие 42) [4295358D]
Трек 11 точное извлечение (доверие 42) [8FB166EA]

Все треки извлечены точно

Конец отчёта

foobar2000 1.2 / Dynamic Range Meter 1.1.1
log date: 2017-01-18 04:07:56

––––––––––––––––––––––––––––––––––––––––
Analyzed: Natalie Merchant / Live in Concert
––––––––––––––––––––––––––––––––––––––––

DR Peak RMS Duration Track
––––––––––––––––––––––––––––––––––––––––
DR8 0.00 dB -9.74 dB 5:37 01-Wonder
DR9 0.00 dB -11.38 dB 5:01 02-San Andreas Fault
DR9 -0.10 dB -12.23 dB 5:33 03-Beloved Wife
DR8 -0.04 dB -10.12 dB 4:33 04-Space Oddity
DR8 -0.04 dB -9.65 dB 7:03 05-Carnival
DR9 0.00 dB -11.77 dB 5:12 06-Dust Bowl
DR8 -0.04 dB -9.84 dB 3:46 07-After the Gold Rush
DR8 0.00 dB -10.23 dB 5:28 08-Gun Shy
DR8 -0.04 dB -12.34 dB 7:10 09-The Gulf of Araby
DR10 -0.07 dB -13.26 dB 5:24 10-Ophelia
DR8 0.00 dB -11.24 dB 5:20 11-Seven Years
––––––––––––––––––––––––––––––––––––––––

Number of tracks: 11
Official DR value: DR8

Samplerate: 44100 Hz
Channels: 2
Bits per sample: 16
Bitrate: 895 kbps
Codec: FLAC
================================================================================




Natalie Merchant - Live In Concert (1999) CD & DVD Releases


Natalie Merchant - Live In Concert (1999) CD & DVD Releases

Natalie Merchant - Live In Concert (1999) CD & DVD Releases

Natalie Merchant - Live In Concert (1999) CD & DVD Releases

Natalie Merchant - Live In Concert (1999) CD & DVD Releases

Natalie Merchant - Live In Concert (1999) CD & DVD Releases

Natalie Merchant - Live In Concert (1999) CD & DVD Releases


DVD Content:

01. Life Is Sweet
02. Opehlia
03. Wonder
04. San Andreas Fault
05. Beloved Wife
06. Senor Don Gato
07. Space Oddity
08. Carnival
09. Break Your Heart
10. These Are Days
11. The Gulf of Araby
12. Waterbound



All thanks to original releaser - Mawrix for CD and TheCrazyHacker for DVD

More interesting music in My Blog

Natalie Merchant - Retrospective 1990-2005 (2005) 2CD Deluxe Edition


Password: designol