Subcategories
Tags
Language
Tags

Natalie Imbruglia - Albums Collection 1997-2009 (5CD+DVD) [Re-Up]

Posted By: Designol
Natalie Imbruglia - Albums Collection 1997-2009 (5CD+DVD) [Re-Up]

Natalie Imbruglia - Albums Collection 1997-2009 (5CD+DVD)
EAC | FLAC | Image (Cue&Log) ~ 1.65 Gb | Mp3 (CBR320) ~ 563 Mb | Time: 04:06:00
DVD5 | PAL | 4:3 (720x576) VBR | LinearPCM, 2 ch | Time: 00:44:47 | ~ 2.8 Gb
Genre: Pop, Pop/Rock, Adult Alternative Pop/Rock | Scans ~ 228 Mb

Collection includes: Left of the Middle (1997); White Lilies Island (2001); Counting Down the Days (2005); Glorious: The Singles 97–07 (2007); Come to Life (2009).

By mixing Lisa Loeb/Alanis Morissette-like singing with music that sounds similar to a more mainstream Portishead at times, Natalie Imbruglia became one of the biggest pop sensations in Europe. Born in Sydney, Australia, on February 4, 1975, Imbruglia was one of four sisters and grew up in a tiny beach town. After becoming a teen actress and landing a spot on the Australian soap opera Neighbours, Imbruglia decided that she would rather be a singer, and moved to London in 1996 to try her luck. It was a wise move, as she was soon signed to the RCA U.K. label. Deciding to release a single before her full-length debut, the track "Torn" was issued in 1997, and no one could have predicted its wild success. Produced by former Cure member Phil Thornalley and written by Ednaswap, the single spent a total of 14 weeks at number one, sold over a million copies, and broke the record for most airplay in U.K. history. Her debut album, Left of the Middle, was a major hit in Australia, the U.K., and the U.S. upon its release in early 1998. Follow-up singles "Smoke" and the album's title track did moderately well, but never achieved massive success like "Torn." After whirlwind praise, Imbruglia disappeared for the rest of the '90s. She found herself battling writer's block while trying to compose material for a sophomore effort, but finally succeeded and, in 2001, released White Lilies Island in the U.K. The album's debut single, "That Day," was a favorite among radio play. A nearly four-year wait preceded the release of Counting Down the Days. Alongside Coldplay's "Speed of Sound" and James Blunt's "You're Beautiful," Imbruglia's song "Shiver" was nominated for the Ivor Novello Award in the PRS most-performed work category in 2006.

Biography by Greg Prato, Allmusic.com

Natalie Imbruglia - Albums Collection 1997-2009 (5CD+DVD) [Re-Up]





Natalie Imbruglia - Albums Collection 1997-2009 (5CD+DVD) [Re-Up]

Natalie Imbruglia - Left of the Middle (1997)
EAC | FLAC | Image (Cue&Log) ~ 342 Mb | Mp3 (CBR320) ~ 127 Mb | Scans ~ 49 Mb
Label: RCA/BMG | # 74321 571382 | Time: 00:55:50

Expectations for Natalie Imbruglia's debut album, Left of the Middle, were high because of the runaway success of the pre-album single "Torn" during 1997-1998. Fans of the single will be pleased to hear that the album is quite similar in approach and sound to the breakthrough single: laid-back alt-pop with sweetly melodic vocals. Admittedly, some of the material will be seen as pop fluff by certain listeners, but fans of popular latter-day female artists like Paula Cole, Sheryl Crow, and Meredith Brooks will find Imbruglia's debut most enjoyable. What separates Imbruglia from the aforementioned artists is her willingness to experiment with electronic sounds, no doubt courtesy of mixer Nigel Godrich (of Radiohead fame), which can be heard on such tracks as "Smoke." "Torn" proves to be the best song on the album, with its bouncy acoustic feel, but the pop/rocker "Big Mistake" is almost as good. Not all of the material on Left of the Middle fares as well, however, such as the Alanis Morissette sound-alike "Intuition," but Imbruglia need not worry about being lumped into the copycat category; for the most part, she has a style all her own.

Review by Greg Prato, Allmusic.com

Tracklist:

01. Torn (04:04)
02. One More Addiction (03:29)
03. Big Mistake (04:33)
04. Leave Me Alone (04:21)
05. Wishing I Was There (03:51)
06. Smoke (04:37)
07. Pigeons And Crumbs (05:19)
08. Don't You Think? (03:55)
09. Impressed (04:47)
10. Intuition (03:22)
11. City (04:33)
12. Left Of The Middle (03:46)


Exact Audio Copy V0.99 prebeta 3 from 28. July 2007

Отчёт EAC об извлечении, выполненном 24. ноября 2009, 19:23

Natalie Imbruglia / Left Of The Middle

Дисковод: PIONEER DVD-RW DVR-112D Adapter: 1 ID: 0

Режим чтения : Достоверность
Использование точного потока : Да
Отключение кэша аудио : Да
Использование указателей C2 : Нет

Коррекция смещения при чтении : 48
Способность читать области Lead-in и Lead-out : Нет
Заполнение пропущенных сэмплов тишиной : Да
Удаление блоков с тишиной в начале и конце : Нет
При вычислениях CRC использовались нулевые сэмплы : Да
Интерфейс : Встроенный Win32-интерфейс для Win NT/2000

Выходной формат : Внутренние WAV-операции
Формат сэмплов : 44.100 Гц; 16 бит; стерео


TOC извлечённого CD

Трек | Старт | Длительность | Начальный сектор | Конечный сектор
––––––––––––––––––––––––––––––––––-
1 | 0:00.00 | 4:04.67 | 0 | 18366
2 | 4:04.67 | 3:31.08 | 18367 | 34199
3 | 7:36.00 | 4:33.05 | 34200 | 54679
4 | 12:09.05 | 4:23.40 | 54680 | 74444
5 | 16:32.45 | 3:53.00 | 74445 | 91919
6 | 20:25.45 | 4:37.27 | 91920 | 112721
7 | 25:02.72 | 5:19.53 | 112722 | 136699
8 | 30:22.50 | 3:55.25 | 136700 | 154349
9 | 34:18.00 | 4:48.52 | 154350 | 176001
10 | 39:06.52 | 3:23.38 | 176002 | 191264
11 | 42:30.15 | 9:33.27 | 191265 | 234266
12 | 52:03.42 | 3:46.63 | 234267 | 251279


Характеристики диапазона извлечения и сообщения об ошибках

Выбранный диапазон

Имя файла I:\0002\Natalie Imbruglia - 1998 - Left Of The Middle\CDImage.wav

Пиковый уровень 98.8 %
Качество диапазона 100.0 %
CRC копии F67C2A66
Копирование… OK

Ошибок не произошло


AccurateRip: сводка

Трек 1 точное извлечение (доверие 16) [C5932DF8]
Трек 2 точное извлечение (доверие 16) [C24EC1BF]
Трек 3 точное извлечение (доверие 16) [7706ABC4]
Трек 4 точное извлечение (доверие 16) [87CF7C6F]
Трек 5 точное извлечение (доверие 16) [C1D72F92]
Трек 6 точное извлечение (доверие 16) [35EED3C2]
Трек 7 точное извлечение (доверие 16) [FEEFDED3]
Трек 8 точное извлечение (доверие 16) [E18E7EFE]
Трек 9 точное извлечение (доверие 16) [FC150085]
Трек 10 точное извлечение (доверие 16) [DF0A7AA6]
Трек 11 точное извлечение (доверие 16) [53854668]
Трек 12 точное извлечение (доверие 16) [EA9544CB]

Все треки извлечены точно

Конец отчёта




Natalie Imbruglia - Albums Collection 1997-2009 (5CD+DVD) [Re-Up]

Natalie Imbruglia - White Lilies Island (2001)
EAC | FLAC | Image (Cue&Log) ~ 354 Mb | Mp3 (CBR320) ~ 118 Mb | Scans ~ 52 Mb
Label: RCA | # 74321 913422 | Time: 00:51:36

Natalie Imbruglia was an instant charm with her 1998 debut single, Torn, and expectations for a follow-up to Left of the Middle were practically immediate. Imbruglia wasn't quick to rush, however. Instead of investing in the quick pop sound she made popular on her first album, she took her time in redefining herself as a songwriter with substance. Four years after becoming an international star, Imbruglia emerged with her finest work to date with White Lilies Island. It's a record that breathes something pure, and one can sense that she has complete control, lyrically and musically. Her spiritual and emotional connection remains the same, and White Lilies Island is her reflection of the reinvention. "Wrong Impression" is sweet with its twangy guitar riffs, and Imbruglia's softness is deceiving. She's quite dark, and challenges typical notions of love and acceptance. "Beauty on the Fire" and the heavy romance of "Do You Love" continue the fight. "That Day" and "Sunlight" are strikingly edgy, and Imbruglia's simplicity and energy are intoxicating. She couldn't have rushed this album. Imbruglia has made a brilliant pop record – contemporary, yet timeless. White Lilies Island would have suffered without Natalie Imbruglia's perfectionism, and it would have lost sight of the elegance it so perfectly exudes.

Review by MacKenzie Wilson, Allmusic.com

Tracklist:

01. That Day (04:42)
02. Beauty On The Fire (04:21)
03. Satellite (03:06)
04. Do You Love (04:43)
05. Wrong Impression (04:16)
06. Goodbye (05:00)
07. Everything Goes (04:00)
08. Hurricane (03:38)
09. Sunlight (05:00)
10. Talk In Tongues (03:29)
11. Butterflies (04:56)
12. Come September (04:11)


Exact Audio Copy V0.99 prebeta 3 from 28. July 2007

Отчёт EAC об извлечении, выполненном 24. ноября 2009, 19:10

Natalie Imbruglia / White Lilies Island

Дисковод: PIONEER DVD-RW DVR-112D Adapter: 1 ID: 0

Режим чтения : Достоверность
Использование точного потока : Да
Отключение кэша аудио : Да
Использование указателей C2 : Нет

Коррекция смещения при чтении : 48
Способность читать области Lead-in и Lead-out : Нет
Заполнение пропущенных сэмплов тишиной : Да
Удаление блоков с тишиной в начале и конце : Нет
При вычислениях CRC использовались нулевые сэмплы : Да
Интерфейс : Встроенный Win32-интерфейс для Win NT/2000

Выходной формат : Внутренние WAV-операции
Формат сэмплов : 44.100 Гц; 16 бит; стерео


TOC извлечённого CD

Трек | Старт | Длительность | Начальный сектор | Конечный сектор
––––––––––––––––––––––––––––––––––-
1 | 0:00.00 | 4:44.32 | 0 | 21331
2 | 4:44.32 | 4:21.23 | 21332 | 40929
3 | 9:05.55 | 3:08.70 | 40930 | 55099
4 | 12:14.50 | 4:43.50 | 55100 | 76374
5 | 16:58.25 | 4:17.70 | 76375 | 95719
6 | 21:16.20 | 5:00.67 | 95720 | 118286
7 | 26:17.12 | 4:01.35 | 118287 | 136396
8 | 30:18.47 | 3:38.53 | 136397 | 152799
9 | 33:57.25 | 5:01.62 | 152800 | 175436
10 | 38:59.12 | 3:29.50 | 175437 | 191161
11 | 42:28.62 | 4:56.18 | 191162 | 213379
12 | 47:25.05 | 4:11.12 | 213380 | 232216


Характеристики диапазона извлечения и сообщения об ошибках

Выбранный диапазон

Имя файла I:\0002\Natalie Imbruglia - 2001 - White Lilies Island\CDImage.wav

Пиковый уровень 100.0 %
Качество диапазона 100.0 %
CRC копии F06825C9
Копирование… OK

Ошибок не произошло


AccurateRip: сводка

Трек 1 точное извлечение (доверие 26) [705CE061]
Трек 2 точное извлечение (доверие 25) [C51BBE79]
Трек 3 точное извлечение (доверие 25) [6A633138]
Трек 4 точное извлечение (доверие 25) [0C877351]
Трек 5 точное извлечение (доверие 25) [64A7E931]
Трек 6 точное извлечение (доверие 25) [3FCBE08D]
Трек 7 точное извлечение (доверие 25) [5F83FBD1]
Трек 8 точное извлечение (доверие 25) [2E89A56A]
Трек 9 точное извлечение (доверие 25) [76987E21]
Трек 10 точное извлечение (доверие 25) [6621AFFF]
Трек 11 точное извлечение (доверие 24) [7F6A5678]
Трек 12 точное извлечение (доверие 25) [2E77B568]

Все треки извлечены точно

Конец отчёта




Natalie Imbruglia - Albums Collection 1997-2009 (5CD+DVD) [Re-Up]

Natalie Imbruglia - Counting Down The Days (2005)
EAC | FLAC | Image (Cue&Log) ~ 307 Mb | Mp3 (CBR320) ~ 99 Mb | Scans ~ 49 Mb
Label: Brightside Recordings/Sony BMG | # 82876679672 | Time: 00:43:15

Arguably the best of the plethora of soap stars turned pop stars, Natalie Imbruglia appears to have performed a rather frustrating musical U-turn for her third album. Whereas her difficult but underrated sophomore effort understandably attempted to break away from the commercial acoustic pop sound that saw "Torn" become one of the biggest singles of the '90s, Counting Down the Days actively embraces it. Whether this is a conscious decision to rekindle her former multi-platinum transatlantic success, or whether Imbruglia is just in a happier songwriting frame of mind, it's still a confusing and disappointing change in direction. For all the bittersweet melancholy and dark undertones of White Lilies Island suggested an interesting career ahead, yet only on a few occasions does Counting Down the Days veer into this territory. Instead, the majority is made up of fairly inoffensive radio-friendly pop songs such as opener "Starting Today" and the Eg White-produced "Perfectly," both of which are little more than "Torn" Mark Two. Even the presence of husband Daniel Johns, formerly of grunge outfit Silverchair, on production duties, can't save the Beatlesque "Satisfied" from lapsing into blandness. But when Imbruglia is allowed to stray from this formula, she excels. "Shiver" is a charming and obvious lead single fully worthy of its huge airplay success; the title track with its chiming bells sounds like a lost Christmas classic, and the brooding "Come on Home," with its chorus of "we can fall apart together" effortlessly manages to pull at the heartstrings. And as an artist, Imbruglia has never sounded better. The breathy Alanis imitations of her debut have now been replaced by understated but self-assured vocals that are able to convey intensity and warmth in equal measures. None more so than on the album's highlight, the Björk-influenced "Honeycomb Child." With its enchanting mix of music boxes, violins, and electronica, it sounds like it appeared from a different record entirely and is proof that Imbruglia can pull off edgier material when she wants to. Counting Down the Days will undoubtedly be a commercial success but its play-it-safe attitude undoes some of the good work done by its predecessor. A few more risks next time wouldn't go amiss.

Review by Jon O'Brien, Allmusic.com

Tracklist:

01. Starting Today (02:55)
02. Shiver (03:42)
03. Satisfied (03:28)
04. Counting Down The Days (04:09)
05. I Won't Be Lost (03:52)
06. Slow Down (03:31)
07. Sanctuary (03:08)
08. Perfectly (03:22)
09. On The Run (03:37)
10. Come On Home (03:55)
11. When You're Sleeping (03:05)
12. Honeycomb Child (04:14)


Exact Audio Copy V0.99 prebeta 3 from 28. July 2007

Отчёт EAC об извлечении, выполненном 24. ноября 2009, 19:01

Natalie Imbruglia / Counting Down The Days

Дисковод: PIONEER DVD-RW DVR-112D Adapter: 1 ID: 0

Режим чтения : Достоверность
Использование точного потока : Да
Отключение кэша аудио : Да
Использование указателей C2 : Нет

Коррекция смещения при чтении : 48
Способность читать области Lead-in и Lead-out : Нет
Заполнение пропущенных сэмплов тишиной : Да
Удаление блоков с тишиной в начале и конце : Нет
При вычислениях CRC использовались нулевые сэмплы : Да
Интерфейс : Встроенный Win32-интерфейс для Win NT/2000

Выходной формат : Внутренние WAV-операции
Формат сэмплов : 44.100 Гц; 16 бит; стерео


TOC извлечённого CD

Трек | Старт | Длительность | Начальный сектор | Конечный сектор
––––––––––––––––––––––––––––––––––-
1 | 0:00.00 | 2:56.04 | 0 | 13203
2 | 2:56.04 | 3:44.54 | 13204 | 30057
3 | 6:40.58 | 3:30.23 | 30058 | 45830
4 | 10:11.06 | 4:09.31 | 45831 | 64536
5 | 14:20.37 | 3:53.14 | 64537 | 82025
6 | 18:13.51 | 3:32.11 | 82026 | 97936
7 | 21:45.62 | 3:09.08 | 97937 | 112119
8 | 24:54.70 | 3:24.16 | 112120 | 127435
9 | 28:19.11 | 3:38.10 | 127436 | 143795
10 | 31:57.21 | 3:56.00 | 143796 | 161495
11 | 35:53.21 | 3:07.18 | 161496 | 175538
12 | 39:00.39 | 4:14.69 | 175539 | 194657


Характеристики диапазона извлечения и сообщения об ошибках

Выбранный диапазон

Имя файла I:\0002\Natalie Imbruglia - 2005 - Counting Down The Days\CDImage.wav

Пиковый уровень 99.8 %
Качество диапазона 100.0 %
CRC копии 4ADD57C2
Копирование… OK

Ошибок не произошло


AccurateRip: сводка

Трек 1 точное извлечение (доверие 114) [8A21A106]
Трек 2 точное извлечение (доверие 114) [56EB6B48]
Трек 3 точное извлечение (доверие 113) [0DFA2243]
Трек 4 точное извлечение (доверие 112) [BB1A41B8]
Трек 5 точное извлечение (доверие 114) [F2783A7D]
Трек 6 точное извлечение (доверие 114) [15E04B72]
Трек 7 точное извлечение (доверие 115) [CB9D7E34]
Трек 8 точное извлечение (доверие 115) [B2BA20A8]
Трек 9 точное извлечение (доверие 115) [4B989095]
Трек 10 точное извлечение (доверие 114) [EA50946E]
Трек 11 точное извлечение (доверие 115) [7D5F7595]
Трек 12 точное извлечение (доверие 111) [8F69B59A]

Все треки извлечены точно

Конец отчёта




Natalie Imbruglia - Albums Collection 1997-2009 (5CD+DVD) [Re-Up]

Natalie Imbruglia - Glorious: The Singles 97-07 (2007) CD+DVD
EAC | FLAC | Image (Cue&Log) ~ 417 Mb | Mp3 (CBR320) ~ 130 Mb | Time: 00:57:05
DVD5 | PAL | 4:3 (720x576) VBR | LinearPCM, 2 ch | Time: 00:44:47 | ~ 2.8 Gb
Label: Sony BMG | # 88697139792 | Scans ~ 50 Mb

What was impressive about the Natalie Imbruglia album Glorious: The Singles 1997-2007 was that Imbruglia had a writing or co-writing credit on 13 of the 14 tracks, the only one not penned by her being the one that started it all, the classic "Torn." Starting at the most unlikely source as an actress on the daytime TV soap opera Neighbours (although it had produced singing stars a decade earlier with Kylie Minogue and Jason Donovan), Imbruglia had carved out a singing career with a series of pop/rock singles with superb melodies, although never managing to top the exquisiteness of the single "Torn." So after three successful albums, Left of the Middle, White Lilies Island, and the number one Counting Down the Days, her record company, BMG, released this greatest-hits compilation to sum up her career to date and also move into the future with a smattering of new tracks not previously on the three albums. All nine of her singles were included – which had already been featured on the three studio albums – as well as "Glorious," the first single released from this collection. No doubt to give an impression that this was a new album as well as a greatest-hits compilation, "Glorious" kicked off the proceedings as the opening track, followed by those nine earlier singles. The track order was a compromise reached between the artist and her record company, with the four new tracks all bringing up the rear. Of these four, "Amelia" was an ethereal, haunting ballad and "Be with You," "Against the Wall," and "Stuck on the Moon" were midtempo AOR songs. She may search another lifetime and never find another song like "Torn."

Review by Sharon Mawer, Allmusic.com

Tracklist:

01. Glorious (03:24)
02. Counting Down The Days (04:09)
03. Torn (04:04)
04. Wrong Impression (04:14)
05. Smoke (04:31)
06. Shiver (03:42)
07. Wishing I Was There (03:51)
08. That Day (04:41)
09. Big Mistake (04:33)
10. Beauty On The Fire (04:14)
11. Be With You (03:40)
12. Amelia (04:21)
13. Against The Wall (03:44)
14. Stuck On The Moon (03:36)


Exact Audio Copy V0.99 prebeta 3 from 28. July 2007

Отчёт EAC об извлечении, выполненном 24. ноября 2009, 18:36

Natalie Imbruglia / Glorious: The Singles 97 - 07

Дисковод: PIONEER DVD-RW DVR-112D Adapter: 1 ID: 0

Режим чтения : Достоверность
Использование точного потока : Да
Отключение кэша аудио : Да
Использование указателей C2 : Нет

Коррекция смещения при чтении : 48
Способность читать области Lead-in и Lead-out : Нет
Заполнение пропущенных сэмплов тишиной : Да
Удаление блоков с тишиной в начале и конце : Нет
При вычислениях CRC использовались нулевые сэмплы : Да
Интерфейс : Встроенный Win32-интерфейс для Win NT/2000

Выходной формат : Внутренние WAV-операции
Формат сэмплов : 44.100 Гц; 16 бит; стерео


TOC извлечённого CD

Трек | Старт | Длительность | Начальный сектор | Конечный сектор
––––––––––––––––––––––––––––––––––-
1 | 0:00.00 | 3:25.12 | 0 | 15386
2 | 3:25.12 | 4:09.29 | 15387 | 34090
3 | 7:34.41 | 4:06.03 | 34091 | 52543
4 | 11:40.44 | 4:15.24 | 52544 | 71692
5 | 15:55.68 | 4:32.55 | 71693 | 92147
6 | 20:28.48 | 3:43.72 | 92148 | 108944
7 | 24:12.45 | 3:52.60 | 108945 | 126404
8 | 28:05.30 | 4:43.02 | 126405 | 147631
9 | 32:48.32 | 4:34.09 | 147632 | 168190
10 | 37:22.41 | 4:15.35 | 168191 | 187350
11 | 41:38.01 | 3:42.50 | 187351 | 204050
12 | 45:20.51 | 4:23.18 | 204051 | 223793
13 | 49:43.69 | 3:45.04 | 223794 | 240672
14 | 53:28.73 | 3:36.30 | 240673 | 256902


Характеристики диапазона извлечения и сообщения об ошибках

Выбранный диапазон

Имя файла I:\0002\Natalie Imbruglia - 2007 - Glorious - The Singles 97-07\CDImage.wav

Пиковый уровень 99.8 %
Качество диапазона 99.9 %
CRC копии D74B3876
Копирование… OK

Ошибок не произошло


AccurateRip: сводка

Трек 1 точное извлечение (доверие 49) [E35413C4]
Трек 2 точное извлечение (доверие 48) [9D34B1EB]
Трек 3 точное извлечение (доверие 47) [80F02E77]
Трек 4 точное извлечение (доверие 48) [5FBB7945]
Трек 5 точное извлечение (доверие 48) [DFB53B7D]
Трек 6 точное извлечение (доверие 48) [19ECE512]
Трек 7 точное извлечение (доверие 48) [74815ACE]
Трек 8 точное извлечение (доверие 46) [0122072A]
Трек 9 точное извлечение (доверие 48) [6B9BD2B4]
Трек 10 точное извлечение (доверие 48) [058FF946]
Трек 11 точное извлечение (доверие 48) [6D113BBA]
Трек 12 точное извлечение (доверие 48) [A9AD3995]
Трек 13 точное извлечение (доверие 49) [1C5D8733]
Трек 14 точное извлечение (доверие 48) [C84FAB5B]

Все треки извлечены точно

Конец отчёта

Natalie Imbruglia - Albums Collection 1997-2009 (5CD+DVD) [Re-Up]

Natalie Imbruglia - Albums Collection 1997-2009 (5CD+DVD) [Re-Up]

Natalie Imbruglia - Albums Collection 1997-2009 (5CD+DVD) [Re-Up]

Natalie Imbruglia - Albums Collection 1997-2009 (5CD+DVD) [Re-Up]

DVD Content:

01. Torn
02. Big Mistake
03. Wishing I Was There
04. Wishing I Was There (US version)
05. Smoke
06. That Day
07. Wrong Impression
08. Beauty On The Fire
09. Shiver
10. Counting Down The Days
11. Glorious




Natalie Imbruglia - Albums Collection 1997-2009 (5CD+DVD) [Re-Up]

Natalie Imbruglia - Come To Life (2009)
EAC | FLAC | Image (Cue&Log) ~ 267 Mb | Mp3 (CBR320) ~ 87 Mb | Scans ~ 25 Mb
Label: Island/Malabar | # 0602527169224, 2716922 | Time: 00:38:13

Moving on from Daniel Johns both personally and creatively, Natalie Imbruglia aligns herself with Coldplay for her fourth album, Come to Life. The band gave her "Lukas," a Viva la Vida outtake complete with a Brian Eno production, while Chris Martin co-writes "Fun" and the Kylie-flavored "Want," but their influence extends beyond a couple of songs, seeping into even the thumping club beats of "Cameo" and the shuffling closer "Wild About It," as well as rippling through the ballads. Martin's chilly, anthemic touch is a natural fit for Imbruglia, who has always favored high-thread-count fashions for upscale cocktail parties, and always manages to inject unexpected warmth and emotion underneath the surface style. Come to Life benefits from this knack, as well as from sturdy pop songwriting, managing to evoke her "Torn" heyday while feeling modern, which is a nifty trick indeed.

Review by Stephen Thomas Erlewine, Allmusic.com

Tracklist:

01. My God (04:03)
02. Lukas (03:49)
03. Fun (04:21)
04. Twenty (03:56)
05. Scars (03:30)
06. Want (04:18)
07. WYUT (03:17)
08. Cameo (03:09)
09. All The Roses (03:27)
10. Wild About It (04:07)


Exact Audio Copy V0.99 prebeta 3 from 28. July 2007

Отчёт EAC об извлечении, выполненном 24. ноября 2009, 17:49

Natalie Imbruglia / Come To Life

Дисковод: PIONEER DVD-RW DVR-112D Adapter: 1 ID: 0

Режим чтения : Достоверность
Использование точного потока : Да
Отключение кэша аудио : Да
Использование указателей C2 : Нет

Коррекция смещения при чтении : 48
Способность читать области Lead-in и Lead-out : Нет
Заполнение пропущенных сэмплов тишиной : Да
Удаление блоков с тишиной в начале и конце : Нет
При вычислениях CRC использовались нулевые сэмплы : Да
Интерфейс : Встроенный Win32-интерфейс для Win NT/2000

Выходной формат : Внутренние WAV-операции
Формат сэмплов : 44.100 Гц; 16 бит; стерео


TOC извлечённого CD

Трек | Старт | Длительность | Начальный сектор | Конечный сектор
––––––––––––––––––––––––––––––––––-
1 | 0:00.00 | 4:03.47 | 0 | 18271
2 | 4:03.47 | 3:50.03 | 18272 | 35524
3 | 7:53.50 | 4:22.32 | 35525 | 55206
4 | 12:16.07 | 3:56.68 | 55207 | 72974
5 | 16:13.00 | 3:31.43 | 72975 | 88842
6 | 19:44.43 | 4:19.59 | 88843 | 108326
7 | 24:04.27 | 3:19.74 | 108327 | 123325
8 | 27:24.26 | 3:12.59 | 123326 | 137784
9 | 30:37.10 | 3:28.64 | 137785 | 153448
10 | 34:05.74 | 4:07.39 | 153449 | 172012


Характеристики диапазона извлечения и сообщения об ошибках

Выбранный диапазон

Имя файла I:\0002\Natalie Imbruglia - 2009 - Come To Life\CDImage.wav

Пиковый уровень 99.9 %
Качество диапазона 100.0 %
CRC копии AA6EB7ED
Копирование… OK

Ошибок не произошло


AccurateRip: сводка

Трек 1 нет в базе данных
Трек 2 нет в базе данных
Трек 3 нет в базе данных
Трек 4 нет в базе данных
Трек 5 нет в базе данных
Трек 6 нет в базе данных
Трек 7 нет в базе данных
Трек 8 нет в базе данных
Трек 9 нет в базе данных
Трек 10 нет в базе данных

Ни одного трека нет в базе AccurateRip

Конец отчёта




All thanks to original releaser - jd250872jd

More interesting music in My Blog