National Health - D.S. Al Coda (1982) {1995, Reissue}

Posted By: popsakov
National Health - D.S. Al Coda (1982) {1995, Reissue}

National Health - D.S. Al Coda (1982) {1995, Reissue}
EAC Rip | FLAC (Img) + Cue + Log ~ 305 Mb | MP3 CBR320 ~ 111 Mb
Scans (JPG, 300 dpi) ~ 30 Mb | RAR 5% Recovery
Voiceprint / Blueprint / Europa Records #VP 129 CD / BP129CD
Jazz Rock, Jazz Fusion, Art Rock, Progressive Rock, Canterbury Scene

D.S. Al Coda is the third album by the progressive rock and jazz fusion group National Health. It is a tribute to former member Alan Gowen, who died of leukaemia in May 1981, and consists solely of compositions written by him. Most of these had not been recorded in the studio before, although "TNTFX" and "Arriving Twice" both appeared earlier on albums by Gowen's other band Gilgamesh.
~ Wiki

National Health - D.S. Al Coda (1982) {1995, Reissue}


***************

National Health - D.S. Al Coda (1982) {1995, Reissue}

Track List:

01. Portrait Of A Shrinking Man [5:36]
02. T.N.T.F.X. [3:12]
03. Black Hat [4:53]
04. I Feel A Night Coming On [6:38]
05. Arriving Twice [2:23]
06. Shining Water [8:53]
07. Tales Of A Damson Knight [1:56]
08. Flanagan's People [5:19]
09. Toad Of Toad Hall [7:31]

Personnel:

Phil Miller / guitars
Dave Stewart / organ, pianos, tone generator
John Greaves / bass, vocals
Pip Pyle / drums, Simmons electric drums

With:
Elton Dean / saxello (1,4)
Ted Emmett / trumpet (1)
Annie Whitehead / trombone (1)
Jimmy Hastings / flute (3,6,9)
Richard Sinclair / vocals (3)
Amanda Parsons / backing vocals (7)
Barbara Gaskin / backing vocals (7)

Exact Audio Copy V1.0 beta 3 from 29. August 2011

EAC extraction logfile from 17. November 2012, 22:46

National Health / D.S. al Coda

Used drive : HL-DT-STBDDVDRW GBC-H20N Adapter: 1 ID: 0

Read mode : Secure
Utilize accurate stream : Yes
Defeat audio cache : Yes
Make use of C2 pointers : No

Read offset correction : 667
Overread into Lead-In and Lead-Out : No
Fill up missing offset samples with silence : Yes
Delete leading and trailing silent blocks : No
Null samples used in CRC calculations : Yes
Used interface : Native Win32 interface for Win NT & 2000

Used output format : User Defined Encoder
Selected bitrate : 1024 kBit/s
Quality : High
Add ID3 tag : No
Command line compressor : C:\Program Files\Exact Audio Copy\wavpack.exe
Additional command line options : -hm %source% %dest%


TOC of the extracted CD

Track | Start | Length | Start sector | End sector
––––––––––––––––––––––––––––-
1 | 0:00.00 | 5:35.57 | 0 | 25181
2 | 5:35.57 | 3:12.33 | 25182 | 39614
3 | 8:48.15 | 4:52.70 | 39615 | 61584
4 | 13:41.10 | 6:37.52 | 61585 | 91411
5 | 20:18.62 | 2:22.60 | 91412 | 102121
6 | 22:41.47 | 8:53.00 | 102122 | 142096
7 | 31:34.47 | 1:56.30 | 142097 | 150826
8 | 33:31.02 | 5:18.58 | 150827 | 174734
9 | 38:49.60 | 7:30.70 | 174735 | 208554


Range status and errors

Selected range

Filename C:\Users\ProgDog\Music\ZALIVKI\Phil Miller\12 - 1982 - National Health - D.S. Al Coda\National Health - D.S. al Coda.wav

Peak level 99.0 %
Extraction speed 5.9 X
Range quality 100.0 %
Test CRC A8357F37
Copy CRC A8357F37
Copy OK

No errors occurred


AccurateRip summary

Track 1 accurately ripped (confidence 3) [ECAFCB48] (AR v1)
Track 2 accurately ripped (confidence 3) [D32D6991] (AR v1)
Track 3 accurately ripped (confidence 3) [1B81790E] (AR v1)
Track 4 accurately ripped (confidence 3) [B7CE3D8D] (AR v1)
Track 5 accurately ripped (confidence 3) [A06832C9] (AR v1)
Track 6 accurately ripped (confidence 3) [9492CB2E] (AR v1)
Track 7 accurately ripped (confidence 3) [256E765B] (AR v1)
Track 8 accurately ripped (confidence 3) [C0E6042D] (AR v1)
Track 9 accurately ripped (confidence 3) [AA564DE1] (AR v1)

All tracks accurately ripped

End of status report

–– CUETools DB Plugin V2.1.3

[CTDB TOCID: 5B.8Wafs9fRjzBbUHNSCQ3COXRw-] found, Submit result: 5B.8Wafs9fRjzBbUHNSCQ3COXRw- has been confirmed
[484d7f5c] (3/3) Accurately ripped


==== Log checksum 63482CF836B84DD22B1FCB75B7F3036A22DCD315BBE5A78E9CEFA06759ACF7D2 ====

foobar2000 1.2.6 / Dynamic Range Meter 1.1.1
log date: 2016-10-28 11:50:45

––––––––––––––––––––––––––––––––––––––––
Analyzed: National Health / D.S. al Coda
––––––––––––––––––––––––––––––––––––––––

DR Peak RMS Duration Track
––––––––––––––––––––––––––––––––––––––––
DR13 -2.84 dB -17.16 dB 5:36 01-Portrait Of A Shrinking Man
DR11 -3.50 dB -16.62 dB 3:12 02-T.N.T.F.X.
DR12 -3.06 dB -18.35 dB 4:53 03-Black Hat
DR12 -3.15 dB -18.48 dB 6:38 04-I Feel A Night Coming On
DR10 -5.74 dB -19.95 dB 2:23 05-Arriving Twice
DR11 -0.74 dB -15.13 dB 8:53 06-Shining Water
DR12 -0.85 dB -15.78 dB 1:56 07-Tales Of A Damson Knight
DR12 -0.10 dB -14.89 dB 5:19 08-Flanagan's People
DR12 -0.08 dB -15.08 dB 7:31 09-Toad Of Toad Hall
––––––––––––––––––––––––––––––––––––––––

Number of tracks: 9
Official DR value: DR12

Samplerate: 44100 Hz
Channels: 2
Bits per sample: 16
Bitrate: 875 kbps
Codec: FLAC
================================================================================

[CUETools log; Date: 28.10.2016 11:50:47; Version: 2.1.5]
[CTDB TOCID: 5B.8Wafs9fRjzBbUHNSCQ3COXRw-] found.
Track | CTDB Status
1 | (11/11) Accurately ripped
2 | (11/11) Accurately ripped
3 | (11/11) Accurately ripped
4 | (11/11) Accurately ripped
5 | (11/11) Accurately ripped
6 | (11/11) Accurately ripped
7 | (11/11) Accurately ripped
8 | (11/11) Accurately ripped
9 | (11/11) Accurately ripped
[AccurateRip ID: 000f3322-007012a2-5d0adc09] found.
Track [ CRC | V2 ] Status
01 [ecafcb48|ef1afdba] (03+00/11) Accurately ripped
02 [d32d6991|dd332f32] (03+00/11) Accurately ripped
03 [1b81790e|136e5e48] (03+00/11) Accurately ripped
04 [b7ce3d8d|e0fb269f] (03+00/11) Accurately ripped
05 [a06832c9|d8db52ea] (03+00/11) Accurately ripped
06 [9492cb2e|02a9e57a] (03+00/11) Accurately ripped
07 [256e765b|d1b941fc] (03+00/11) Accurately ripped
08 [c0e6042d|f8e7ae0c] (03+00/11) Accurately ripped
09 [aa564de1|ba9c08bc] (03+00/11) Accurately ripped
Offsetted by -6:
01 [08ce1a96] (00/11) No match (V2 was not tested)
02 [78cdacf7] (00/11) No match (V2 was not tested)
03 [0065cc68] (00/11) No match (V2 was not tested)
04 [5b439465] (00/11) No match (V2 was not tested)
05 [cdadc47f] (00/11) No match (V2 was not tested)
06 [dc62a67e] (00/11) No match (V2 was not tested)
07 [587fcb45] (00/11) No match (V2 was not tested)
08 [31f25125] (00/11) No match (V2 was not tested)
09 [1bf2798f] (00/11) No match (V2 was not tested)

Track Peak [ CRC32 ] [W/O NULL] [ LOG ]
– 99,0 [A8357F37] [AC262EC1] CRC32
01 72,1 [62F1DCD5] [16580C81]
02 66,8 [7097220D] [5BBAD683]
03 70,3 [2E4BB20C] [3437F416]
04 69,6 [EBC3F897] [DBBD99A3]
05 51,6 [CE713D6C] [5316DD33]
06 91,8 [8EA900BA] [177BACF9]
07 90,6 [5F150939] [5EF6DFCC]
08 98,8 [45811090] [3B5D3781]
09 99,0 [424E2A3D] [2BED0499]

National Health - D.S. Al Coda (1982) {1995, Reissue}

National Health - D.S. Al Coda (1982) {1995, Reissue}

See also:
National Health - Dreams Wide Awake (2005)

All thanks go to AD's

> Visit my blog <

Download: