Subcategories

Nazareth - Expect No Mercy (1977) {US Press}

Posted By: popsakov
Nazareth - Expect No Mercy (1977) {US Press}

Nazareth - Expect No Mercy (1977) {US Press}
EAC Rip | FLAC (Img) + Cue + Log ~ 264 Mb | MP3 CBR320 ~ 105 Mb
Scans Included (JPG, 600 dpi) | RAR 5% Recovery
Classic Rock, Hard Rock | A&M Records #CD 3343 / DIDX-005711

On this 1977 album, Nazareth makes a full-blooded return to the hard rock sound they had neglected since their success with Hair of the Dog. The result is a potent, driving slab of hard rock that will please Nazareth fans and devotees of 1970s hard rock alike. The album sets its frenzied tone right off the bat with its title track, a blistering rocker that features Dan McCafferty spitting out a sharp-edged vocal about life's cruelty over a series of fast and relentless guitar riffs. The remainder of the album prominently features a similarly brutal string of rockers: standouts include "Revenge Is Sweet," a paean to getting even that combines chugging guitar riffs with a stomping beat, and "Gimme What's Mine," a fierce declaration of dominance that layers Southern rock-styled riffs over a churning bassline. Despite this preponderance of hard rocking tunes, Expect No Mercy isn't just a guitar-fest. It also takes time to explore country-rock (there is an excellent, rocked-up cover of the country standard "Busted" as well as a honky tonk-style original called "Place in Your Heart") and even a little bit of funk (a hard-grooving slice of funk-rock fusion called "New York Broken Toy"). The album never takes the daring stylistic chance within the hard rock formula that distinguished Razamanaz or Hair of the Dog, but this is minor quibble in light of the album's high levels of consistency and quality. In short, Expect No Mercy is a treat for Nazareth fans and a solid listen for any hard rock fan who wants a good indication of the group's style.
~ Donald A. Guarisco, All Music
Nazareth - Expect No Mercy (1977) {US Press}


***************

Nazareth - Expect No Mercy (1977) {US Press}

Nazareth - Expect No Mercy (1977) {US Press}

Track List:

01. Expect No Mercy [3:27]
02. Gone Dead Train [3:45]
03. Shot Me Down [3:34]
04. Revenge Is Sweet [3:07]
05. Gimme What's Mine [3:45]
06. Kentucky Fried Blues [3:14]
07. New York Broken Toy [3:43]
08. Busted [3:46]
09. Place In Your Heart [3:02]
10. All The King's Horses [4:26]

Exact Audio Copy V1.3 from 2. September 2016

Отчёт EAC об извлечении, выполненном 8. декабря 2017, 20:20

Nazareth / Expect No Mercy

Дисковод: ASUS DRW-1814BLT Adapter: 1 ID: 0

Режим чтения : Достоверность
Использование точного потока : Да
Отключение кэша аудио : Да
Использование указателей C2 : Нет

Коррекция смещения при чтении : 6
Способность читать области Lead-in и Lead-out : Нет
Заполнение пропущенных сэмплов тишиной : Да
Удаление блоков с тишиной в начале и конце : Нет
При вычислениях CRC использовались нулевые сэмплы : Да
Интерфейс : Встроенный Win32-интерфейс для Win NT/2000

Выходной формат : Пользовательский кодировщик
Выбранный битрейт : 1024 kBit/s
Качество : Высокий
Добавление ID3-тега : Нет
Утилита сжатия : C:\Program Files\Exact Audio Copy\Flac\flac.exe
Дополнительные параметры : -V -8 -T "Date=%year%" -T "Genre=%genre%" %source%


TOC извлечённого CD

Трек | Старт | Длительность | Начальный сектор | Конечный сектор
––––––––––––––––––––––––––––––––––-
1 | 0:00.00 | 3:27.02 | 0 | 15526
2 | 3:27.02 | 3:44.40 | 15527 | 32366
3 | 7:11.42 | 3:33.63 | 32367 | 48404
4 | 10:45.30 | 3:06.60 | 48405 | 62414
5 | 13:52.15 | 3:44.47 | 62415 | 79261
6 | 17:36.62 | 3:14.28 | 79262 | 93839
7 | 20:51.15 | 3:42.70 | 93840 | 110559
8 | 24:34.10 | 3:46.22 | 110560 | 127531
9 | 28:20.32 | 3:02.20 | 127532 | 141201
10 | 31:22.52 | 4:26.35 | 141202 | 161186


Характеристики диапазона извлечения и сообщения об ошибках

Выбранный диапазон

Имя файла D:\Nazareth - Expect No Mercy\Nazareth - Expect No Mercy.wav

Пиковый уровень 100.0 %
Скорость извлечения 2.4 X
Качество диапазона 100.0 %
CRC теста D09CC970
CRC копии D09CC970
Копирование… OK

Ошибок не произошло


AccurateRip: сводка

Трек 1 : извлечено точно (доверие 3) [9F82ED09] (AR v2)
Трек 2 : извлечено точно (доверие 3) [6C0440C8] (AR v2)
Трек 3 : извлечено точно (доверие 3) [A7035F3E] (AR v2)
Трек 4 : извлечено точно (доверие 3) [84CD606F] (AR v2)
Трек 5 : извлечено точно (доверие 3) [7D8280C7] (AR v2)
Трек 6 : извлечено точно (доверие 3) [21287042] (AR v2)
Трек 7 : извлечено точно (доверие 3) [8794EEA5] (AR v2)
Трек 8 : извлечено точно (доверие 3) [AAAEBDBA] (AR v2)
Трек 9 : извлечено точно (доверие 3) [0683D8B3] (AR v2)
Трек 10 : извлечено точно (доверие 3) [AE867510] (AR v2)

Все треки извлечены точно

Конец отчёта

–– CUETools DB Plugin V2.1.6

[CTDB TOCID: XUu0l7rxshde2tgR69vm0Ja2cPE-] found
Submit result: XUu0l7rxshde2tgR69vm0Ja2cPE- has been confirmed
Track | CTDB Status
1 | (6/6) Accurately ripped
2 | (6/6) Accurately ripped
3 | (6/6) Accurately ripped
4 | (6/6) Accurately ripped
5 | (6/6) Accurately ripped
6 | (6/6) Accurately ripped
7 | (6/6) Accurately ripped
8 | (6/6) Accurately ripped
9 | (6/6) Accurately ripped
10 | (6/6) Accurately ripped


==== Контрольная сумма отчёта E43189E9DC5AA7E0BDC4D27F5F7A43BFD6E850EE52661B74C1111E8ED2C9EBA9 ====

foobar2000 1.3.16 / Dynamic Range Meter 1.1.1
log date: 2018-04-23 21:16:56

––––––––––––––––––––––––––––––––––––––––
Analyzed: Nazareth / Expect No Mercy
––––––––––––––––––––––––––––––––––––––––

DR Peak RMS Duration Track
––––––––––––––––––––––––––––––––––––––––
DR12 -0.39 dB -14.35 dB 3:27 01-Expect No Mercy
DR13 -0.03 dB -14.64 dB 3:45 02-Gone Dead Train
DR12 -0.81 dB -15.66 dB 3:34 03-Shot Me Down
DR14 -1.30 dB -16.89 dB 3:07 04-Revenge Is Sweet
DR12 0.00 dB -14.47 dB 3:45 05-Gimme What's Mine
DR12 0.00 dB -14.32 dB 3:14 06-Kentucky Fried Blues
DR13 0.00 dB -14.50 dB 3:43 07-New York Broken Toy
DR13 -0.44 dB -16.77 dB 3:46 08-Busted
DR12 -0.40 dB -14.20 dB 3:02 09-Place In Your Heart
DR13 0.00 dB -15.58 dB 4:26 10-All The King's Horses
––––––––––––––––––––––––––––––––––––––––

Number of tracks: 10
Official DR value: DR13

Samplerate: 44100 Hz
Channels: 2
Bits per sample: 16
Bitrate: 909 kbps
Codec: FLAC
================================================================================

[CUETools log; Date: 23.04.2018 21:16:37; Version: 2.1.6]
[CTDB TOCID: XUu0l7rxshde2tgR69vm0Ja2cPE-] found.
Track | CTDB Status
1 | (7/7) Accurately ripped
2 | (7/7) Accurately ripped
3 | (7/7) Accurately ripped
4 | (7/7) Accurately ripped
5 | (7/7) Accurately ripped
6 | (7/7) Accurately ripped
7 | (7/7) Accurately ripped
8 | (7/7) Accurately ripped
9 | (7/7) Accurately ripped
10 | (7/7) Accurately ripped
[AccurateRip ID: 000d4f69-006a8fe0-8108650a] found.
Track [ CRC | V2 ] Status
01 [3fc73c16|9f82ed09] (4+3/7) Accurately ripped
02 [10b54245|6c0440c8] (4+3/7) Accurately ripped
03 [63351abf|a7035f3e] (4+3/7) Accurately ripped
04 [9ed1704b|84cd606f] (4+3/7) Accurately ripped
05 [bba5ad24|7d8280c7] (4+3/7) Accurately ripped
06 [73a482d1|21287042] (4+3/7) Accurately ripped
07 [607782e2|8794eea5] (4+3/7) Accurately ripped
08 [e1166a37|aaaebdba] (4+3/7) Accurately ripped
09 [16611749|0683d8b3] (4+3/7) Accurately ripped
10 [8a455f8c|ae867510] (4+3/7) Accurately ripped

Track Peak [ CRC32 ] [W/O NULL] [ LOG ]
– 100,0 [D09CC970] [C96FA35A] CRC32
01 95,6 [973FD1D2] [EDA1866A]
02 99,6 [511F67CC] [7CD35180]
03 91,0 [809C4BB3] [AC71EE32]
04 86,0 [CA02D382] [9757A930]
05 100,0 [4AD5A0CD] [7EAC2444]
06 100,0 [F6E4EC7A] [A20C533B]
07 100,0 [00328D13] [9508C01C]
08 95,0 [E3C7C85C] [07CE921F]
09 95,5 [B8EF215C] [0972EC85]
10 100,0 [73CEF70A] [AE44728F]

Nazareth - Expect No Mercy (1977) {US Press}

All thanks go to barsu-1

>>> Nazareth in my Blog <<<

Download from icerbox.com: