Subcategories

Neil Young - Decade (1977) 2CD [Re-Up]

Posted By: Designol
Neil Young - Decade (1977) 2CD [Re-Up]

Neil Young - Decade (1977) 2CD
EAC | FLAC | Image (Cue&Log) ~ 813 Mb | Mp3 (CBR320) ~ 347 Mb | Scans included | 02:24:31
Folk Rock, Country Rock, Classic Rock, Psychedelic | Label: Reprise | # 7599-27233-2

Given the quirkiness of Neil Young's recording career, with its frequent cancellations of releases and last-minute rearrangements of material, it is a relief to report that this two-disc compilation is so conventional and so satisfying. A 35-track selection of the best of Young's work between 1966 and 1976, it includes songs performed by Buffalo Springfield, Crosby, Stills, Nash & Young, and the Stills-Young Band, as well as solo work. In addition to five unreleased songs, Decade offers such key tracks as the Springfield's "Mr. Soul," "Broken Arrow," and "I Am a Child"; "Sugar Mountain," a song that had appeared only as a single before; "Cinnamon Girl," "Down by the River," and "Cowgirl in the Sand" from Everybody Knows This Is Nowhere; "Southern Man" and the title track from After the Gold Rush; and "Old Man" and the chart-topping "Heart of Gold" from Harvest. This is the material that built Young's reputation between 1966 and 1972, although he is more idiosyncratic with the later material, including the blockbusters "Like a Hurricane" and "Cortez the Killer" but mixing in more unreleased recordings as the set draws to a close. He seems intent on making the album a listenable one that will appeal to a broad base of fans, and he succeeds despite the exclusion of much of the harrowing work of 1973-1975. Nevertheless, the album is an ideal sampler for new listeners, and since there is no one-disc Young compilation covering any significant portion of his career, this lengthy chronicle is the place to start.

Review by William Ruhlmann, Allmusic.com

Neil Young - Decade (1977) 2CD [Re-Up]



Tracklist:

CD1:

01. Buffalo Springfield - Down To The Wire (02:29)
02. Buffalo Springfield - Burned (02:15)
03. Buffalo Springfield - Mr. Soul (02:50)
04. Buffalo Springfield - Broken Arrow (06:12)
05. Buffalo Springfield - Expecting To Fly (03:46)
06. Neil Young - Sugar Mountain [Live] (05:41)
07. Buffalo Springfield - I Am A Child (02:20)
08. Neil Young - The Loner (03:50)
09. Neil Young - The Old Laughing Lady (05:37)
10. Neil Young & Crazy Horse - Cinnamon Girl (03:00)
11. Neil Young & Crazy Horse - Down By The River (08:59)
12. Neil Young & Crazy Horse - Cowgirl In The Sand (10:02)
13. Neil Young - I Believe In You (03:27)
14. Neil Young - After The Gold Rush (03:45)
15. Neil Young - Southern Man (05:29)
16. Crosby, Stills, Nash & Young - Helpless (03:33)

CD2:

01. Crosby, Stills, Nash & Young - Ohio (02:59)
02. Neil Young - Soldier (02:28)
03. Neil Young - Old Man (03:22)
04. Neil Young - A Man Needs A Maid (04:00)
05. Neil Young - Harvest (03:09)
06. Neil Young - Heart Of Gold (03:06)
07. Neil Young - Star Of Bethlehem (02:43)
08. Neil Young - The Needle And The Damage Done (02:06)
09. Neil Young - Tonight's The Night (Part 1) (04:41)
10. Neil Young - Tired Eyes (04:33)
11. Neil Young - Walk On (02:41)
12. Neil Young - For The Turnstiles (03:01)
13. Neil Young - Winterlong (03:08)
14. Neil Young - Deep Forbidden Lake (03:41)
15. Neil Young - Like A Hurricane (08:17)
16. Neil Young - Love Is A Rose (02:16)
17. Neil Young & Crazy Horse - Cortez The Killer (07:32)
18. Neil Young - Campaigner (03:30)
19. Neil Young - Long May You Run (03:48)


Exact Audio Copy V1.3 from 2. September 2016

Отчёт EAC об извлечении, выполненном 2. июня 2018, 14:15

NEIL YOUNG / Decade CD1

Дисковод: MATSHITADVD-RAM UJ8FBS Adapter: 1 ID: 0

Режим чтения : Достоверность
Использование точного потока : Да
Отключение кэша аудио : Да
Использование указателей C2 : Нет

Коррекция смещения при чтении : 6
Способность читать области Lead-in и Lead-out : Нет
Заполнение пропущенных сэмплов тишиной : Да
Удаление блоков с тишиной в начале и конце : Нет
При вычислениях CRC использовались нулевые сэмплы : Да
Интерфейс : Встроенный Win32-интерфейс для Win NT/2000

Выходной формат : Пользовательский кодировщик
Выбранный битрейт : 896 kBit/s
Качество : Высокий
Добавление ID3-тега : Нет
Утилита сжатия : C:\Program Files\Exact Audio Copy\FLAC\FLAC.EXE
Дополнительные параметры : -V -8 -T "Date=%year%" -T "Genre=%genre%" %source%


TOC извлечённого CD

Трек | Старт | Длительность | Начальный сектор | Конечный сектор
––––––––––––––––––––––––––––––––––-
1 | 0:00.00 | 2:29.18 | 0 | 11192
2 | 2:29.18 | 2:15.30 | 11193 | 21347
3 | 4:44.48 | 2:50.25 | 21348 | 34122
4 | 7:34.73 | 6:12.42 | 34123 | 62064
5 | 13:47.40 | 3:46.58 | 62065 | 79072
6 | 17:34.23 | 5:41.32 | 79073 | 104679
7 | 23:15.55 | 2:20.10 | 104680 | 115189
8 | 25:35.65 | 3:50.05 | 115190 | 132444
9 | 29:25.70 | 5:37.45 | 132445 | 157764
10 | 35:03.40 | 3:00.40 | 157765 | 171304
11 | 38:04.05 | 8:59.45 | 171305 | 211774
12 | 47:03.50 | 10:02.40 | 211775 | 256964
13 | 57:06.15 | 3:27.63 | 256965 | 272552
14 | 60:34.03 | 3:45.65 | 272553 | 289492
15 | 64:19.68 | 5:29.60 | 289493 | 314227
16 | 69:49.53 | 3:33.12 | 314228 | 330214


Характеристики диапазона извлечения и сообщения об ошибках

Выбранный диапазон

Имя файла C:\Users\User\Music\Neil Young\1976 - Decade (2CD)\CD 1\NEIL YOUNG - Decade CD1.wav

Пиковый уровень 96.3 %
Скорость извлечения 5.2 X
Качество диапазона 100.0 %
CRC теста CF80428B
CRC копии CF80428B
Копирование… OK

Ошибок не произошло


AccurateRip: сводка

Трек 1 : извлечено точно (доверие 189) [A7BB8DAE] (AR v2)
Трек 2 : извлечено точно (доверие 190) [72F5BB07] (AR v2)
Трек 3 : извлечено точно (доверие 192) [EA013584] (AR v2)
Трек 4 : извлечено точно (доверие 192) [D26F7F4B] (AR v2)
Трек 5 : извлечено точно (доверие 191) [17852AD9] (AR v2)
Трек 6 : извлечено точно (доверие 190) [D10B069B] (AR v2)
Трек 7 : извлечено точно (доверие 191) [CD1D5A95] (AR v2)
Трек 8 : извлечено точно (доверие 188) [5B189BA0] (AR v2)
Трек 9 : извлечено точно (доверие 189) [7396313A] (AR v2)
Трек 10 : извлечено точно (доверие 192) [27E24C91] (AR v2)
Трек 11 : извлечено точно (доверие 190) [3CA6BBEF] (AR v2)
Трек 12 : извлечено точно (доверие 190) [72400F68] (AR v2)
Трек 13 : извлечено точно (доверие 189) [F2D551BF] (AR v2)
Трек 14 : извлечено точно (доверие 190) [55EC7C96] (AR v2)
Трек 15 : извлечено точно (доверие 188) [36C2E768] (AR v2)
Трек 16 : извлечено точно (доверие 188) [89004280] (AR v2)

Все треки извлечены точно

Конец отчёта

==== Контрольная сумма отчёта A14B9595FC3B38FFD077A021A09A0EE34E92DAD7AD369B5372A50525BBE8B7F6 ====

foobar2000 1.3.9 / Dynamic Range Meter 1.1.1

log date: 2018-06-02 15:49:18



––––––––––––––––––––––––––––––––––––––––

Analyzed: Buffalo Springfield / Decade CD1 (1-5)

Crosby, Stills, Nash & Young / Decade CD1 (6)

––––––––––––––––––––––––––––––––––––––––



DR Peak RMS Duration Track

––––––––––––––––––––––––––––––––––––––––

DR10 -2.53 dB -16.16 dB 2:29 01-Down to the Wire

DR12 -0.83 dB -15.64 dB 2:15 02-Burned

DR11 -0.45 dB -15.27 dB 2:50 03-Mr. Soul

DR12 -1.33 dB -18.01 dB 6:13 04-Broken Arrow

DR11 -0.33 dB -16.03 dB 3:47 05-Expecting to Fly

DR13 -4.90 dB -22.51 dB 3:33 16-Helpless

––––––––––––––––––––––––––––––––––––––––



Number of tracks: 6

Official DR value: DR12



Samplerate: 44100 Hz

Channels: 2

Bits per sample: 16

Bitrate: 773 kbps

Codec: FLAC

================================================================================



––––––––––––––––––––––––––––––––––––––––

Analyzed: Neil Young & Crazy Horse / Decade CD1

––––––––––––––––––––––––––––––––––––––––



DR Peak RMS Duration Track

––––––––––––––––––––––––––––––––––––––––

DR10 -7.75 dB -19.20 dB 3:01 10-Cinnamon Girl

DR10 -7.63 dB -20.27 dB 9:00 11-Down by the River

DR11 -4.42 dB -17.96 dB 10:03 12-Cowgirl in the Sand

DR12 -6.46 dB -20.87 dB 3:28 13-I Believe in You

DR11 -7.68 dB -21.52 dB 3:46 14-After the Gold Rush

DR11 -3.38 dB -16.94 dB 5:30 15-Southern Man

––––––––––––––––––––––––––––––––––––––––



Number of tracks: 6

Official DR value: DR11



Samplerate: 44100 Hz

Channels: 2

Bits per sample: 16

Bitrate: 773 kbps

Codec: FLAC

================================================================================



––––––––––––––––––––––––––––––––––––––––

Analyzed: NEIL YOUNG / Decade CD1

––––––––––––––––––––––––––––––––––––––––



DR Peak RMS Duration Track

––––––––––––––––––––––––––––––––––––––––

DR10 -8.03 dB -21.16 dB 5:41 06-Sugar Mountain

DR11 -7.35 dB -21.09 dB 2:20 07-I Am a Child

DR14 -2.32 dB -19.18 dB 3:50 08-The Loner

DR13 -5.11 dB -22.84 dB 5:38 09-The Old Laughing Lady

––––––––––––––––––––––––––––––––––––––––



Number of tracks: 4

Official DR value: DR12



Samplerate: 44100 Hz

Channels: 2

Bits per sample: 16

Bitrate: 773 kbps

Codec: FLAC

================================================================================


Exact Audio Copy V1.3 from 2. September 2016

Отчёт EAC об извлечении, выполненном 2. июня 2018, 14:58

NEIL YOUNG / Decade CD2

Дисковод: MATSHITADVD-RAM UJ8FBS Adapter: 1 ID: 0

Режим чтения : Достоверность
Использование точного потока : Да
Отключение кэша аудио : Да
Использование указателей C2 : Нет

Коррекция смещения при чтении : 6
Способность читать области Lead-in и Lead-out : Нет
Заполнение пропущенных сэмплов тишиной : Да
Удаление блоков с тишиной в начале и конце : Нет
При вычислениях CRC использовались нулевые сэмплы : Да
Интерфейс : Встроенный Win32-интерфейс для Win NT/2000

Выходной формат : Пользовательский кодировщик
Выбранный битрейт : 896 kBit/s
Качество : Высокий
Добавление ID3-тега : Нет
Утилита сжатия : C:\Program Files\Exact Audio Copy\FLAC\FLAC.EXE
Дополнительные параметры : -V -8 -T "Date=%year%" -T "Genre=%genre%" %source%


TOC извлечённого CD

Трек | Старт | Длительность | Начальный сектор | Конечный сектор
––––––––––––––––––––––––––––––––––-
1 | 0:00.00 | 2:59.00 | 0 | 13424
2 | 2:59.00 | 2:28.70 | 13425 | 24594
3 | 5:27.70 | 3:22.08 | 24595 | 39752
4 | 8:50.03 | 4:00.07 | 39753 | 57759
5 | 12:50.10 | 3:09.73 | 57760 | 72007
6 | 16:00.08 | 3:06.50 | 72008 | 86007
7 | 19:06.58 | 2:43.32 | 86008 | 98264
8 | 21:50.15 | 2:06.00 | 98265 | 107714
9 | 23:56.15 | 4:41.48 | 107715 | 128837
10 | 28:37.63 | 4:33.35 | 128838 | 149347
11 | 33:11.23 | 2:41.10 | 149348 | 161432
12 | 35:52.33 | 3:01.00 | 161433 | 175007
13 | 38:53.33 | 3:08.07 | 175008 | 189114
14 | 42:01.40 | 3:41.18 | 189115 | 205707
15 | 45:42.58 | 8:17.57 | 205708 | 243039
16 | 54:00.40 | 2:16.43 | 243040 | 253282
17 | 56:17.08 | 7:32.07 | 253283 | 287189
18 | 63:49.15 | 3:30.13 | 287190 | 302952
19 | 67:19.28 | 3:48.40 | 302953 | 320092


Характеристики диапазона извлечения и сообщения об ошибках

Выбранный диапазон

Имя файла C:\Users\User\Music\Neil Young\1976 - Decade (2CD)\CD 2\NEIL YOUNG - Decade CD2.wav

Пиковый уровень 98.6 %
Скорость извлечения 5.0 X
Качество диапазона 100.0 %
CRC теста AB81F3E0
CRC копии AB81F3E0
Копирование… OK

Ошибок не произошло


AccurateRip: сводка

Трек 1 : извлечено точно (доверие 180) [BEA73F96] (AR v2)
Трек 2 : извлечено точно (доверие 179) [47E1F403] (AR v2)
Трек 3 : извлечено точно (доверие 179) [1DC65190] (AR v2)
Трек 4 : извлечено точно (доверие 180) [414EFB32] (AR v2)
Трек 5 : извлечено точно (доверие 179) [6DD3D5CE] (AR v2)
Трек 6 : извлечено точно (доверие 181) [AB31DF37] (AR v2)
Трек 7 : извлечено точно (доверие 178) [3D08BD14] (AR v2)
Трек 8 : извлечено точно (доверие 180) [E38E0396] (AR v2)
Трек 9 : извлечено точно (доверие 180) [76CDE78A] (AR v2)
Трек 10 : извлечено точно (доверие 179) [D9172A6B] (AR v2)
Трек 11 : извлечено точно (доверие 179) [8B7501E5] (AR v2)
Трек 12 : извлечено точно (доверие 180) [A2CB533E] (AR v2)
Трек 13 : извлечено точно (доверие 180) [C5AF827A] (AR v2)
Трек 14 : извлечено точно (доверие 171) [44B1B985] (AR v2)
Трек 15 : извлечено точно (доверие 181) [96AB0BF4] (AR v2)
Трек 16 : извлечено точно (доверие 180) [5449EC1E] (AR v2)
Трек 17 : извлечено точно (доверие 177) [3428FB9F] (AR v2)
Трек 18 : извлечено точно (доверие 178) [F0244591] (AR v2)
Трек 19 : извлечено точно (доверие 177) [60076256] (AR v2)

Все треки извлечены точно

Конец отчёта

==== Контрольная сумма отчёта 9774EEA30D1A7F70AF2AA1E4DE1CB22404ADCA128B7CEE91A2193DA820F8B8FF ====

foobar2000 1.3.9 / Dynamic Range Meter 1.1.1

log date: 2018-06-02 15:52:40



––––––––––––––––––––––––––––––––––––––––

Analyzed: NEIL YOUNG / Decade CD2

––––––––––––––––––––––––––––––––––––––––



DR Peak RMS Duration Track

––––––––––––––––––––––––––––––––––––––––

DR10 -2.95 dB -16.06 dB 2:59 01-Ohio

DR12 -6.56 dB -23.43 dB 2:29 02-Soldier

DR12 -2.46 dB -18.75 dB 3:22 03-Old Man

DR12 -1.68 dB -19.78 dB 4:00 04-A Man Needs A Maid

DR12 -4.76 dB -20.15 dB 3:10 05-Harvest

DR13 -4.06 dB -19.75 dB 3:07 06-Heart Of Gold

DR14 -3.88 dB -21.61 dB 2:43 07-Star Of Bethlehem

DR14 -4.93 dB -22.56 dB 2:06 08-The Needle And The Damage Done

DR13 -0.12 dB -17.16 dB 4:42 09-Tonight's The Night (Part 1)

DR13 -3.58 dB -20.45 dB 4:33 10-Tired Eyes

DR10 -2.26 dB -15.35 dB 2:41 11-Walk On

DR14 -2.21 dB -21.01 dB 3:01 12-For The Turnstiles

DR10 -1.14 dB -13.91 dB 3:08 13-Winterlong

DR13 -3.53 dB -21.02 dB 3:41 14-Deep Forbidden Lake

DR12 -2.67 dB -15.75 dB 8:18 15-Like A Hurricane

DR11 -4.49 dB -18.95 dB 2:17 16-Love Is A Rose

DR14 -2.10 dB -18.61 dB 7:32 17-Cortez The Killer

DR13 -4.08 dB -20.29 dB 3:30 18-Campaigner

DR11 -2.74 dB -16.71 dB 3:49 19-Long May You Run

––––––––––––––––––––––––––––––––––––––––



Number of tracks: 19

Official DR value: DR12



Samplerate: 44100 Hz

Channels: 2

Bits per sample: 16

Bitrate: 767 kbps

Codec: FLAC

================================================================================


Neil Young - Decade (1977) 2CD [Re-Up]

Neil Young - Decade (1977) 2CD [Re-Up]

All thanks to original releaser - Varjag2

More interesting music in My Blog