Subcategories

Neil Young - Live at Massey Hall 1971 (2007)

Posted By: Designol
Neil Young - Live at Massey Hall 1971 (2007)

Neil Young - Live at Massey Hall 1971 (2007)
EAC | FLAC | Tracks (Cue&Log) ~ 402 Mb (incl 5%) | Mp3 (CBR320/Stereo) ~ 169 Mb (incl 5%) | Scans included
Genre: Singer/Songwriter, Folk Rock, Country Rock, Soft Rock | Label: Reprise | # 9362-43328-2 | Time: 01:07:38

The second volume of Neil Young's Archives series, Live at Massey Hall, preserves a 1971 acoustic show at the Toronto venue. It may seem to cover familiar ground to the outside observer who assumes all solo acoustic Young concerts sound the same, but that, of course, is not the case with an artist as mercurial and willful as Young. Live at Massey Hall is a remarkably rich set of songs, touching on nearly every aspect of Young's personality, whether it's his sweetness, his sensitivity, his loneliness, or even his often-neglected sense of fun. This concert was a legendary bootleg for nearly four decades, and its release is something special: it adds detail, color, and texture to a familiar chapter of his career, rendering it fresh once more.

Review by Mark Deming, Allmusic.com
Biography
Website
Wiki


Tracklist:

01. On The Way Home (03:42)
02. Tell Me Why (02:29)
03. Old Man (04:57)
04. Journey Through The Past (04:15)
05. Helpless (04:16)
06. Love In Mind (02:47)
07. A Man Needs A Maid – Heart Of Gold Suite (06:39)
08. Cowgirl In The Sand (03:45)
09. Don't Let It Bring You Down (02:46)
10. There's A World (03:33)
11. Bad Fog Of Loneliness (03:27)
12. The Needle And The Damage Done (03:55)
13. Ohio (03:40)
14. See The Sky About To Rain (04:05)
15. Down By The River (04:08)
16. Dance Dance Dance (05:48)
17. I Am A Child (03:19)


Exact Audio Copy V1.0 beta 3 from 29. August 2011

EAC extraction logfile from 3. August 2014, 20:12

Neil Young / Live At Massey Hall 1971

Used drive : HL-DT-STDVDRAM GSA-T50L Adapter: 1 ID: 0

Read mode : Secure
Utilize accurate stream : Yes
Defeat audio cache : No
Make use of C2 pointers : No

Read offset correction : 667
Overread into Lead-In and Lead-Out : No
Fill up missing offset samples with silence : Yes
Delete leading and trailing silent blocks : No
Null samples used in CRC calculations : Yes
Used interface : Native Win32 interface for Win NT & 2000
Gap handling : Appended to previous track

Used output format : User Defined Encoder
Selected bitrate : 1024 kBit/s
Quality : High
Add ID3 tag : No
Command line compressor : C:\Program Files\Exact Audio Copy\Flac\flac.exe
Additional command line options : -8 -V -T "ARTIST=%artist%" -T "TITLE=%title%" -T "ALBUM=%albumtitle%" -T "DATE=%year%" -T "TRACKNUMBER=%tracknr%" -T "GENRE=%genre%" -T "PERFORMER=%albuminterpret%" -T "COMPOSER=%composer%" %haslyrics%–tag-from-file=LYRICS="%lyricsfile%"%haslyrics% -T "ALBUMARTIST=%albumartist%" -T "DISCNUMBER=%cdnumber%" -T "TOTALDISCS=%totalcds%" -T "TOTALTRACKS=%numtracks%" -T "COMMENT=%comment%" %source% -o %dest%


TOC of the extracted CD

Track | Start | Length | Start sector | End sector
––––––––––––––––––––––––––––-
1 | 0:00.00 | 3:42.59 | 0 | 16708
2 | 3:42.59 | 2:29.04 | 16709 | 27887
3 | 6:11.63 | 4:57.04 | 27888 | 50166
4 | 11:08.67 | 4:15.53 | 50167 | 69344
5 | 15:24.45 | 4:16.00 | 69345 | 88544
6 | 19:40.45 | 2:47.45 | 88545 | 101114
7 | 22:28.15 | 6:39.00 | 101115 | 131039
8 | 29:07.15 | 3:45.67 | 131040 | 147981
9 | 32:53.07 | 2:46.22 | 147982 | 160453
10 | 35:39.29 | 3:33.64 | 160454 | 176492
11 | 39:13.18 | 3:27.15 | 176493 | 192032
12 | 42:40.33 | 3:55.09 | 192033 | 209666
13 | 46:35.42 | 3:40.02 | 209667 | 226168
14 | 50:15.44 | 4:05.21 | 226169 | 244564
15 | 54:20.65 | 4:08.64 | 244565 | 263228
16 | 58:29.54 | 5:48.68 | 263229 | 289396
17 | 64:18.47 | 3:19.44 | 289397 | 304365


Track 1

Filename C:\FLAC\01 On The Way Home.wav

Pre-gap length 0:00:02.00

Peak level 95.4 %
Extraction speed 4.2 X
Track quality 99.9 %
Test CRC 09F7AB60
Copy CRC 09F7AB60
Accurately ripped (confidence 152) [9F08B972] (AR v2)
Copy OK

Track 2

Filename C:\FLAC\02 Tell Me Why.wav

Peak level 93.3 %
Extraction speed 4.5 X
Track quality 99.9 %
Test CRC B977A644
Copy CRC B977A644
Accurately ripped (confidence 153) [7A6BED8C] (AR v2)
Copy OK

Track 3

Filename C:\FLAC\03 Old Man.wav

Peak level 94.2 %
Extraction speed 5.0 X
Track quality 100.0 %
Test CRC 5E7FDDFC
Copy CRC 5E7FDDFC
Accurately ripped (confidence 152) [603F3533] (AR v2)
Copy OK

Track 4

Filename C:\FLAC\04 Journey Through The Past.wav

Peak level 95.3 %
Extraction speed 5.5 X
Track quality 100.0 %
Test CRC 6E43EEF9
Copy CRC 6E43EEF9
Accurately ripped (confidence 153) [5EB1EB60] (AR v2)
Copy OK

Track 5

Filename C:\FLAC\05 Helpless.wav

Peak level 97.0 %
Extraction speed 5.8 X
Track quality 100.0 %
Test CRC 4179D020
Copy CRC 4179D020
Accurately ripped (confidence 153) [E4C7B8CC] (AR v2)
Copy OK

Track 6

Filename C:\FLAC\06 Love In Mind.wav

Peak level 95.0 %
Extraction speed 5.8 X
Track quality 100.0 %
Test CRC 1AB67B3D
Copy CRC 1AB67B3D
Accurately ripped (confidence 153) [66639888] (AR v2)
Copy OK

Track 7

Filename C:\FLAC\07 A Man Needs A Maid – Heart Of Gold Suite.wav

Peak level 97.6 %
Extraction speed 6.3 X
Track quality 100.0 %
Test CRC 251757A4
Copy CRC 251757A4
Accurately ripped (confidence 152) [1BECF801] (AR v2)
Copy OK

Track 8

Filename C:\FLAC\08 Cowgirl In The Sand.wav

Peak level 96.8 %
Extraction speed 6.8 X
Track quality 100.0 %
Test CRC 042BB9A2
Copy CRC 042BB9A2
Accurately ripped (confidence 152) [5078D0F9] (AR v2)
Copy OK

Track 9

Filename C:\FLAC\09 Don't Let It Bring You Down.wav

Peak level 94.4 %
Extraction speed 6.7 X
Track quality 100.0 %
Test CRC 9CA2DA4E
Copy CRC 9CA2DA4E
Accurately ripped (confidence 153) [C6C353F8] (AR v2)
Copy OK

Track 10

Filename C:\FLAC\10 There's A World.wav

Peak level 93.9 %
Extraction speed 7.3 X
Track quality 100.0 %
Test CRC 36E0584B
Copy CRC 36E0584B
Accurately ripped (confidence 151) [A672593B] (AR v2)
Copy OK

Track 11

Filename C:\FLAC\11 Bad Fog Of Loneliness.wav

Peak level 97.1 %
Extraction speed 7.1 X
Track quality 100.0 %
Test CRC BAC59B53
Copy CRC BAC59B53
Accurately ripped (confidence 152) [B1297CC0] (AR v2)
Copy OK

Track 12

Filename C:\FLAC\12 The Needle And The Damage Done.wav

Peak level 92.0 %
Extraction speed 7.7 X
Track quality 100.0 %
Test CRC 052D9718
Copy CRC 052D9718
Accurately ripped (confidence 153) [17263654] (AR v2)
Copy OK

Track 13

Filename C:\FLAC\13 Ohio.wav

Peak level 95.2 %
Extraction speed 7.6 X
Track quality 100.0 %
Test CRC 258AEEEF
Copy CRC 258AEEEF
Accurately ripped (confidence 154) [C977F335] (AR v2)
Copy OK

Track 14

Filename C:\FLAC\14 See The Sky About To Rain.wav

Peak level 95.9 %
Extraction speed 7.9 X
Track quality 100.0 %
Test CRC DC99113B
Copy CRC DC99113B
Accurately ripped (confidence 151) [40D83D24] (AR v2)
Copy OK

Track 15

Filename C:\FLAC\15 Down By The River.wav

Peak level 97.3 %
Extraction speed 8.2 X
Track quality 100.0 %
Test CRC 1656B83A
Copy CRC 1656B83A
Accurately ripped (confidence 152) [97CC4BC2] (AR v2)
Copy OK

Track 16

Filename C:\FLAC\16 Dance Dance Dance.wav

Peak level 97.6 %
Extraction speed 8.4 X
Track quality 99.9 %
Test CRC 756EFFB9
Copy CRC 756EFFB9
Accurately ripped (confidence 149) [4FCD1C72] (AR v2)
Copy OK

Track 17

Filename C:\FLAC\17 I Am A Child.wav

Peak level 94.8 %
Extraction speed 8.8 X
Track quality 99.9 %
Test CRC FC9FB8CF
Copy CRC FC9FB8CF
Accurately ripped (confidence 147) [6C3980AB] (AR v2)
Copy OK


All tracks accurately ripped

No errors occurred

End of status report

–– CUETools DB Plugin V2.1.3

[CTDB TOCID: t0vMd2P8t65Smme.BFNVVLH38cI-] found, Submit result: t0vMd2P8t65Smme.BFNVVLH38cI- has been confirmed
[b1ddcb07] (397/407) Accurately ripped
[1fa5f90a] (001/407) No match
[6ae3edbe] (001/407) No match
[52540fea] (001/407) No match
[f693b9b1] (001/407) No match
[1322400a] (001/407) No match
[008d4945] (001/407) No match
[4b11bd82] (001/407) No match
[bd35b3d9] (001/407) No match
[31fd1003] (001/407) No match
[344c9d21] (001/407) No match


==== Log checksum BD05E777C3093BB736E20497056C1D861BEC4D1F2865C3BBCA81DAFC7FB84CAF ====

––––––––––––––––––––––––––––––

Exact Audio Copy V1.0 beta 3 from 29. August 2011

EAC extraction logfile from 3. August 2014, 20:12

Neil Young / Live At Massey Hall 1971

Used drive : HL-DT-STDVDRAM GSA-T50L Adapter: 1 ID: 0

Read mode : Secure
Utilize accurate stream : Yes
Defeat audio cache : No
Make use of C2 pointers : No

Read offset correction : 667
Overread into Lead-In and Lead-Out : No
Fill up missing offset samples with silence : Yes
Delete leading and trailing silent blocks : No
Null samples used in CRC calculations : Yes
Used interface : Native Win32 interface for Win NT & 2000
Gap handling : Appended to previous track

Used output format : User Defined Encoder
Selected bitrate : 1024 kBit/s
Quality : High
Add ID3 tag : No
Command line compressor : C:\Program Files\Exact Audio Copy\Flac\flac.exe
Additional command line options : -8 -V -T "ARTIST=%artist%" -T "TITLE=%title%" -T "ALBUM=%albumtitle%" -T "DATE=%year%" -T "TRACKNUMBER=%tracknr%" -T "GENRE=%genre%" -T "PERFORMER=%albuminterpret%" -T "COMPOSER=%composer%" %haslyrics%–tag-from-file=LYRICS="%lyricsfile%"%haslyrics% -T "ALBUMARTIST=%albumartist%" -T "DISCNUMBER=%cdnumber%" -T "TOTALDISCS=%totalcds%" -T "TOTALTRACKS=%numtracks%" -T "COMMENT=%comment%" %source% -o %dest%


TOC of the extracted CD

Track | Start | Length | Start sector | End sector
––––––––––––––––––––––––––––-
1 | 0:00.00 | 3:42.59 | 0 | 16708
2 | 3:42.59 | 2:29.04 | 16709 | 27887
3 | 6:11.63 | 4:57.04 | 27888 | 50166
4 | 11:08.67 | 4:15.53 | 50167 | 69344
5 | 15:24.45 | 4:16.00 | 69345 | 88544
6 | 19:40.45 | 2:47.45 | 88545 | 101114
7 | 22:28.15 | 6:39.00 | 101115 | 131039
8 | 29:07.15 | 3:45.67 | 131040 | 147981
9 | 32:53.07 | 2:46.22 | 147982 | 160453
10 | 35:39.29 | 3:33.64 | 160454 | 176492
11 | 39:13.18 | 3:27.15 | 176493 | 192032
12 | 42:40.33 | 3:55.09 | 192033 | 209666
13 | 46:35.42 | 3:40.02 | 209667 | 226168
14 | 50:15.44 | 4:05.21 | 226169 | 244564
15 | 54:20.65 | 4:08.64 | 244565 | 263228
16 | 58:29.54 | 5:48.68 | 263229 | 289396
17 | 64:18.47 | 3:19.44 | 289397 | 304365


Track 1

Filename C:\FLAC\01 On The Way Home.wav

Pre-gap length 0:00:02.00

Peak level 95.4 %
Extraction speed 4.2 X
Track quality 99.9 %
Test CRC 09F7AB60
Copy CRC 09F7AB60
Accurately ripped (confidence 152) [9F08B972] (AR v2)
Copy OK

Track 2

Filename C:\FLAC\02 Tell Me Why.wav

Peak level 93.3 %
Extraction speed 4.5 X
Track quality 99.9 %
Test CRC B977A644
Copy CRC B977A644
Accurately ripped (confidence 153) [7A6BED8C] (AR v2)
Copy OK

Track 3

Filename C:\FLAC\03 Old Man.wav

Peak level 94.2 %
Extraction speed 5.0 X
Track quality 100.0 %
Test CRC 5E7FDDFC
Copy CRC 5E7FDDFC
Accurately ripped (confidence 152) [603F3533] (AR v2)
Copy OK

Track 4

Filename C:\FLAC\04 Journey Through The Past.wav

Peak level 95.3 %
Extraction speed 5.5 X
Track quality 100.0 %
Test CRC 6E43EEF9
Copy CRC 6E43EEF9
Accurately ripped (confidence 153) [5EB1EB60] (AR v2)
Copy OK

Track 5

Filename C:\FLAC\05 Helpless.wav

Peak level 97.0 %
Extraction speed 5.8 X
Track quality 100.0 %
Test CRC 4179D020
Copy CRC 4179D020
Accurately ripped (confidence 153) [E4C7B8CC] (AR v2)
Copy OK

Track 6

Filename C:\FLAC\06 Love In Mind.wav

Peak level 95.0 %
Extraction speed 5.8 X
Track quality 100.0 %
Test CRC 1AB67B3D
Copy CRC 1AB67B3D
Accurately ripped (confidence 153) [66639888] (AR v2)
Copy OK

Track 7

Filename C:\FLAC\07 A Man Needs A Maid – Heart Of Gold Suite.wav

Peak level 97.6 %
Extraction speed 6.3 X
Track quality 100.0 %
Test CRC 251757A4
Copy CRC 251757A4
Accurately ripped (confidence 152) [1BECF801] (AR v2)
Copy OK

Track 8

Filename C:\FLAC\08 Cowgirl In The Sand.wav

Peak level 96.8 %
Extraction speed 6.8 X
Track quality 100.0 %
Test CRC 042BB9A2
Copy CRC 042BB9A2
Accurately ripped (confidence 152) [5078D0F9] (AR v2)
Copy OK

Track 9

Filename C:\FLAC\09 Don't Let It Bring You Down.wav

Peak level 94.4 %
Extraction speed 6.7 X
Track quality 100.0 %
Test CRC 9CA2DA4E
Copy CRC 9CA2DA4E
Accurately ripped (confidence 153) [C6C353F8] (AR v2)
Copy OK

Track 10

Filename C:\FLAC\10 There's A World.wav

Peak level 93.9 %
Extraction speed 7.3 X
Track quality 100.0 %
Test CRC 36E0584B
Copy CRC 36E0584B
Accurately ripped (confidence 151) [A672593B] (AR v2)
Copy OK

Track 11

Filename C:\FLAC\11 Bad Fog Of Loneliness.wav

Peak level 97.1 %
Extraction speed 7.1 X
Track quality 100.0 %
Test CRC BAC59B53
Copy CRC BAC59B53
Accurately ripped (confidence 152) [B1297CC0] (AR v2)
Copy OK

Track 12

Filename C:\FLAC\12 The Needle And The Damage Done.wav

Peak level 92.0 %
Extraction speed 7.7 X
Track quality 100.0 %
Test CRC 052D9718
Copy CRC 052D9718
Accurately ripped (confidence 153) [17263654] (AR v2)
Copy OK

Track 13

Filename C:\FLAC\13 Ohio.wav

Peak level 95.2 %
Extraction speed 7.6 X
Track quality 100.0 %
Test CRC 258AEEEF
Copy CRC 258AEEEF
Accurately ripped (confidence 154) [C977F335] (AR v2)
Copy OK

Track 14

Filename C:\FLAC\14 See The Sky About To Rain.wav

Peak level 95.9 %
Extraction speed 7.9 X
Track quality 100.0 %
Test CRC DC99113B
Copy CRC DC99113B
Accurately ripped (confidence 151) [40D83D24] (AR v2)
Copy OK

Track 15

Filename C:\FLAC\15 Down By The River.wav

Peak level 97.3 %
Extraction speed 8.2 X
Track quality 100.0 %
Test CRC 1656B83A
Copy CRC 1656B83A
Accurately ripped (confidence 152) [97CC4BC2] (AR v2)
Copy OK

Track 16

Filename C:\FLAC\16 Dance Dance Dance.wav

Peak level 97.6 %
Extraction speed 8.4 X
Track quality 99.9 %
Test CRC 756EFFB9
Copy CRC 756EFFB9
Accurately ripped (confidence 149) [4FCD1C72] (AR v2)
Copy OK

Track 17

Filename C:\FLAC\17 I Am A Child.wav

Peak level 94.8 %
Extraction speed 8.8 X
Track quality 99.9 %
Test CRC FC9FB8CF
Copy CRC FC9FB8CF
Accurately ripped (confidence 147) [6C3980AB] (AR v2)
Copy OK


All tracks accurately ripped

No errors occurred

End of status report

–– CUETools DB Plugin V2.1.3

[CTDB TOCID: t0vMd2P8t65Smme.BFNVVLH38cI-] found, Submit result: t0vMd2P8t65Smme.BFNVVLH38cI- has been confirmed
[b1ddcb07] (397/407) Accurately ripped
[1fa5f90a] (001/407) No match
[6ae3edbe] (001/407) No match
[52540fea] (001/407) No match
[f693b9b1] (001/407) No match
[1322400a] (001/407) No match
[008d4945] (001/407) No match
[4b11bd82] (001/407) No match
[bd35b3d9] (001/407) No match
[31fd1003] (001/407) No match
[344c9d21] (001/407) No match


==== Log checksum BD05E777C3093BB736E20497056C1D861BEC4D1F2865C3BBCA81DAFC7FB84CAF ====

foobar2000 1.2 / Dynamic Range Meter 1.1.1
log date: 2014-08-06 02:37:43

––––––––––––––––––––––––––––––––––––––––
Analyzed: Neil Young / Live At Massey Hall 1971
––––––––––––––––––––––––––––––––––––––––

DR Peak RMS Duration Track
––––––––––––––––––––––––––––––––––––––––
DR9 -0.40 dB -11.93 dB 3:43 01-On The Way Home
DR10 -0.60 dB -12.36 dB 2:29 02-Tell Me Why
DR11 -0.51 dB -15.02 dB 4:57 03-Old Man
DR11 -0.42 dB -16.08 dB 4:16 04-Journey Through The Past
DR10 -0.26 dB -13.51 dB 4:16 05-Helpless
DR11 -0.44 dB -16.24 dB 2:48 06-Love In Mind
DR10 -0.21 dB -14.87 dB 6:39 07-A Man Needs A Maid – Heart Of Gold Suite
DR9 -0.28 dB -12.01 dB 3:46 08-Cowgirl In The Sand
DR9 -0.50 dB -11.58 dB 2:46 09-Don't Let It Bring You Down
DR11 -0.54 dB -15.75 dB 3:34 10-There's A World
DR10 -0.25 dB -13.99 dB 3:27 11-Bad Fog Of Loneliness
DR10 -0.72 dB -15.18 dB 3:55 12-The Needle And The Damage Done
DR9 -0.42 dB -11.27 dB 3:40 13-Ohio
DR9 -0.35 dB -12.85 dB 4:05 14-See The Sky About To Rain
DR9 -0.23 dB -12.43 dB 4:09 15-Down By The River
DR9 -0.21 dB -11.59 dB 5:49 16-Dance Dance Dance
DR9 -0.46 dB -12.04 dB 3:20 17-I Am A Child
––––––––––––––––––––––––––––––––––––––––

Number of tracks: 17
Official DR value: DR10

Samplerate: 44100 Hz
Channels: 2
Bits per sample: 16
Bitrate: 805 kbps
Codec: FLAC
================================================================================

Neil Young - Live at Massey Hall 1971 (2007)

Neil Young - Live at Massey Hall 1971 (2007)

All thanks to original releaser - only1joe

More interesting music in My Blog