Subcategories

Neil Young - Archives Vol. 1 (Box Set) (1963-72) [Repost]

Posted By: uff
Neil Young - Archives Vol. 1 (Box Set) (1963-72) [Repost]

Neil Young - Archives Vol. 1 (Box Set) (1963-72)
Rock | 8cd | EAC Rip | Flac + Cue + Log | covers
Reprise | 2009 HDCD remaster | 2750Mb

Any project in the works for two decades is bound to generate its fair share of myths and so it is with Neil Young's Archives, a series of a multi-disc box sets chronicling Young's history. Originally envisioned in the late '80s as a Decade II, the project quickly mutated into a monster covering every little corner of Neil's career. With its escalation came delays, so many that it sometimes seemed that the project never really existed; it was just a shared fantasy between Neil and his faithful. During that long, long wait, fans held tight to the idea that Archives was a clearinghouse of rarities similar to Bob Dylan's The Bootleg Series, a treasure trove of unreleased songs and epochal live performances that would trump whatever bootleggers had to offer. While rare and unheard music is certainly a key part of Archives, particularly on the first disc covering the pre-history of 1963-1965, viewing this project as merely a CD box set is wildly misleading. Neil Young has designed Archives as nothing less than an immersive multimedia autobiography, an interactive experience where the music, text, video, and pictures feed off each other, creating a virtual journey through Neil's past.
Because this is a biography, Archives, Vol. 1 winds up relying very heavily on previously released recordings, containing almost all of Neil Young, Everybody Knows This Is Nowhere, After the Gold Rush, and Harvest, key Buffalo Springfield and Crosby, Stills, Nash & Young cuts, and the previously released archival live albums Live at the Fillmore East 1970 and Live at Massey Hall 1971. Such a large chunk of familiar material is bound to disappoint any listener expecting Archives to be a rarities-only set, forgetting that its origin was as a sequel to Decade, the triple-LP set that mixed up hits with unreleased tunes. Archives follows a similar blueprint, excavating many rare gems – some, like "Bad Fog of Loneliness" quite familiar to bootleggers; some, like an extraordinary "Dance Dance Dance" cut with Graham Nash, not – and placing them neatly alongside his well-known jewels, so the end effect isn't a rush of discovery but ongoing quiet revelation, an impression underpinned by the set's leisurely pace. (Allmusic)

cd1 1963-68 - Early Years
01 - Aurora
02 - The Sultan
03 - I Wonder
04 - Mustang
05 - I'll Love You Forever
06 - (I'm a Man and) I Can't Cry
07 - Hello Lonely Woman
08 - Casting Me Away From You
09 - There Goes My Babe
10 - Sugar Mountain
11 - Nowadays Clancy Can't Even Sing
12 - Runaround Babe
13 - The Ballad of Peggy Grover
14 - The Rent Is Always Due
15 - Extra, Extra
16 - Flying On The Ground Is Wrong
17 - Burned
18 - Out of My Mind
19 - Down, Down, Down
20 - Kahuna Sunset
21 - Mr. Soul
22 - Sell Out
23 - Down To The Wire
24 - Expecting To Fly
25 - Slowly Burning
26 - One More Sign
27 - Broken Arrow
28 - I Am A Child

cd2 1968-69 - Topanga 1
01 - Everybody Knows This Is Nowhere
02 - The Loner
03 - Birds
04 - What Did You Do To My Life
05 - The Last Trip to Tulsa
06 - Here We Are In The Years
07 - I've Been Waiting For You
08 - The Old Laughing Lady
09 - I've Loved Her So long
10 - Sugar Mountain
11 - Nowadays Clancy Can't Even Sing
12 - Down By The River
13 - Cowgirl In The Sand
14 - Everybody Knows This Is Nowhere

cd3 1969 - Live at the Riverboat
01 - Intro - Entry - Circle Game
02 - Sugar Mountain
03 - Incredible Doctor
04 - The Old Laughing Lady
05 - Audience - Dope Song - Band Names
06 - Flying on the Ground Is Wrong
07 - Leaving Friends
08 - On the Way Home
09 - Entry Tuning - Mics - Last Night
10 - I've Loved Her So Long
11 - Important Song - D minor Pipe - Alan A Dale
12 - I Am a Child
13 - Bad Pod - 1956 Bubblegum Disaster
14 - The Last Trip to Tulsa
15 - Blues Band - Groovy Words
16 - Broken Arrow
17 - Entry - Disclaimer - False Start Lights
18 - Whiskey Boot Hill
19 - Uptight - Anything - Tuning
20 - Expecting to Fly

cd4 1969-70 - Topanga 2
01 - Cinnamon Girl
02 - Running Dry (Requiem For The Rockets)
03 - Round And Round (It Won't Be Long)
04 - Oh Lonesome Me
05 - Birds
06 - Everybody's Alone
07 - I Believe In You
08 - Sea Of Madness
09 - Dance Dance Dance
10 - Country Girl
11 - Helpless
12 - It Might Have Been

cd5 1970 - Live at the Fillmore East
01 - Everybody Knows This Is Nowhere
02 - Winterlong
03 - Down by the River
04 - Wonderin'
05 - Come On Baby Let's Go Downtown
06 - Cowgirl in the Sand

cd6 1970 - Topanga 3
01 - Tell Me Why
02 - After The Gold Rush
03 - Only Love Can Break Your Heart
04 - Wonderin'
05 - Don't Let It Bring You Down
06 - Cripple Creek Ferry
07 - Southern Man
08 - Till The Morning Comes
09 - Neil Young with Crazy Horse , When You Dance I Can Really Love
10 - Crosby, Stills, Nash & Young , Ohio
11 - Crosby, Stills, Nash & Young , Only Love Can Break Your Heart
12 - Crosby, Stills, Nash & Young , Tell Me Why
13 - David Crosby, Graham Nash & Music Is Love
14 - See The Sky About To Rain

cd7 1971 - Live at Massey Hall
01 - On The Way Home
02 - Tell Me Why
03 - Old Man
04 - Journey Through The Past
05 - Helpless
06 - Love In Mind
07 - A Man Needs A Maid,Heart Of Gold [Suite]
08 - Cowgirl In The Sand
09 - Don't Let It Bring You Down
10 - There's A World
11 - Bad Fog Of Loneliness
12 - The Needle And The Damage Done
13 - Ohio
14 - See The Sky About To Rain
15 - Down By The River
16 - Dance Dance Dance
17 - I Am A Child

cd8 1971-72 - North Country
01 - Heart Of Gold
02 - The Needle And The Damage Done
03 - Bad Fog Of Loneliness
04 - Old Man
05 - Heart Of Gold
06 - Dance Dance Dance
07 - A Man Needs A Maid
08 - Harvest
09 - Journey Through The Past
10 - Are You Ready For The Country
11 - Alabama
12 - Words (Between The Lines Of Age)
13 - Soldier
14 - War Song

Exact Audio Copy V0.99 prebeta 4 from 23. January 2008

EAC extraction logfile from 7. June 2009, 20:25

Neil Young / Archives Vol 1(Cd1-Early Years 1963-1968)

Used drive : TSSTcorpCD/DVDW TS-L632D Adapter: 0 ID: 1

Read mode : Secure
Utilize accurate stream : Yes
Defeat audio cache : Yes
Make use of C2 pointers : No

Read offset correction : 6
Overread into Lead-In and Lead-Out : No
Fill up missing offset samples with silence : Yes
Delete leading and trailing silent blocks : No
Null samples used in CRC calculations : Yes
Used interface : Native Win32 interface for Win NT & 2000
Gap handling : Appended to previous track

Used output format : User Defined Encoder
Selected bitrate : 128 kBit/s
Quality : High
Add ID3 tag : No
Command line compressor : C:\Program Files\FLAC\flac.exe
Additional command line options : -8 -V -T "ARTIST=%a" -T "TITLE=%t" -T "ALBUM=%g" -T "DATE=%y" -T "TRACKNUMBER=%n" -T "GENRE=%m" -T "COMMENT=%e" %s -o %d


TOC of the extracted CD

Track | Start | Length | Start sector | End sector
––––––––––––––––––––––––––––-
1 | 0:00.00 | 2:10.20 | 0 | 9769
2 | 2:10.20 | 2:35.18 | 9770 | 21412
3 | 4:45.38 | 2:23.44 | 21413 | 32181
4 | 7:09.07 | 2:25.44 | 32182 | 43100
5 | 9:34.51 | 3:24.57 | 43101 | 58457
6 | 12:59.33 | 2:34.49 | 58458 | 70056
7 | 15:34.07 | 3:59.60 | 70057 | 88041
8 | 19:33.67 | 2:15.61 | 88042 | 98227
9 | 21:49.53 | 2:26.66 | 98228 | 109243
10 | 24:16.44 | 2:43.36 | 109244 | 121504
11 | 27:00.05 | 3:05.46 | 121505 | 135425
12 | 30:05.51 | 2:39.00 | 135426 | 147350
13 | 32:44.51 | 2:48.34 | 147351 | 159984
14 | 35:33.10 | 2:54.53 | 159985 | 173087
15 | 38:27.63 | 2:44.37 | 173088 | 185424
16 | 41:12.25 | 3:11.44 | 185425 | 199793
17 | 44:23.69 | 2:18.50 | 199794 | 210193
18 | 46:42.44 | 3:09.06 | 210194 | 224374
19 | 49:51.50 | 2:14.39 | 224375 | 234463
20 | 52:06.14 | 2:55.24 | 234464 | 247612
21 | 55:01.38 | 2:46.44 | 247613 | 260106
22 | 57:48.07 | 1:43.47 | 260107 | 267878
23 | 59:31.54 | 2:31.66 | 267879 | 279269
24 | 62:03.45 | 3:47.74 | 279270 | 296368
25 | 65:51.44 | 3:01.61 | 296369 | 310004
26 | 68:53.30 | 2:05.16 | 310005 | 319395
27 | 70:58.46 | 6:18.09 | 319396 | 347754
28 | 77:16.55 | 2:19.12 | 347755 | 358191


Track 1

Filename D:\EAC\01 - Neil Young , Aurora.wav

Pre-gap length 0:00:02.00

Peak level 95.3 %
Track quality 100.0 %
Test CRC 0F96071E
Copy CRC 0F96071E
Track not present in AccurateRip database
Copy OK

Track 2

Filename D:\EAC\02 - The Sultan.wav

Pre-gap length 0:00:02.53

Peak level 96.2 %
Track quality 100.0 %
Test CRC 045069D3
Copy CRC 045069D3
Track not present in AccurateRip database
Copy OK

Track 3

Filename D:\EAC\03 - I Wonder.wav

Pre-gap length 0:00:02.22

Peak level 97.4 %
Track quality 100.0 %
Test CRC 6FAE5AD0
Copy CRC 6FAE5AD0
Track not present in AccurateRip database
Copy OK

Track 4

Filename D:\EAC\04 - Mustang.wav

Pre-gap length 0:00:01.64

Peak level 97.4 %
Track quality 100.0 %
Test CRC 66922663
Copy CRC 66922663
Track not present in AccurateRip database
Copy OK

Track 5

Filename D:\EAC\05 - I'll Love You Forever.wav

Pre-gap length 0:00:02.38

Peak level 97.1 %
Track quality 100.0 %
Test CRC 67760CBC
Copy CRC 67760CBC
Track not present in AccurateRip database
Copy OK

Track 6

Filename D:\EAC\06 - (I'm a Man and) I Can't Cry.wav

Pre-gap length 0:00:02.53

Peak level 83.3 %
Track quality 100.0 %
Test CRC AA5AF49F
Copy CRC AA5AF49F
Track not present in AccurateRip database
Copy OK

Track 7

Filename D:\EAC\07 - Hello Lonely Woman.wav

Pre-gap length 0:00:03.56

Peak level 95.3 %
Track quality 100.0 %
Test CRC 67D08A7A
Copy CRC 67D08A7A
Track not present in AccurateRip database
Copy OK

Track 8

Filename D:\EAC\08 - Casting Me Away From You.wav

Pre-gap length 0:00:01.66

Peak level 91.6 %
Track quality 99.9 %
Test CRC 0E1E5306
Copy CRC 0E1E5306
Track not present in AccurateRip database
Copy OK

Track 9

Filename D:\EAC\09 - There Goes My Babe.wav

Pre-gap length 0:00:02.39

Peak level 90.2 %
Track quality 100.0 %
Test CRC BADF462E
Copy CRC BADF462E
Track not present in AccurateRip database
Copy OK

Track 10

Filename D:\EAC\10 - Sugar Mountain.wav

Pre-gap length 0:00:03.46

Peak level 92.3 %
Track quality 100.0 %
Test CRC A8ED875F
Copy CRC A8ED875F
Track not present in AccurateRip database
Copy OK

Track 11

Filename D:\EAC\11 - Nowadays Clancy Can't Even Sing.wav

Peak level 95.6 %
Track quality 99.9 %
Test CRC 9A34D285
Copy CRC 9A34D285
Track not present in AccurateRip database
Copy OK

Track 12

Filename D:\EAC\12 - Runaround Babe.wav

Peak level 95.5 %
Track quality 100.0 %
Test CRC 799685F9
Copy CRC 799685F9
Track not present in AccurateRip database
Copy OK

Track 13

Filename D:\EAC\13 - The Ballad of Peggy Grover.wav

Peak level 97.1 %
Track quality 100.0 %
Test CRC EF9C69EB
Copy CRC EF9C69EB
Track not present in AccurateRip database
Copy OK

Track 14

Filename D:\EAC\14 - The Rent Is Always Due.wav

Peak level 95.5 %
Track quality 100.0 %
Test CRC CD7153CF
Copy CRC CD7153CF
Track not present in AccurateRip database
Copy OK

Track 15

Filename D:\EAC\15 - Extra, Extra.wav

Peak level 96.5 %
Track quality 100.0 %
Test CRC F70DF831
Copy CRC F70DF831
Track not present in AccurateRip database
Copy OK

Track 16

Filename D:\EAC\16 - Flying On The Ground Is Wrong.wav

Pre-gap length 0:00:02.51

Peak level 90.4 %
Track quality 99.9 %
Test CRC 2B1A8435
Copy CRC 2B1A8435
Track not present in AccurateRip database
Copy OK

Track 17

Filename D:\EAC\17 - Burned.wav

Pre-gap length 0:00:03.45

Peak level 97.2 %
Track quality 100.0 %
Test CRC FA21D2EF
Copy CRC FA21D2EF
Track not present in AccurateRip database
Copy OK

Track 18

Filename D:\EAC\18 - Out of My Mind.wav

Pre-gap length 0:00:02.41

Peak level 96.9 %
Track quality 100.0 %
Test CRC DDBDC72C
Copy CRC DDBDC72C
Track not present in AccurateRip database
Copy OK

Track 19

Filename D:\EAC\19 - Down, Down, Down.wav

Pre-gap length 0:00:03.54

Peak level 94.1 %
Track quality 100.0 %
Test CRC 1C265869
Copy CRC 1C265869
Track not present in AccurateRip database
Copy OK

Track 20

Filename D:\EAC\20 - Kahuna Sunset.wav

Pre-gap length 0:00:03.16

Peak level 95.6 %
Track quality 99.9 %
Test CRC EEB73CED
Copy CRC EEB73CED
Track not present in AccurateRip database
Copy OK

Track 21

Filename D:\EAC\21 - Mr. Soul.wav

Pre-gap length 0:00:02.56

Peak level 95.8 %
Track quality 100.0 %
Test CRC 98B49DAF
Copy CRC 98B49DAF
Track not present in AccurateRip database
Copy OK

Track 22

Filename D:\EAC\22 - Sell Out.wav

Pre-gap length 0:00:02.43

Peak level 97.1 %
Track quality 99.8 %
Test CRC 11CCC634
Copy CRC 11CCC634
Track not present in AccurateRip database
Copy OK

Track 23

Filename D:\EAC\23 - Down To The Wire.wav

Pre-gap length 0:00:02.70

Peak level 97.4 %
Track quality 100.0 %
Test CRC 0C4F18C0
Copy CRC 0C4F18C0
Track not present in AccurateRip database
Copy OK

Track 24

Filename D:\EAC\24 - Expecting To Fly.wav

Pre-gap length 0:00:02.27

Peak level 97.5 %
Track quality 100.0 %
Test CRC 2C05C4A4
Copy CRC 2C05C4A4
Track not present in AccurateRip database
Copy OK

Track 25

Filename D:\EAC\25 - Slowly Burning.wav

Pre-gap length 0:00:02.60

Peak level 97.5 %
Track quality 100.0 %
Test CRC FC3D5BBA
Copy CRC FC3D5BBA
Track not present in AccurateRip database
Copy OK

Track 26

Filename D:\EAC\26 - One More Sign.wav

Pre-gap length 0:00:03.07

Peak level 93.5 %
Track quality 99.9 %
Test CRC F62B7424
Copy CRC F62B7424
Track not present in AccurateRip database
Copy OK

Track 27

Filename D:\EAC\27 - Broken Arrow.wav

Pre-gap length 0:00:03.29

Peak level 97.5 %
Track quality 100.0 %
Test CRC 0C490D62
Copy CRC 0C490D62
Track not present in AccurateRip database
Copy OK

Track 28

Filename D:\EAC\28 - I Am A Child.wav

Pre-gap length 0:00:04.22

Peak level 97.5 %
Track quality 99.9 %
Test CRC DBCFFC42
Copy CRC DBCFFC42
Track not present in AccurateRip database
Copy OK


None of the tracks are present in the AccurateRip database

No errors occurred

End of status report
______________________________________

Exact Audio Copy V0.99 prebeta 4 from 23. January 2008

EAC extraction logfile from 7. June 2009, 21:12

Neil Young / Archives Vol 1(Cd2-Topanga 1 1968-1969)

Used drive : TSSTcorpCD/DVDW TS-L632D Adapter: 0 ID: 1

Read mode : Secure
Utilize accurate stream : Yes
Defeat audio cache : Yes
Make use of C2 pointers : No

Read offset correction : 6
Overread into Lead-In and Lead-Out : No
Fill up missing offset samples with silence : Yes
Delete leading and trailing silent blocks : No
Null samples used in CRC calculations : Yes
Used interface : Native Win32 interface for Win NT & 2000
Gap handling : Appended to previous track

Used output format : User Defined Encoder
Selected bitrate : 128 kBit/s
Quality : High
Add ID3 tag : No
Command line compressor : C:\Program Files\FLAC\flac.exe
Additional command line options : -8 -V -T "ARTIST=%a" -T "TITLE=%t" -T "ALBUM=%g" -T "DATE=%y" -T "TRACKNUMBER=%n" -T "GENRE=%m" -T "COMMENT=%e" %s -o %d


TOC of the extracted CD

Track | Start | Length | Start sector | End sector
––––––––––––––––––––––––––––-
1 | 0:00.00 | 2:18.41 | 0 | 10390
2 | 2:18.41 | 3:53.41 | 10391 | 27906
3 | 6:12.07 | 2:18.41 | 27907 | 38297
4 | 8:30.48 | 1:56.43 | 38298 | 47040
5 | 10:27.16 | 9:29.05 | 47041 | 89720
6 | 19:56.21 | 3:20.54 | 89721 | 104774
7 | 23:17.00 | 2:31.51 | 104775 | 116150
8 | 25:48.51 | 6:03.58 | 116151 | 143433
9 | 31:52.34 | 2:49.19 | 143434 | 156127
10 | 34:41.53 | 6:15.74 | 156128 | 184326
11 | 40:57.52 | 5:24.63 | 184327 | 208689
12 | 46:22.40 | 9:19.59 | 208690 | 250673
13 | 55:42.24 | 10:08.07 | 250674 | 296280
14 | 65:50.31 | 2:29.33 | 296281 | 307488


Track 1

Filename D:\EAC\01 - Everybody Knows This Is Nowhere.wav

Pre-gap length 0:00:02.00

Peak level 97.2 %
Track quality 100.0 %
Test CRC E1088F73
Copy CRC E1088F73
Track not present in AccurateRip database
Copy OK

Track 2

Filename D:\EAC\02 - The Loner.wav

Pre-gap length 0:00:02.72

Peak level 97.5 %
Track quality 100.0 %
Test CRC F5FB0EE5
Copy CRC F5FB0EE5
Track not present in AccurateRip database
Copy OK

Track 3

Filename D:\EAC\03 - Birds.wav

Pre-gap length 0:00:03.06

Peak level 93.9 %
Track quality 100.0 %
Test CRC 66A6D581
Copy CRC 66A6D581
Track not present in AccurateRip database
Copy OK

Track 4

Filename D:\EAC\04 - What Did You Do To My Life .wav

Pre-gap length 0:00:03.19

Peak level 97.2 %
Track quality 99.9 %
Test CRC 68A9C060
Copy CRC 68A9C060
Track not present in AccurateRip database
Copy OK

Track 5

Filename D:\EAC\05 - The Last Trip to Tulsa.wav

Pre-gap length 0:00:03.20

Peak level 96.6 %
Track quality 100.0 %
Test CRC A8800CD8
Copy CRC A8800CD8
Track not present in AccurateRip database
Copy OK

Track 6

Filename D:\EAC\06 - Here We Are In The Years.wav

Pre-gap length 0:00:02.02

Peak level 97.6 %
Track quality 100.0 %
Test CRC E0128B81
Copy CRC E0128B81
Track not present in AccurateRip database
Copy OK

Track 7

Filename D:\EAC\07 - I've Been Waiting For You.wav

Pre-gap length 0:00:03.12

Peak level 97.6 %
Track quality 100.0 %
Test CRC C0CA8043
Copy CRC C0CA8043
Track not present in AccurateRip database
Copy OK

Track 8

Filename D:\EAC\08 - The Old Laughing Lady.wav

Pre-gap length 0:00:03.33

Peak level 97.3 %
Track quality 100.0 %
Test CRC CB7BD671
Copy CRC CB7BD671
Track not present in AccurateRip database
Copy OK

Track 9

Filename D:\EAC\09 - I've Loved Her So long.wav

Pre-gap length 0:00:03.19

Peak level 95.8 %
Track quality 100.0 %
Test CRC 8FCD8D83
Copy CRC 8FCD8D83
Track not present in AccurateRip database
Copy OK

Track 10

Filename D:\EAC\10 - Sugar Mountain.wav

Pre-gap length 0:00:05.07

Peak level 97.3 %
Track quality 100.0 %
Test CRC CEF1478C
Copy CRC CEF1478C
Track not present in AccurateRip database
Copy OK

Track 11

Filename D:\EAC\11 - Nowadays Clancy Can't Even Sing.wav

Peak level 97.5 %
Track quality 100.0 %
Test CRC 138AD437
Copy CRC 138AD437
Track not present in AccurateRip database
Copy OK

Track 12

Filename D:\EAC\12 - Down By The River.wav

Pre-gap length 0:00:03.22

Peak level 97.5 %
Track quality 100.0 %
Test CRC C17B8BF4
Copy CRC C17B8BF4
Track not present in AccurateRip database
Copy OK

Track 13

Filename D:\EAC\13 - Cowgirl In The Sand.wav

Pre-gap length 0:00:02.03

Peak level 97.5 %
Track quality 100.0 %
Test CRC B501CA42
Copy CRC B501CA42
Track not present in AccurateRip database
Copy OK

Track 14

Filename D:\EAC\14 - Everybody Knows This Is Nowhere.wav

Pre-gap length 0:00:02.08

Peak level 96.4 %
Track quality 99.9 %
Test CRC 88281597
Copy CRC 88281597
Track not present in AccurateRip database
Copy OK


None of the tracks are present in the AccurateRip database

No errors occurred

End of status report
____________________________

Exact Audio Copy V0.99 prebeta 4 from 23. January 2008

EAC extraction logfile from 7. June 2009, 21:54

Neil Young / Archives Vol 1 (Cd3-Live at the Riverboat 1969)

Used drive : TSSTcorpCD/DVDW TS-L632D Adapter: 0 ID: 1

Read mode : Secure
Utilize accurate stream : Yes
Defeat audio cache : Yes
Make use of C2 pointers : No

Read offset correction : 6
Overread into Lead-In and Lead-Out : No
Fill up missing offset samples with silence : Yes
Delete leading and trailing silent blocks : No
Null samples used in CRC calculations : Yes
Used interface : Native Win32 interface for Win NT & 2000
Gap handling : Appended to previous track

Used output format : User Defined Encoder
Selected bitrate : 128 kBit/s
Quality : High
Add ID3 tag : No
Command line compressor : C:\Program Files\FLAC\flac.exe
Additional command line options : -8 -V -T "ARTIST=%a" -T "TITLE=%t" -T "ALBUM=%g" -T "DATE=%y" -T "TRACKNUMBER=%n" -T "GENRE=%m" -T "COMMENT=%e" %s -o %d


TOC of the extracted CD

Track | Start | Length | Start sector | End sector
––––––––––––––––––––––––––––-
1 | 0:00.00 | 1:18.41 | 0 | 5890
2 | 1:18.41 | 5:34.37 | 5891 | 30977
3 | 6:53.03 | 3:10.42 | 30978 | 45269
4 | 10:03.45 | 5:14.34 | 45270 | 68853
5 | 15:18.04 | 2:59.56 | 68854 | 82334
6 | 18:17.60 | 3:58.70 | 82335 | 100254
7 | 22:16.55 | 0:25.11 | 100255 | 102140
8 | 22:41.66 | 2:41.73 | 102141 | 114288
9 | 25:23.64 | 1:20.02 | 114289 | 120290
10 | 26:43.66 | 2:15.15 | 120291 | 130430
11 | 28:59.06 | 2:20.05 | 130431 | 140935
12 | 31:19.11 | 2:26.72 | 140936 | 151957
13 | 33:46.08 | 2:04.27 | 151958 | 161284
14 | 35:50.35 | 7:02.20 | 161285 | 192954
15 | 42:52.55 | 2:14.21 | 192955 | 203025
16 | 45:07.01 | 4:39.40 | 203026 | 223990
17 | 49:46.41 | 0:52.71 | 223991 | 227961
18 | 50:39.37 | 2:22.33 | 227962 | 238644
19 | 53:01.70 | 0:54.57 | 238645 | 242751
20 | 53:56.52 | 2:55.62 | 242752 | 255938


Track 1

Filename D:\EAC\01 - Intro - Entry - Circle Game.wav

Pre-gap length 0:00:02.00

Peak level 94.2 %
Track quality 100.0 %
Test CRC E273B25A
Copy CRC E273B25A
Track not present in AccurateRip database
Copy OK

Track 2

Filename D:\EAC\02 - Sugar Mountain.wav

Peak level 97.4 %
Track quality 100.0 %
Test CRC 8E947D63
Copy CRC 8E947D63
Track not present in AccurateRip database
Copy OK

Track 3

Filename D:\EAC\03 - Incredible Doctor.wav

Peak level 72.9 %
Track quality 100.0 %
Test CRC 12828C00
Copy CRC 12828C00
Track not present in AccurateRip database
Copy OK

Track 4

Filename D:\EAC\04 - The Old Laughing Lady.wav

Peak level 97.7 %
Track quality 99.9 %
Test CRC 49DDF2B6
Copy CRC 49DDF2B6
Track not present in AccurateRip database
Copy OK

Track 5

Filename D:\EAC\05 - Audience - Dope Song - Band Names.wav

Peak level 97.6 %
Track quality 100.0 %
Test CRC C0A63D01
Copy CRC C0A63D01
Track not present in AccurateRip database
Copy OK

Track 6

Filename D:\EAC\06 - Flying on the Ground Is Wrong.wav

Peak level 96.6 %
Track quality 100.0 %
Test CRC 17892425
Copy CRC 17892425
Track not present in AccurateRip database
Copy OK

Track 7

Filename D:\EAC\07 - Leaving Friends.wav

Peak level 48.3 %
Track quality 100.0 %
Test CRC DBDB3C67
Copy CRC DBDB3C67
Track not present in AccurateRip database
Copy OK

Track 8

Filename D:\EAC\08 - On the Way Home.wav

Peak level 97.6 %
Track quality 100.0 %
Test CRC 20B13134
Copy CRC 20B13134
Track not present in AccurateRip database
Copy OK

Track 9

Filename D:\EAC\09 - Entry Tuning - Mics - Last Night.wav

Pre-gap length 0:00:01.66

Peak level 65.8 %
Track quality 99.8 %
Test CRC 314D0092
Copy CRC 314D0092
Track not present in AccurateRip database
Copy OK

Track 10

Filename D:\EAC\10 - I've Loved Her So Long.wav

Peak level 93.6 %
Track quality 100.0 %
Test CRC 169461C2
Copy CRC 169461C2
Track not present in AccurateRip database
Copy OK

Track 11

Filename D:\EAC\11 - Important Song - D minor Pipe - Alan A Dale.wav

Pre-gap length 0:00:01.71

Peak level 56.0 %
Track quality 100.0 %
Test CRC 40328E1C
Copy CRC 40328E1C
Track not present in AccurateRip database
Copy OK

Track 12

Filename D:\EAC\12 - I Am a Child.wav

Peak level 94.3 %
Track quality 100.0 %
Test CRC 62939F8D
Copy CRC 62939F8D
Track not present in AccurateRip database
Copy OK

Track 13

Filename D:\EAC\13 - Bad Pod - 1956 Bubblegum Disaster.wav

Peak level 95.3 %
Track quality 100.0 %
Test CRC 17D5BB87
Copy CRC 17D5BB87
Track not present in AccurateRip database
Copy OK

Track 14

Filename D:\EAC\14 - The Last Trip to Tulsa.wav

Peak level 97.4 %
Track quality 100.0 %
Test CRC B6920B18
Copy CRC B6920B18
Track not present in AccurateRip database
Copy OK

Track 15

Filename D:\EAC\15 - Blues Band - Groovy Words.wav

Pre-gap length 0:00:01.50

Peak level 87.5 %
Track quality 100.0 %
Test CRC 7B98F7D6
Copy CRC 7B98F7D6
Track not present in AccurateRip database
Copy OK

Track 16

Filename D:\EAC\16 - Broken Arrow.wav

Peak level 97.1 %
Track quality 100.0 %
Test CRC 6EA93252
Copy CRC 6EA93252
Track not present in AccurateRip database
Copy OK

Track 17

Filename D:\EAC\17 - Entry - Disclaimer - False Start Lights.wav

Pre-gap length 0:00:00.54

Peak level 83.1 %
Track quality 100.0 %
Test CRC E025B0C6
Copy CRC E025B0C6
Track not present in AccurateRip database
Copy OK

Track 18

Filename D:\EAC\18 - Whiskey Boot Hill.wav

Peak level 92.6 %
Track quality 99.9 %
Test CRC EFDAEC6E
Copy CRC EFDAEC6E
Track not present in AccurateRip database
Copy OK

Track 19

Filename D:\EAC\19 - Uptight - Anything - Tuning.wav

Peak level 44.2 %
Track quality 100.0 %
Test CRC E68E1111
Copy CRC E68E1111
Track not present in AccurateRip database
Copy OK

Track 20

Filename D:\EAC\20 - Expecting to Fly.wav

Peak level 97.7 %
Track quality 100.0 %
Test CRC 65F4D151
Copy CRC 65F4D151
Track not present in AccurateRip database
Copy OK


None of the tracks are present in the AccurateRip database

No errors occurred

End of status report
____________________

Exact Audio Copy V0.99 prebeta 4 from 23. January 2008

EAC extraction logfile from 7. June 2009, 22:45

Neil Young / Archives Vol 1(Cd4-Topanga 2 1969-1970)

Used drive : TSSTcorpCD/DVDW TS-L632D Adapter: 0 ID: 1

Read mode : Secure
Utilize accurate stream : Yes
Defeat audio cache : Yes
Make use of C2 pointers : No

Read offset correction : 6
Overread into Lead-In and Lead-Out : No
Fill up missing offset samples with silence : Yes
Delete leading and trailing silent blocks : No
Null samples used in CRC calculations : Yes
Used interface : Native Win32 interface for Win NT & 2000
Gap handling : Appended to previous track

Used output format : User Defined Encoder
Selected bitrate : 128 kBit/s
Quality : High
Add ID3 tag : No
Command line compressor : C:\Program Files\FLAC\flac.exe
Additional command line options : -8 -V -T "ARTIST=%a" -T "TITLE=%t" -T "ALBUM=%g" -T "DATE=%y" -T "TRACKNUMBER=%n" -T "GENRE=%m" -T "COMMENT=%e" %s -o %d


TOC of the extracted CD

Track | Start | Length | Start sector | End sector
––––––––––––––––––––––––––––-
1 | 0:00.00 | 3:02.26 | 0 | 13675
2 | 3:02.26 | 5:37.10 | 13676 | 38960
3 | 8:39.36 | 5:56.40 | 38961 | 65700
4 | 14:36.01 | 4:02.51 | 65701 | 83901
5 | 18:38.52 | 1:39.33 | 83902 | 91359
6 | 20:18.10 | 2:33.54 | 91360 | 102888
7 | 22:51.64 | 3:30.18 | 102889 | 118656
8 | 26:22.07 | 3:18.64 | 118657 | 133570
9 | 29:40.71 | 2:27.21 | 133571 | 144616
10 | 32:08.17 | 5:13.15 | 144617 | 168106
11 | 37:21.32 | 3:50.65 | 168107 | 185421
12 | 41:12.22 | 4:18.16 | 185422 | 204787


Track 1

Filename D:\EAC\01 - Cinnamon Girl.wav

Pre-gap length 0:00:02.00

Peak level 97.2 %
Track quality 100.0 %
Test CRC CF1AC082
Copy CRC CF1AC082
Track not present in AccurateRip database
Copy OK

Track 2

Filename D:\EAC\02 - Running Dry (Requiem For The Rockets).wav

Pre-gap length 0:00:02.18

Peak level 94.8 %
Track quality 100.0 %
Test CRC EAC8DFAB
Copy CRC EAC8DFAB
Track not present in AccurateRip database
Copy OK

Track 3

Filename D:\EAC\03 - Round And Round (It Won't Be Long).wav

Pre-gap length 0:00:01.52

Peak level 89.3 %
Track quality 100.0 %
Test CRC DDAB1CDA
Copy CRC DDAB1CDA
Track not present in AccurateRip database
Copy OK

Track 4

Filename D:\EAC\04 - Oh Lonesome Me.wav

Pre-gap length 0:00:02.08

Peak level 97.6 %
Track quality 100.0 %
Test CRC D5952B58
Copy CRC D5952B58
Track not present in AccurateRip database
Copy OK

Track 5

Filename D:\EAC\05 - Birds.wav

Pre-gap length 0:00:02.26

Peak level 91.1 %
Track quality 100.0 %
Test CRC FFBBFCAA
Copy CRC FFBBFCAA
Track not present in AccurateRip database
Copy OK

Track 6

Filename D:\EAC\06 - Everybody's Alone.wav

Pre-gap length 0:00:02.20

Peak level 95.5 %
Track quality 100.0 %
Test CRC 1E138760
Copy CRC 1E138760
Track not present in AccurateRip database
Copy OK

Track 7

Filename D:\EAC\07 - I Believe In You.wav

Pre-gap length 0:00:02.13

Peak level 96.3 %
Track quality 100.0 %
Test CRC 4FD9AAD4
Copy CRC 4FD9AAD4
Track not present in AccurateRip database
Copy OK

Track 8

Filename D:\EAC\08 - Sea Of Madness.wav

Pre-gap length 0:00:02.16

Peak level 97.4 %
Track quality 100.0 %
Test CRC 12692ADE
Copy CRC 12692ADE
Track not present in AccurateRip database
Copy OK

Track 9

Filename D:\EAC\09 - Dance Dance Dance.wav

Pre-gap length 0:00:02.26

Peak level 97.5 %
Track quality 100.0 %
Test CRC 3B386802
Copy CRC 3B386802
Track not present in AccurateRip database
Copy OK

Track 10

Filename D:\EAC\10 - Country Girl.wav

Pre-gap length 0:00:03.14

Peak level 97.6 %
Track quality 100.0 %
Test CRC 239FE5F5
Copy CRC 239FE5F5
Track not present in AccurateRip database
Copy OK

Track 11

Filename D:\EAC\11 - Helpless.wav

Pre-gap length 0:00:02.11

Peak level 97.4 %
Track quality 100.0 %
Test CRC 4B8A2DC3
Copy CRC 4B8A2DC3
Track not present in AccurateRip database
Copy OK

Track 12

Filename D:\EAC\12 - It Might Have Been.wav

Pre-gap length 0:00:05.01

Peak level 97.6 %
Track quality 100.0 %
Test CRC 133830B1
Copy CRC 133830B1
Track not present in AccurateRip database
Copy OK


None of the tracks are present in the AccurateRip database

No errors occurred

End of status report
______________________

Exact Audio Copy V0.99 prebeta 4 from 23. January 2008

EAC extraction logfile from 8. June 2009, 23:54

Neil Young & Crazy Horse / Archives Vol 1(Cd5-Live at the Fillmore East 1970)

Used drive : TSSTcorpCD/DVDW TS-L632D Adapter: 0 ID: 1

Read mode : Secure
Utilize accurate stream : Yes
Defeat audio cache : Yes
Make use of C2 pointers : No

Read offset correction : 6
Overread into Lead-In and Lead-Out : No
Fill up missing offset samples with silence : Yes
Delete leading and trailing silent blocks : No
Null samples used in CRC calculations : Yes
Used interface : Native Win32 interface for Win NT & 2000
Gap handling : Appended to previous track

Used output format : User Defined Encoder
Selected bitrate : 128 kBit/s
Quality : High
Add ID3 tag : No
Command line compressor : C:\Program Files\FLAC\flac.exe
Additional command line options : -8 -V -T "ARTIST=%a" -T "TITLE=%t" -T "ALBUM=%g" -T "DATE=%y" -T "TRACKNUMBER=%n" -T "GENRE=%m" -T "COMMENT=%e" %s -o %d


TOC of the extracted CD

Track | Start | Length | Start sector | End sector
––––––––––––––––––––––––––––-
1 | 0:00.00 | 3:36.70 | 0 | 16269
2 | 3:36.70 | 3:40.25 | 16270 | 32794
3 | 7:17.20 | 12:24.57 | 32795 | 88651
4 | 19:42.02 | 3:35.67 | 88652 | 104843
5 | 23:17.69 | 3:51.54 | 104844 | 122222
6 | 27:09.48 | 16:09.29 | 122223 | 194926


Track 1

Filename D:\EAC\01 - Everybody Knows This Is Nowhere.wav

Pre-gap length 0:00:02.00

Peak level 97.5 %
Track quality 100.0 %
Test CRC 983C89F9
Copy CRC 983C89F9
Cannot be verified as accurate (confidence 104) [81194FD0], AccurateRip returned [8D024F54]
Copy OK

Track 2

Filename D:\EAC\02 - Winterlong.wav

Peak level 96.7 %
Track quality 100.0 %
Test CRC 07CF1D79
Copy CRC 07CF1D79
Accurately ripped (confidence 105) [383D384E]
Copy OK

Track 3

Filename D:\EAC\03 - Down by the River.wav

Pre-gap length 0:00:06.14

Peak level 96.3 %
Track quality 100.0 %
Test CRC 9A1CCE4C
Copy CRC 9A1CCE4C
Accurately ripped (confidence 104) [6576619F]
Copy OK

Track 4

Filename D:\EAC\04 - Wonderin'.wav

Pre-gap length 0:00:01.64

Peak level 97.5 %
Track quality 100.0 %
Test CRC F129CD75
Copy CRC F129CD75
Accurately ripped (confidence 106) [30E898D8]
Copy OK

Track 5

Filename D:\EAC\05 - Come On Baby Let's Go Downtown.wav

Pre-gap length 0:01:13.13

Peak level 96.1 %
Track quality 100.0 %
Test CRC 0F7153B6
Copy CRC 0F7153B6
Accurately ripped (confidence 106) [288583D8]
Copy OK

Track 6

Filename D:\EAC\06 - Cowgirl in the Sand.wav

Peak level 97.0 %
Track quality 100.0 %
Test CRC 4E601781
Copy CRC 4E601781
Accurately ripped (confidence 98) [B8B68093]
Copy OK


5 track(s) accurately ripped
1 track(s) could not be verified as accurate

Some tracks could not be verified as accurate

No errors occurred

End of status report
_____________________

Exact Audio Copy V0.99 prebeta 4 from 23. January 2008

EAC extraction logfile from 9. June 2009, 0:54

Neil Young / Archives Vol 1(Cd6-Topanga 3 1970)

Used drive : TSSTcorpCD/DVDW TS-L632D Adapter: 0 ID: 1

Read mode : Secure
Utilize accurate stream : Yes
Defeat audio cache : Yes
Make use of C2 pointers : No

Read offset correction : 6
Overread into Lead-In and Lead-Out : No
Fill up missing offset samples with silence : Yes
Delete leading and trailing silent blocks : No
Null samples used in CRC calculations : Yes
Used interface : Native Win32 interface for Win NT & 2000
Gap handling : Appended to previous track

Used output format : User Defined Encoder
Selected bitrate : 128 kBit/s
Quality : High
Add ID3 tag : No
Command line compressor : C:\Program Files\FLAC\flac.exe
Additional command line options : -8 -V -T "ARTIST=%a" -T "TITLE=%t" -T "ALBUM=%g" -T "DATE=%y" -T "TRACKNUMBER=%n" -T "GENRE=%m" -T "COMMENT=%e" %s -o %d


TOC of the extracted CD

Track | Start | Length | Start sector | End sector
––––––––––––––––––––––––––––-
1 | 0:00.00 | 3:00.42 | 0 | 13541
2 | 3:00.42 | 3:48.70 | 13542 | 30711
3 | 6:49.37 | 3:11.17 | 30712 | 45053
4 | 10:00.54 | 2:12.66 | 45054 | 55019
5 | 12:13.45 | 2:59.62 | 55020 | 68506
6 | 15:13.32 | 1:36.25 | 68507 | 75731
7 | 16:49.57 | 5:33.57 | 75732 | 100763
8 | 22:23.39 | 1:18.65 | 100764 | 106678
9 | 23:42.29 | 3:48.34 | 106679 | 123812
10 | 27:30.63 | 3:02.24 | 123813 | 137486
11 | 30:33.12 | 4:16.43 | 137487 | 156729
12 | 34:49.55 | 5:43.50 | 156730 | 182504
13 | 40:33.30 | 3:22.58 | 182505 | 197712
14 | 43:56.13 | 3:55.74 | 197713 | 215411


Track 1

Filename D:\EAC\01 - Tell Me Why.wav

Pre-gap length 0:00:02.00

Peak level 96.8 %
Track quality 100.0 %
Test CRC D88FBC87
Copy CRC D88FBC87
Track not present in AccurateRip database
Copy OK

Track 2

Filename D:\EAC\02 - After The Gold Rush.wav

Pre-gap length 0:00:02.64

Peak level 90.0 %
Track quality 100.0 %
Test CRC 81AB364F
Copy CRC 81AB364F
Track not present in AccurateRip database
Copy OK

Track 3

Filename D:\EAC\03 - Only Love Can Break Your Heart.wav

Pre-gap length 0:00:02.37

Peak level 96.2 %
Track quality 100.0 %
Test CRC AD9FAC39
Copy CRC AD9FAC39
Track not present in AccurateRip database
Copy OK

Track 4

Filename D:\EAC\04 - Wonderin'.wav

Pre-gap length 0:00:02.15

Peak level 96.1 %
Track quality 100.0 %
Test CRC 88178720
Copy CRC 88178720
Track not present in AccurateRip database
Copy OK

Track 5

Filename D:\EAC\05 - Don't Let It Bring You Down.wav

Pre-gap length 0:00:02.26

Peak level 97.6 %
Track quality 100.0 %
Test CRC A345C931
Copy CRC A345C931
Track not present in AccurateRip database
Copy OK

Track 6

Filename D:\EAC\06 - Cripple Creek Ferry.wav

Pre-gap length 0:00:02.32

Peak level 94.6 %
Track quality 100.0 %
Test CRC 6D4DE467
Copy CRC 6D4DE467
Track not present in AccurateRip database
Copy OK

Track 7

Filename D:\EAC\07 - Southern Man.wav

Pre-gap length 0:00:02.23

Peak level 97.5 %
Track quality 100.0 %
Test CRC 6A92688A
Copy CRC 6A92688A
Track not present in AccurateRip database
Copy OK

Track 8

Filename D:\EAC\08 - Till The Morning Comes.wav

Pre-gap length 0:00:02.12

Peak level 94.8 %
Track quality 100.0 %
Test CRC AAF06A8A
Copy CRC AAF06A8A
Track not present in AccurateRip database
Copy OK

Track 9

Filename D:\EAC\09 - Neil Young with Crazy Horse , When You Dance I Can Really Love.wav

Pre-gap length 0:00:02.21

Peak level 97.6 %
Track quality 99.9 %
Test CRC D851C8F7
Copy CRC D851C8F7
Track not present in AccurateRip database
Copy OK

Track 10

Filename D:\EAC\10 - Crosby, Stills, Nash & Young , Ohio.wav

Pre-gap length 0:00:02.21

Peak level 97.4 %
Track quality 100.0 %
Test CRC 393CDAD1
Copy CRC 393CDAD1
Track not present in AccurateRip database
Copy OK

Track 11

Filename D:\EAC\11 - Crosby, Stills, Nash & Young , Only Love Can Break Your Heart.wav

Pre-gap length 0:00:02.26

Peak level 96.3 %
Track quality 100.0 %
Test CRC 52F86CCD
Copy CRC 52F86CCD
Track not present in AccurateRip database
Copy OK

Track 12

Filename D:\EAC\12 - Crosby, Stills, Nash & Young , Tell Me Why.wav

Pre-gap length 0:00:01.02

Peak level 94.3 %
Track quality 99.9 %
Test CRC CE49FBB4
Copy CRC CE49FBB4
Track not present in AccurateRip database
Copy OK

Track 13

Filename D:\EAC\13 - David Crosby, Graham Nash & Neil Young , Music Is Love.wav

Pre-gap length 0:00:01.68

Peak level 91.7 %
Track quality 100.0 %
Test CRC 440FC0DA
Copy CRC 440FC0DA
Track not present in AccurateRip database
Copy OK

Track 14

Filename D:\EAC\14 - See The Sky About To Rain.wav

Pre-gap length 0:00:02.18

Peak level 95.4 %
Track quality 100.0 %
Test CRC F0388EC1
Copy CRC F0388EC1
Track not present in AccurateRip database
Copy OK


None of the tracks are present in the AccurateRip database

No errors occurred

End of status report
____________________

Exact Audio Copy V0.99 prebeta 4 from 23. January 2008

EAC extraction logfile from 9. June 2009, 1:38

Neil Young / Archives Vol 1(Cd7-Live at Massey Hall 1971)

Used drive : TSSTcorpCD/DVDW TS-L632D Adapter: 0 ID: 1

Read mode : Secure
Utilize accurate stream : Yes
Defeat audio cache : Yes
Make use of C2 pointers : No

Read offset correction : 6
Overread into Lead-In and Lead-Out : No
Fill up missing offset samples with silence : Yes
Delete leading and trailing silent blocks : No
Null samples used in CRC calculations : Yes
Used interface : Native Win32 interface for Win NT & 2000
Gap handling : Appended to previous track

Used output format : User Defined Encoder
Selected bitrate : 128 kBit/s
Quality : High
Add ID3 tag : No
Command line compressor : C:\Program Files\FLAC\flac.exe
Additional command line options : -8 -V -T "ARTIST=%a" -T "TITLE=%t" -T "ALBUM=%g" -T "DATE=%y" -T "TRACKNUMBER=%n" -T "GENRE=%m" -T "COMMENT=%e" %s -o %d


TOC of the extracted CD

Track | Start | Length | Start sector | End sector
––––––––––––––––––––––––––––-
1 | 0:00.00 | 3:42.49 | 0 | 16698
2 | 3:42.49 | 2:29.04 | 16699 | 27877
3 | 6:11.53 | 4:57.04 | 27878 | 50156
4 | 11:08.57 | 4:15.53 | 50157 | 69334
5 | 15:24.35 | 4:16.00 | 69335 | 88534
6 | 19:40.35 | 2:47.45 | 88535 | 101104
7 | 22:28.05 | 6:39.00 | 101105 | 131029
8 | 29:07.05 | 3:45.67 | 131030 | 147971
9 | 32:52.72 | 2:46.22 | 147972 | 160443
10 | 35:39.19 | 3:33.64 | 160444 | 176482
11 | 39:13.08 | 3:27.15 | 176483 | 192022
12 | 42:40.23 | 3:55.09 | 192023 | 209656
13 | 46:35.32 | 3:40.02 | 209657 | 226158
14 | 50:15.34 | 4:05.21 | 226159 | 244554
15 | 54:20.55 | 4:08.64 | 244555 | 263218
16 | 58:29.44 | 5:48.68 | 263219 | 289386
17 | 64:18.37 | 3:19.24 | 289387 | 304335


Track 1

Filename D:\EAC\01 - On The Way Home.wav

Pre-gap length 0:00:02.00

Peak level 95.4 %
Track quality 100.0 %
Test CRC D375A2C2
Copy CRC D375A2C2
Track not present in AccurateRip database
Copy OK

Track 2

Filename D:\EAC\02 - Tell Me Why.wav

Peak level 93.3 %
Track quality 100.0 %
Test CRC A483E4E4
Copy CRC A483E4E4
Track not present in AccurateRip database
Copy OK

Track 3

Filename D:\EAC\03 - Old Man.wav

Peak level 94.2 %
Track quality 100.0 %
Test CRC 71F9EAFF
Copy CRC 71F9EAFF
Track not present in AccurateRip database
Copy OK

Track 4

Filename D:\EAC\04 - Journey Through The Past.wav

Peak level 95.3 %
Track quality 99.9 %
Test CRC C003A177
Copy CRC C003A177
Track not present in AccurateRip database
Copy OK

Track 5

Filename D:\EAC\05 - Helpless.wav

Peak level 97.0 %
Track quality 99.9 %
Test CRC AC789D64
Copy CRC AC789D64
Track not present in AccurateRip database
Copy OK

Track 6

Filename D:\EAC\06 - Love In Mind.wav

Peak level 95.0 %
Track quality 100.0 %
Test CRC 4B2EB8E4
Copy CRC 4B2EB8E4
Track not present in AccurateRip database
Copy OK

Track 7

Filename D:\EAC\07 - A Man Needs A Maid,Heart Of Gold [Suite].wav

Peak level 97.6 %
Track quality 100.0 %
Test CRC 760CEF21
Copy CRC 760CEF21
Track not present in AccurateRip database
Copy OK

Track 8

Filename D:\EAC\08 - Cowgirl In The Sand.wav

Peak level 96.8 %
Track quality 100.0 %
Test CRC F7C693C4
Copy CRC F7C693C4
Track not present in AccurateRip database
Copy OK

Track 9

Filename D:\EAC\09 - Don't Let It Bring You Down.wav

Peak level 94.4 %
Track quality 100.0 %
Test CRC 09DD3D27
Copy CRC 09DD3D27
Track not present in AccurateRip database
Copy OK

Track 10

Filename D:\EAC\10 - There's A World.wav

Peak level 93.9 %
Track quality 99.9 %
Test CRC BBA7A99D
Copy CRC BBA7A99D
Track not present in AccurateRip database
Copy OK

Track 11

Filename D:\EAC\11 - Bad Fog Of Loneliness.wav

Peak level 97.1 %
Track quality 99.9 %
Test CRC 1AC8F756
Copy CRC 1AC8F756
Track not present in AccurateRip database
Copy OK

Track 12

Filename D:\EAC\12 - The Needle And The Damage Done.wav

Peak level 92.0 %
Track quality 99.9 %
Test CRC 74ACEED5
Copy CRC 74ACEED5
Track not present in AccurateRip database
Copy OK

Track 13

Filename D:\EAC\13 - Ohio.wav

Peak level 95.2 %
Track quality 100.0 %
Test CRC FD7096AE
Copy CRC FD7096AE
Track not present in AccurateRip database
Copy OK

Track 14

Filename D:\EAC\14 - See The Sky About To Rain.wav

Peak level 95.9 %
Track quality 100.0 %
Test CRC 7AD30689
Copy CRC 7AD30689
Track not present in AccurateRip database
Copy OK

Track 15

Filename D:\EAC\15 - Down By The River.wav

Peak level 97.3 %
Track quality 100.0 %
Test CRC 4DB320CE
Copy CRC 4DB320CE
Track not present in AccurateRip database
Copy OK

Track 16

Filename D:\EAC\16 - Dance Dance Dance.wav

Peak level 97.6 %
Track quality 100.0 %
Test CRC 801510A8
Copy CRC 801510A8
Track not present in AccurateRip database
Copy OK

Track 17

Filename D:\EAC\17 - I Am A Child.wav

Peak level 94.8 %
Track quality 100.0 %
Test CRC BECB9F1D
Copy CRC BECB9F1D
Track not present in AccurateRip database
Copy OK


None of the tracks are present in the AccurateRip database

No errors occurred

End of status report
____________________

Exact Audio Copy V0.99 prebeta 4 from 23. January 2008

EAC extraction logfile from 9. June 2009, 12:08

Neil Young / Archives Vol 1(Cd8-North Country 1971-1972)

Used drive : TSSTcorpCD/DVDW TS-L632D Adapter: 0 ID: 1

Read mode : Secure
Utilize accurate stream : Yes
Defeat audio cache : Yes
Make use of C2 pointers : No

Read offset correction : 6
Overread into Lead-In and Lead-Out : No
Fill up missing offset samples with silence : Yes
Delete leading and trailing silent blocks : No
Null samples used in CRC calculations : Yes
Used interface : Native Win32 interface for Win NT & 2000
Gap handling : Appended to previous track

Used output format : User Defined Encoder
Selected bitrate : 128 kBit/s
Quality : High
Add ID3 tag : No
Command line compressor : C:\Program Files\FLAC\flac.exe
Additional command line options : -8 -V -T "ARTIST=%a" -T "TITLE=%t" -T "ALBUM=%g" -T "DATE=%y" -T "TRACKNUMBER=%n" -T "GENRE=%m" -T "COMMENT=%e" %s -o %d


TOC of the extracted CD

Track | Start | Length | Start sector | End sector
––––––––––––––––––––––––––––-
1 | 0:00.00 | 3:51.36 | 0 | 17360
2 | 3:51.36 | 2:13.00 | 17361 | 27335
3 | 6:04.36 | 1:57.68 | 27336 | 36178
4 | 8:02.29 | 3:25.07 | 36179 | 51560
5 | 11:27.36 | 3:10.65 | 51561 | 65875
6 | 14:38.26 | 2:17.10 | 65876 | 76160
7 | 16:55.36 | 4:13.06 | 76161 | 95141
8 | 21:08.42 | 3:11.57 | 95142 | 109523
9 | 24:20.24 | 2:23.43 | 109524 | 120291
10 | 26:43.67 | 3:25.03 | 120292 | 135669
11 | 30:08.70 | 4:06.34 | 135670 | 154153
12 | 34:15.29 | 15:55.38 | 154154 | 225816
13 | 50:10.67 | 3:24.61 | 225817 | 241177
14 | 53:35.53 | 3:29.02 | 241178 | 256854


Track 1

Filename D:\EAC\01 - Neil Young , Heart Of Gold.wav

Pre-gap length 0:00:02.00

Peak level 97.4 %
Track quality 100.0 %
Test CRC 733498E2
Copy CRC 733498E2
Track not present in AccurateRip database
Copy OK

Track 2

Filename D:\EAC\02 - Neil Young , The Needle And The Damage Done.wav

Pre-gap length 0:00:02.27

Peak level 97.1 %
Track quality 100.0 %
Test CRC AC1B88FA
Copy CRC AC1B88FA
Track not present in AccurateRip database
Copy OK

Track 3

Filename D:\EAC\03 - Neil Young , Bad Fog Of Loneliness.wav

Pre-gap length 0:00:02.19

Peak level 97.5 %
Track quality 99.9 %
Test CRC 31278FD7
Copy CRC 31278FD7
Track not present in AccurateRip database
Copy OK

Track 4

Filename D:\EAC\04 - Neil Young , Old Man.wav

Pre-gap length 0:00:02.04

Peak level 97.5 %
Track quality 100.0 %
Test CRC 37A949FB
Copy CRC 37A949FB
Track not present in AccurateRip database
Copy OK

Track 5

Filename D:\EAC\05 - Neil Young , Heart Of Gold.wav

Pre-gap length 0:00:02.19

Peak level 97.5 %
Track quality 100.0 %
Test CRC 169D685D
Copy CRC 169D685D
Track not present in AccurateRip database
Copy OK

Track 6

Filename D:\EAC\06 - Neil Young , Dance Dance Dance.wav

Pre-gap length 0:00:02.09

Peak level 96.7 %
Track quality 99.9 %
Test CRC 1F4744F9
Copy CRC 1F4744F9
Track not present in AccurateRip database
Copy OK

Track 7

Filename D:\EAC\07 - Neil Young , A Man Needs A Maid.wav

Pre-gap length 0:00:02.66

Peak level 97.6 %
Track quality 100.0 %
Test CRC 4268B9EE
Copy CRC 4268B9EE
Track not present in AccurateRip database
Copy OK

Track 8

Filename D:\EAC\08 - Neil Young , Harvest.wav

Pre-gap length 0:00:02.21

Peak level 89.4 %
Track quality 100.0 %
Test CRC 3735FD88
Copy CRC 3735FD88
Track not present in AccurateRip database
Copy OK

Track 9

Filename D:\EAC\09 - Neil Young , Journey Through The Past.wav

Pre-gap length 0:00:02.19

Peak level 96.9 %
Track quality 100.0 %
Test CRC 248240C6
Copy CRC 248240C6
Track not present in AccurateRip database
Copy OK

Track 10

Filename D:\EAC\10 - Neil Young , Are You Ready For The Country .wav

Pre-gap length 0:00:02.07

Peak level 97.9 %
Track quality 100.0 %
Test CRC CDE5C28E
Copy CRC CDE5C28E
Track not present in AccurateRip database
Copy OK

Track 11

Filename D:\EAC\11 - Neil Young , Alabama.wav

Pre-gap length 0:00:02.68

Peak level 94.1 %
Track quality 100.0 %
Test CRC 81613E32
Copy CRC 81613E32
Track not present in AccurateRip database
Copy OK

Track 12

Filename D:\EAC\12 - Neil Young , Words (Between The Lines Of Age).wav

Pre-gap length 0:00:03.25

Peak level 97.8 %
Track quality 100.0 %
Test CRC 0A9BE37E
Copy CRC 0A9BE37E
Track not present in AccurateRip database
Copy OK

Track 13

Filename D:\EAC\13 - Neil Young , Soldier.wav

Pre-gap length 0:00:02.42

Peak level 96.9 %
Track quality 100.0 %
Test CRC 8DD06C67
Copy CRC 8DD06C67
Track not present in AccurateRip database
Copy OK

Track 14

Filename D:\EAC\14 - Neil Young , War Song.wav

Pre-gap length 0:00:02.19

Peak level 97.9 %
Track quality 100.0 %
Test CRC 0D578819
Copy CRC 0D578819
Track not present in AccurateRip database
Copy OK


None of the tracks are present in the AccurateRip database

No errors occurred

End of status report

source: emule; Thx to the original uploader