Tags
Language
Tags

Neoton Familia - Marathon (1980) {1998, Remastered}

Posted By: popsakov
Neoton Familia - Marathon (1980) {1998, Remastered}

Neoton Familia - Marathon (1980) {1998, Remastered}
EAC Rip | FLAC (Img) + Cue + Log ~ 269 Mb | MP3 CBR320 ~ 101 Mb
Scans Included | 00:39:53 | RAR 5% Recovery
Disco, Pop | Gong #HCD 17637

Neoton Família (also known as Neoton in Spain, Newton in West Germany, Neoton Familie in East Germany and Newton Family in the rest of the world) was one of the most successful Hungarian pop-bands, their carrier spanning several decades, with changes in line-up. Most active from 1977 to 1989, they released albums and singles and toured in 25 foreign countries, including Germany, France, Spain, Netherlands, Italy, Brazil, Argentina, Mexico, Canada, Cuba, Japan, India, South Korea, also producing many of the best-known hits in the country. From 1979 to 1989 the band sold over 6 millions records in Hungary and about 1.5 millions records in other countries and takes on this indicator second place behind the famous band Omega.

***************

Neoton Familia - Marathon (1980) {1998, Remastered}

Neoton Familia - Marathon (1980) {1998, Remastered}

Track List:

01. Don Quijote [4:06]
02. Egy huszas eleg [3:37]
03. Marathon [5:27]
04. Korben-jaras [3:45]
05. Nezz ra [3:13]
06. A felugyelo [4:18]
07. Apam szolt [4:21]
08. Hova menjek [3:38]
09. Nehez ugy [3:33]
10. Te quiero [3:55]

Exact Audio Copy V1.3 from 2. September 2016

Отчёт EAC об извлечении, выполненном 17. июня 2017, 15:43

Neoton Família / Marathon

Дисковод: HL-DT-STDVDRAM GH20NS10 Adapter: 1 ID: 1

Режим чтения : Достоверность
Использование точного потока : Да
Отключение кэша аудио : Да
Использование указателей C2 : Нет

Коррекция смещения при чтении : 667
Способность читать области Lead-in и Lead-out : Нет
Заполнение пропущенных сэмплов тишиной : Да
Удаление блоков с тишиной в начале и конце : Нет
При вычислениях CRC использовались нулевые сэмплы : Да
Интерфейс : Встроенный Win32-интерфейс для Win NT/2000

Выходной формат : Внутренние WAV-операции
Формат сэмплов : 44.100 Гц; 16 бит; стерео


TOC извлечённого CD

Трек | Старт | Длительность | Начальный сектор | Конечный сектор
––––––––––––––––––––––––––––––––––-
1 | 0:00.00 | 4:06.04 | 0 | 18453
2 | 4:06.04 | 3:36.72 | 18454 | 34725
3 | 7:43.01 | 5:27.04 | 34726 | 59254
4 | 13:10.05 | 3:44.47 | 59255 | 76101
5 | 16:54.52 | 3:13.00 | 76102 | 90576
6 | 20:07.52 | 4:18.26 | 90577 | 109952
7 | 24:26.03 | 4:20.59 | 109953 | 129511
8 | 28:46.62 | 3:37.45 | 129512 | 145831
9 | 32:24.32 | 3:33.24 | 145832 | 161830
10 | 35:57.56 | 3:55.29 | 161831 | 179484


Характеристики диапазона извлечения и сообщения об ошибках

Выбранный диапазон

Имя файла D:\Музыка\Готовое для заливки\Neoton Familia - Marathon (1980) APE\Neoton Família - Marathon.wav

Пиковый уровень 100.0 %
Скорость извлечения 7.1 X
Качество диапазона 100.0 %
CRC теста BE66B610
CRC копии BE66B610
Копирование… OK

Ошибок не произошло


AccurateRip: сводка

Трек 1 : извлечено точно (доверие 3) [AF33294C] (AR v2)
Трек 2 : извлечено точно (доверие 3) [B472DEE9] (AR v2)
Трек 3 : извлечено точно (доверие 3) [3F1D47C2] (AR v2)
Трек 4 : извлечено точно (доверие 3) [399149DD] (AR v2)
Трек 5 : извлечено точно (доверие 3) [F888DF45] (AR v2)
Трек 6 : извлечено точно (доверие 3) [A75B8306] (AR v2)
Трек 7 : извлечено точно (доверие 3) [EFBCCD46] (AR v2)
Трек 8 : извлечено точно (доверие 3) [03DB620E] (AR v2)
Трек 9 : извлечено точно (доверие 3) [CAF25921] (AR v2)
Трек 10 : извлечено точно (доверие 3) [4E6E6955] (AR v2)

Все треки извлечены точно

Конец отчёта

–– CUETools DB Plugin V2.1.6

[CTDB TOCID: F7P0sx8Va2JbMQojYXir5sHDDtg-] found
Submit result: F7P0sx8Va2JbMQojYXir5sHDDtg- has been confirmed
Track | CTDB Status
1 | (9/9) Accurately ripped
2 | (9/9) Accurately ripped
3 | (9/9) Accurately ripped
4 | (9/9) Accurately ripped
5 | (9/9) Accurately ripped
6 | (9/9) Accurately ripped
7 | (9/9) Accurately ripped
8 | (9/9) Accurately ripped
9 | (9/9) Accurately ripped
10 | (9/9) Accurately ripped


==== Контрольная сумма отчёта 6F8A5ED76C5733E01283506EDCE107C8DCB7414C9B7AB6BE5614D632830624B3 ====

[CUETools log; Date: 22.06.2017 1:58:45; Version: 2.1.5]
[CTDB TOCID: F7P0sx8Va2JbMQojYXir5sHDDtg-] found.
Track | CTDB Status
1 | (10/10) Accurately ripped
2 | (10/10) Accurately ripped
3 | (10/10) Accurately ripped
4 | (10/10) Accurately ripped
5 | (10/10) Accurately ripped
6 | (10/10) Accurately ripped
7 | (10/10) Accurately ripped
8 | (10/10) Accurately ripped
9 | (10/10) Accurately ripped
10 | (10/10) Accurately ripped
[AccurateRip ID: 000f589f-007a44b3-8f09590a] found.
Track [ CRC | V2 ] Status
01 [b1059831|af33294c] (2+3/5) Accurately ripped
02 [fe938244|b472dee9] (2+3/5) Accurately ripped
03 [f9da73e0|3f1d47c2] (2+3/5) Accurately ripped
04 [26507070|399149dd] (2+3/5) Accurately ripped
05 [1fd6c593|f888df45] (2+3/5) Accurately ripped
06 [ae93841c|a75b8306] (2+3/5) Accurately ripped
07 [aac3f92c|efbccd46] (2+3/5) Accurately ripped
08 [b26df488|03db620e] (2+3/5) Accurately ripped
09 [cf434293|caf25921] (2+3/5) Accurately ripped
10 [9f32ebcc|4e6e6955] (0+3/3) Accurately ripped

Track Peak [ CRC32 ] [W/O NULL] [ LOG ]
– 100,0 [BE66B610] [33A9B9F7] CRC32
01 100,0 [11D45C88] [B17E3A7E]
02 100,0 [1C421082] [ECC23B41]
03 100,0 [3FAB416D] [95DC25D6]
04 100,0 [5C186D83] [E1BDD79E]
05 87,9 [8BF7297C] [DB5DD810]
06 100,0 [428FB6CF] [4D4A7072]
07 100,0 [6C98CA15] [64E5178F]
08 100,0 [ADE7274D] [0E2D13DB]
09 100,0 [40C43B87] [3313DECE]
10 100,0 [794AAD0F] [0E326E52]

Neoton Familia - Marathon (1980) {1998, Remastered}


All thanks go to SWAT

>>> My Blog <<<

DOWNLOAD: