Subcategories

Julia Michaels - Nervous System EP (2017)

Posted By: SERTiL
Julia Michaels - Nervous System EP (2017)

Julia Michaels - Nervous System EP
EAC Rip | FLAC (tracks)+cue, log, front cover | 21:55 min | 131 MB
Label: Republic Records – 6704516 | Tracks: 07 | Rls.date: 2017
Pop, Singer-songwriter

FIRST TIME RELEASED ON CD !!!! Nervous System arrives as her ARIA triple platinum-certified debut single "Issues" continues breaking records. "Issues" remains the best-selling song by a new artist released in 2017, according to Nielsen Music. It is also the highest on-demand audio streaming song by a new artist released this year, and the first song to reach the Top 5 at Top 40 radio by a debut artist with a 2017 release. What's more, the song has now surpassed 5 million in worldwide consumption.

Tracklist:
1. Issues
2. Uh Huh
3. Worst In Me
4. Make It Up To You
5. Just Do It
6. Pink
7. Don't Wanna Think

Exact Audio Copy V1.3 from 2. September 2016

EAC extraction logfile from 14. November 2017, 19:21

Julia Michaels / Nervous System

Used drive : ATAPI iHBS312 2 Adapter: 1 ID: 1

Read mode : Secure
Utilize accurate stream : Yes
Defeat audio cache : Yes
Make use of C2 pointers : No

Read offset correction : 6
Overread into Lead-In and Lead-Out : No
Fill up missing offset samples with silence : Yes
Delete leading and trailing silent blocks : No
Null samples used in CRC calculations : Yes
Used interface : Native Win32 interface for Win NT & 2000
Gap handling : Appended to previous track

Used output format : User Defined Encoder
Selected bitrate : 896 kBit/s
Quality : High
Add ID3 tag : No
Command line compressor : C:\Windows\System32\cmd.exe
Additional command line options : /K eac4.cmd %source% "%albumartist%" "%albumtitle%" %year% %tracknr% %numtracks% "%title%" "%artist%" "%genre%" %cdnumber% %totalcds% "%comment%"


TOC of the extracted CD

Track | Start | Length | Start sector | End sector
––––––––––––––––––––––––––––-
1 | 0:00.00 | 2:56.24 | 0 | 13223
2 | 2:56.24 | 2:58.73 | 13224 | 26646
3 | 5:55.22 | 3:26.54 | 26647 | 42150
4 | 9:22.01 | 3:36.34 | 42151 | 58384
5 | 12:58.35 | 3:12.34 | 58385 | 72818
6 | 16:10.69 | 2:48.08 | 72819 | 85426
7 | 18:59.02 | 2:59.42 | 85427 | 98893


Track 1

Filename T:\EACtmp\01 - Issues.wav

Pre-gap length 0:00:02.00

Peak level 99.8 %
Extraction speed 4.8 X
Track quality 100.0 %
Test CRC 342A72C8
Copy CRC 342A72C8
Track not present in AccurateRip database
Copy OK

Track 2

Filename T:\EACtmp\02 - Uh Huh.wav

Peak level 99.8 %
Extraction speed 4.2 X
Track quality 99.9 %
Test CRC F8527AE1
Copy CRC F8527AE1
Track not present in AccurateRip database
Copy OK

Track 3

Filename T:\EACtmp\03 - Worst in Me.wav

Peak level 99.8 %
Extraction speed 5.7 X
Track quality 100.0 %
Test CRC B3604859
Copy CRC B3604859
Track not present in AccurateRip database
Copy OK

Track 4

Filename T:\EACtmp\04 - Make it Up to You.wav

Peak level 99.8 %
Extraction speed 5.1 X
Track quality 99.9 %
Test CRC BA19FC70
Copy CRC BA19FC70
Track not present in AccurateRip database
Copy OK

Track 5

Filename T:\EACtmp\05 - Just Do It.wav

Peak level 99.8 %
Extraction speed 6.2 X
Track quality 100.0 %
Test CRC DB298256
Copy CRC DB298256
Track not present in AccurateRip database
Copy OK

Track 6

Filename T:\EACtmp\06 - Pink.wav

Peak level 99.8 %
Extraction speed 6.6 X
Track quality 100.0 %
Test CRC 99AB98C2
Copy CRC 99AB98C2
Track not present in AccurateRip database
Copy OK

Track 7

Filename T:\EACtmp\07 - Don't Wanna Think.wav

Peak level 99.8 %
Extraction speed 6.8 X
Track quality 100.0 %
Test CRC CA4A7234
Copy CRC CA4A7234
Track not present in AccurateRip database
Copy OK


None of the tracks are present in the AccurateRip database

No errors occurred

End of status report

–– CUETools DB Plugin V2.1.6

[CTDB TOCID: fOQ.Nq1QFwjkXjO_XIiEnPAgliw-] database access error: The operation has timed out


==== Log checksum FDE973B45ED4BACBF1A49741DFB45585A383DF71E7CC224D056C614B57983EE5 ====


Thanks to the Original customer.