Netherlands Chamber Orchestra, David Zinman - J.C. Bach: Complete Symphonies Opp. 6, 9, 18 (2011) (Repost)

Posted By: tirexiss
Netherlands Chamber Orchestra, David Zinman - J.C. Bach: Complete Symphonies Opp. 6, 9, 18 (2011) (Repost)

Netherlands Chamber Orchestra, David Zinman - J.C. Bach: Complete Symphonies Opp. 6, 9, 18 (2011)
EAC | FLAC (image+.cue, log) | Covers Included | 145:39 | 768 MB
Genre: Classical | Label: Newton Classics | Catalog: 8802065

Youngest son of J.S. Bach, Johann Christian Bach rose to prominence in England during the early Classical period much the same as his father dominated the German Baroque. His writing was influenced by his father, of course, but also by the fashions being explored by Haydn. J.C. Bach also served as a bridge to Mozart, whose work and early writings were also influenced by the junior Bach. A total of 15, three-movement symphonies were published under Opp. 6, 9, and 18. These works are filled with fresh, energetic optimism, the only exception being the stormy, tumultuous Symphony Op. 6/6 in G minor, the only one of the 15 to be written in the minor mode. Bach's choice of instruments varied, from symphonies using only strings to the addition of winds and ultimately to the grand "double orchestra" employed in Op. 18. This Newton disc is a two-disc reissue of David Zinman's early 1970s recordings of the complete symphonies with the Netherlands Chamber Orchestra. The playing is sublimely well-balanced; every note from every instrument is impeccably clear. Zinman's vision for the symphonies is highly energetic, driven, and vivacious. The inner movements are executed with the utmost delicacy and refinement while the fast outer movements are tossed off controlled effervescence. Newton's remastered sound is full and detailed, capturing the spirit in the original performances.

Netherlands Chamber Orchestra, David Zinman - J.C. Bach: Complete Symphonies Opp. 6, 9, 18 (2011) (Repost)

Track List:

Johann Christian Bach (1735-1782)

CD 1:

[1]-[3] Symphony in G major, Op.6 No.1
[4]-[6] Symphony in D major, Op.6 No.2
[7]-[9] Symphony in E flat major, Op.6 No.3
[10]-[12] Symphony in B flat major, Op.6 No.4
[13]-[15] Symphony in E flat major, Op.6 No.5
[16]-[18] Symphony in G minor, Op.6 No.6
[19]-[21] Symphony in B flat major, Op.18 No.2
[22]-[24] Symphony in D major, Op.18 No.4
[25]-[27] Symphony in D major, Op.18 No.6

Exact Audio Copy V1.0 beta 3 from 29. August 2011

EAC extraction logfile from 15. October 2013, 16:25

Netherlands Chamber Orchestra, David Zinman / J.C. Bach - 15 Symphonies - CD1

Used drive : HL-DT-STDVDRRW GWA-4164B Adapter: 5 ID: 0

Read mode : Secure
Utilize accurate stream : Yes
Defeat audio cache : Yes
Make use of C2 pointers : No

Read offset correction : 102
Overread into Lead-In and Lead-Out : No
Fill up missing offset samples with silence : Yes
Delete leading and trailing silent blocks : No
Null samples used in CRC calculations : Yes
Used interface : Native Win32 interface for Win NT & 2000

Used output format : User Defined Encoder
Selected bitrate : 896 kBit/s
Quality : High
Add ID3 tag : No
Command line compressor : C:\Program Files\Exact Audio Copy\FLAC\FLAC.EXE
Additional command line options : -V -8 %source%


TOC of the extracted CD

Track | Start | Length | Start sector | End sector
––––––––––––––––––––––––––––-
1 | 0:00.00 | 4:00.00 | 0 | 17999
2 | 4:00.00 | 2:25.00 | 18000 | 28874
3 | 6:25.00 | 1:44.00 | 28875 | 36674
4 | 8:09.00 | 4:00.00 | 36675 | 54674
5 | 12:09.00 | 2:49.00 | 54675 | 67349
6 | 14:58.00 | 1:26.00 | 67350 | 73799
7 | 16:24.00 | 2:47.00 | 73800 | 86324
8 | 19:11.00 | 2:20.00 | 86325 | 96824
9 | 21:31.00 | 1:58.00 | 96825 | 105674
10 | 23:29.00 | 3:06.00 | 105675 | 119624
11 | 26:35.00 | 1:51.00 | 119625 | 127949
12 | 28:26.00 | 1:18.00 | 127950 | 133799
13 | 29:44.00 | 3:18.00 | 133800 | 148649
14 | 33:02.00 | 3:07.00 | 148650 | 162674
15 | 36:09.00 | 1:33.00 | 162675 | 169649
16 | 37:42.00 | 3:02.00 | 169650 | 183299
17 | 40:44.00 | 3:52.00 | 183300 | 200699
18 | 44:36.00 | 2:21.00 | 200700 | 211274
19 | 46:57.00 | 3:06.00 | 211275 | 225224
20 | 50:03.00 | 3:55.00 | 225225 | 242849
21 | 53:58.00 | 1:53.00 | 242850 | 251324
22 | 55:51.00 | 4:00.00 | 251325 | 269324
23 | 59:51.00 | 3:39.00 | 269325 | 285749
24 | 63:30.00 | 2:37.00 | 285750 | 297524
25 | 66:07.00 | 3:34.00 | 297525 | 313574
26 | 69:41.00 | 2:53.00 | 313575 | 326549
27 | 72:34.00 | 2:22.00 | 326550 | 337199


Range status and errors

Selected range

Filename C:\temp\J.C. Bach - 15 Symphonies (Netherlands Chamber Orchestra, Zinman)\J.C. Bach - 15 Symphonies - CD1.wav

Peak level 99.8 %
Extraction speed 3.9 X
Range quality 100.0 %
Test CRC AD2AE62A
Copy CRC AD2AE62A
Copy OK

No errors occurred


AccurateRip summary

Track 1 accurately ripped (confidence 4) [AA2860AB] (AR v2)
Track 2 accurately ripped (confidence 4) [102E4D4B] (AR v2)
Track 3 accurately ripped (confidence 4) [C4123636] (AR v2)
Track 4 accurately ripped (confidence 4) [B83ADF7D] (AR v2)
Track 5 accurately ripped (confidence 4) [F688A012] (AR v2)
Track 6 accurately ripped (confidence 4) [EC974140] (AR v2)
Track 7 accurately ripped (confidence 4) [7495C58E] (AR v2)
Track 8 accurately ripped (confidence 4) [DD45716B] (AR v2)
Track 9 accurately ripped (confidence 4) [3AD413D0] (AR v2)
Track 10 accurately ripped (confidence 4) [F7BD3A92] (AR v2)
Track 11 accurately ripped (confidence 4) [DE7DA21C] (AR v2)
Track 12 accurately ripped (confidence 4) [78914CBF] (AR v2)
Track 13 accurately ripped (confidence 4) [CB3D21F1] (AR v2)
Track 14 accurately ripped (confidence 4) [00845F8C] (AR v2)
Track 15 accurately ripped (confidence 4) [02D99F1C] (AR v2)
Track 16 accurately ripped (confidence 4) [C696B5B9] (AR v2)
Track 17 accurately ripped (confidence 4) [AB98516F] (AR v2)
Track 18 accurately ripped (confidence 4) [8F8150D5] (AR v2)
Track 19 accurately ripped (confidence 4) [FDE621B0] (AR v2)
Track 20 accurately ripped (confidence 4) [2428CC03] (AR v2)
Track 21 accurately ripped (confidence 4) [A2F7B68C] (AR v2)
Track 22 accurately ripped (confidence 5) [04B6E278] (AR v2)
Track 23 accurately ripped (confidence 5) [E4557BFB] (AR v2)
Track 24 accurately ripped (confidence 5) [A6D5896C] (AR v2)
Track 25 accurately ripped (confidence 4) [85B03706] (AR v2)
Track 26 accurately ripped (confidence 4) [5FC16997] (AR v2)
Track 27 accurately ripped (confidence 1) [F238EEFC] (AR v2)

All tracks accurately ripped

End of status report

==== Log checksum 1BF900A1BE0F357F681B97B6E8E7EF7387E8DD6451DF2042E310126F0E9566A8 ====

[CUETools log; Date: 16.08.2017 21:35:27; Version: 2.1.5]
[CTDB TOCID: C43HnQQBf_7a6x4ntjoz97ruzRo-] found.
Track | CTDB Status
1 | ( 9/15) Accurately ripped
2 | ( 9/15) Accurately ripped
3 | ( 9/15) Accurately ripped
4 | ( 9/15) Accurately ripped
5 | ( 9/15) Accurately ripped
6 | ( 9/15) Accurately ripped
7 | ( 9/15) Accurately ripped
8 | ( 9/15) Accurately ripped
9 | ( 9/15) Accurately ripped
10 | ( 9/15) Accurately ripped
11 | (15/15) Accurately ripped
12 | ( 9/15) Accurately ripped
13 | ( 9/15) Accurately ripped
14 | ( 9/15) Accurately ripped
15 | ( 9/15) Accurately ripped
16 | ( 9/15) Accurately ripped
17 | ( 9/15) Accurately ripped
18 | ( 9/15) Accurately ripped
19 | ( 9/15) Accurately ripped
20 | (15/15) Accurately ripped
21 | ( 9/15) Accurately ripped
22 | ( 9/15) Accurately ripped
23 | (15/15) Accurately ripped
24 | ( 9/15) Accurately ripped
25 | ( 9/15) Accurately ripped
26 | (14/15) Accurately ripped, or (1/15) differs in 65 samples @00:05:29-00:05:30
27 | (12/15) Accurately ripped, or (1/15) differs in 267 samples @00:14:53-00:14:54,00:31:69-00:31:70,01:07:22,01:18:68-01:18:69
[AccurateRip ID: 0045cfae-05494135-9a11901b] found.
Track [ CRC | V2 ] Status
01 [1731ceae|aa2860ab] (0+5/7) Accurately ripped
02 [9da87238|102e4d4b] (0+5/7) Accurately ripped
03 [6546c996|c4123636] (0+5/7) Accurately ripped
04 [6c8a28d6|b83adf7d] (0+5/7) Accurately ripped
05 [5740873e|f688a012] (0+5/7) Accurately ripped
06 [47b4152b|ec974140] (0+5/7) Accurately ripped
07 [f732dd4e|7495c58e] (0+5/7) Accurately ripped
08 [912f9910|dd45716b] (0+5/7) Accurately ripped
09 [6866c333|3ad413d0] (0+5/7) Accurately ripped
10 [4c3a6001|f7bd3a92] (0+5/7) Accurately ripped
11 [507bc10f|de7da21c] (0+5/7) Accurately ripped
12 [4ea32f4c|78914cbf] (0+5/7) Accurately ripped
13 [dbeb4ff6|cb3d21f1] (0+5/7) Accurately ripped
14 [f18794b4|00845f8c] (0+5/7) Accurately ripped
15 [58d23666|02d99f1c] (0+5/7) Accurately ripped
16 [f42cea82|c696b5b9] (0+5/7) Accurately ripped
17 [de1f32f1|ab98516f] (0+5/7) Accurately ripped
18 [20f7f1ea|8f8150d5] (0+5/7) Accurately ripped
19 [3b4b1dc2|fde621b0] (0+5/7) Accurately ripped
20 [86c2408a|2428cc03] (0+5/7) Accurately ripped
21 [e983489c|a2f7b68c] (0+5/7) Accurately ripped
22 [4d768fbd|04b6e278] (0+6/8) Accurately ripped
23 [cbbbaad1|e4557bfb] (0+6/8) Accurately ripped
24 [ec8245f5|a6d5896c] (0+6/8) Accurately ripped
25 [97f9cbb7|85b03706] (0+5/7) Accurately ripped
26 [dbf52a5e|5fc16997] (0+5/5) Accurately ripped
27 [f22b11fc|f238eefc] (0+0/2) No match

Track Peak [ CRC32 ] [W/O NULL] [ LOG ]
– 99,8 [AD2AE62A] [B3A9367D] CRC32
01 94,0 [40EDACE6] [D75DBDA7]
02 27,8 [B333618F] [C4624BF4]
03 70,9 [3D785E34] [28FCB893]
04 89,4 [7D9115D9] [EC9A60F1]
05 53,6 [8C309AD8] [9819E640]
06 65,2 [638E0D01] [9995BED6]
07 89,4 [F93BEB1C] [E87F4013]
08 31,3 [C1311682] [802B4B7C]
09 66,7 [FC33F258] [B1874817]
10 90,0 [4490AC1A] [FE686FB4]
11 36,7 [61C730FF] [0AC903CD]
12 86,1 [A92122CF] [298D2D5E]
13 80,0 [2099C65D] [9AA0BCA3]
14 54,1 [6945CC79] [71628A7E]
15 85,1 [B56AAE84] [C523C1B3]
16 71,2 [27F74B92] [F4B1B75E]
17 33,8 [F2965408] [98240373]
18 68,8 [F3774A7F] [C789AB3B]
19 57,3 [5E013F4D] [7D88B42D]
20 32,5 [955CD626] [6C1FA452]
21 54,9 [D2D020F0] [E39043F6]
22 99,8 [72611143] [AF8BF041]
23 41,0 [ABB31BCC] [D5422847]
24 85,4 [75E512B4] [694A027A]
25 79,2 [40B743AA] [FA43D6E4]
26 37,3 [FB6B175F] [6788906C]
27 66,9 [0E242468] [2584001B]

CD 2:
[1]-[3] Symphony in E flat major, Op.18 No.1
[4]-[6] Symphony in D major, Op.18 No.3
[7]-[9] Symphony in E major, Op.18 No.5
[10]-[12] Symphony in B flat major, Op.9 No.1
[13]-[15] Symphony in E flat major, Op.9 No.2
[16]-[18] Symphony in B flat major, Op.9 No.3
[19] Overture in D major: La calamità

Exact Audio Copy V1.0 beta 3 from 29. August 2011

EAC extraction logfile from 15. October 2013, 17:30

Netherlands Chamber Orchestra, David Zinman / J.C. Bach - 15 Symphonies - CD2

Used drive : HL-DT-STDVDRRW GWA-4164B Adapter: 5 ID: 0

Read mode : Secure
Utilize accurate stream : Yes
Defeat audio cache : Yes
Make use of C2 pointers : No

Read offset correction : 102
Overread into Lead-In and Lead-Out : No
Fill up missing offset samples with silence : Yes
Delete leading and trailing silent blocks : No
Null samples used in CRC calculations : Yes
Used interface : Native Win32 interface for Win NT & 2000

Used output format : User Defined Encoder
Selected bitrate : 896 kBit/s
Quality : High
Add ID3 tag : No
Command line compressor : C:\Program Files\Exact Audio Copy\FLAC\FLAC.EXE
Additional command line options : -V -8 %source%


TOC of the extracted CD

Track | Start | Length | Start sector | End sector
––––––––––––––––––––––––––––-
1 | 0:00.00 | 4:28.00 | 0 | 20099
2 | 4:28.00 | 4:54.32 | 20100 | 42181
3 | 9:22.32 | 2:07.43 | 42182 | 51749
4 | 11:30.00 | 4:15.00 | 51750 | 70874
5 | 15:45.00 | 4:59.00 | 70875 | 93299
6 | 20:44.00 | 2:49.00 | 93300 | 105974
7 | 23:33.00 | 5:48.00 | 105975 | 132074
8 | 29:21.00 | 4:16.00 | 132075 | 151274
9 | 33:37.00 | 5:24.00 | 151275 | 175574
10 | 39:01.00 | 4:00.00 | 175575 | 193574
11 | 43:01.00 | 2:31.00 | 193575 | 204899
12 | 45:32.00 | 2:53.00 | 204900 | 217874
13 | 48:25.00 | 4:58.00 | 217875 | 240224
14 | 53:23.00 | 3:39.00 | 240225 | 256649
15 | 57:02.00 | 3:47.00 | 256650 | 273674
16 | 60:49.00 | 2:36.00 | 273675 | 285374
17 | 63:25.00 | 1:50.50 | 285375 | 293674
18 | 65:15.50 | 1:06.25 | 293675 | 298649
19 | 66:22.00 | 4:40.00 | 298650 | 319649


Range status and errors

Selected range

Filename C:\temp\J.C. Bach - 15 Symphonies (Netherlands Chamber Orchestra, Zinman)\J.C. Bach - 15 Symphonies - CD2.wav

Peak level 97.1 %
Extraction speed 2.8 X
Range quality 100.0 %
Test CRC B0446064
Copy CRC B0446064
Copy OK

No errors occurred


AccurateRip summary

Track 1 accurately ripped (confidence 4) [A2CCD301] (AR v2)
Track 2 accurately ripped (confidence 4) [DFAF2B3B] (AR v2)
Track 3 accurately ripped (confidence 4) [0A3C2BD9] (AR v2)
Track 4 accurately ripped (confidence 4) [A3F350E3] (AR v2)
Track 5 accurately ripped (confidence 4) [FFAE84A2] (AR v2)
Track 6 accurately ripped (confidence 4) [CE7BCF3E] (AR v2)
Track 7 accurately ripped (confidence 4) [FA8C5736] (AR v2)
Track 8 accurately ripped (confidence 4) [E101C7E4] (AR v2)
Track 9 accurately ripped (confidence 4) [F79D296C] (AR v2)
Track 10 accurately ripped (confidence 4) [3288A133] (AR v2)
Track 11 accurately ripped (confidence 4) [C454B0CE] (AR v2)
Track 12 accurately ripped (confidence 4) [9B738B70] (AR v2)
Track 13 accurately ripped (confidence 4) [E2CED8DB] (AR v2)
Track 14 accurately ripped (confidence 4) [3E9A91DC] (AR v2)
Track 15 accurately ripped (confidence 4) [49F88A6F] (AR v2)
Track 16 accurately ripped (confidence 4) [58E8632E] (AR v2)
Track 17 accurately ripped (confidence 4) [C0F716AB] (AR v2)
Track 18 accurately ripped (confidence 4) [0E6F8153] (AR v2)
Track 19 accurately ripped (confidence 4) [AEB3B137] (AR v2)

All tracks accurately ripped

End of status report

==== Log checksum B82C597A77DEA9CD7329B824C287A6AA990B5D8DB435633FD202FB772CCEFF2A ====

[CUETools log; Date: 16.08.2017 21:36:42; Version: 2.1.5]
[CTDB TOCID: DNekmuBTClWgEDusgVYeyAMz5JI-] found.
Track | CTDB Status
1 | ( 9/16) Accurately ripped
2 | ( 9/16) Accurately ripped
3 | ( 9/16) Accurately ripped
4 | ( 9/16) Accurately ripped
5 | ( 9/16) Accurately ripped
6 | ( 9/16) Accurately ripped
7 | ( 9/16) Accurately ripped
8 | ( 9/16) Accurately ripped
9 | ( 9/16) Accurately ripped
10 | ( 9/16) Accurately ripped
11 | ( 9/16) Accurately ripped
12 | ( 9/16) Accurately ripped
13 | ( 9/16) Accurately ripped
14 | ( 8/16) Accurately ripped
15 | ( 9/16) Accurately ripped
16 | ( 9/16) Accurately ripped
17 | ( 9/16) Accurately ripped
18 | ( 9/16) Accurately ripped
19 | ( 9/16) Accurately ripped
[AccurateRip ID: 00344c1d-02d394e7-1910a613] found.
Track [ CRC | V2 ] Status
01 [8918077f|a2ccd301] (0+5/7) Accurately ripped
02 [aa7e2610|dfaf2b3b] (0+5/7) Accurately ripped
03 [2f06d6f1|0a3c2bd9] (0+5/7) Accurately ripped
04 [fa949810|a3f350e3] (0+5/7) Accurately ripped
05 [28fb282a|ffae84a2] (0+5/7) Accurately ripped
06 [e59ff46a|ce7bcf3e] (0+5/7) Accurately ripped
07 [c556e28a|fa8c5736] (0+5/7) Accurately ripped
08 [4f29d147|e101c7e4] (0+5/7) Accurately ripped
09 [6fa54204|f79d296c] (0+5/7) Accurately ripped
10 [d3c95cac|3288a133] (0+5/7) Accurately ripped
11 [99d84285|c454b0ce] (0+5/7) Accurately ripped
12 [2fce5cb3|9b738b70] (0+5/7) Accurately ripped
13 [a1a84840|e2ced8db] (0+5/7) Accurately ripped
14 [936c779d|3e9a91dc] (0+5/7) Accurately ripped
15 [850b656f|49f88a6f] (0+5/7) Accurately ripped
16 [b61a84d4|58e8632e] (0+5/7) Accurately ripped
17 [e37ee17a|c0f716ab] (0+5/7) Accurately ripped
18 [6dc46ae2|0e6f8153] (0+5/7) Accurately ripped
19 [93f5b07b|aeb3b137] (0+5/7) Accurately ripped

Track Peak [ CRC32 ] [W/O NULL] [ LOG ]
– 97,1 [B0446064] [53185160] CRC32
01 72,4 [55BC9D80] [D6BA5DB9]
02 40,9 [4C227218] [D97B7680]
03 73,9 [8B30FCDF] [048A3221]
04 89,4 [9CD443DB] [FF90C61D]
05 54,4 [5AAC3744] [0A15EC20]
06 86,8 [F81EE571] [69D19C7A]
07 77,1 [C16C2AE9] [2B48978F]
08 52,1 [6C33A7D8] [E67CE457]
09 67,5 [F49BDEE1] [0517C741]
10 92,5 [35AF28A6] [095980D3]
11 40,5 [A276D054] [A1B9EBE2]
12 65,4 [B82917C3] [C70CE701]
13 93,2 [B5F18A85] [213A3E35]
14 87,9 [F0F964BF] [2C6B2FF7]
15 59,9 [3104136A] [EB686D54]
16 79,1 [A5D5BD80] [04A5C814]
17 56,3 [F73B8D3D] [5C2A4163]
18 68,3 [9B1E5419] [FE3BA463]
19 97,1 [769BBC36] [3739BE0A]

Performers:
Netherlands Chamber Orchestra
David Zinman, conductor

Thanks to the Original ripper A-Z!

Download: