Subcategories

Paul Oakenfold: Never Mind the Bollocks... Here's Paul Oakenfold (2011) Re-up

Posted By: v3122
Paul Oakenfold: Never Mind the Bollocks... Here's Paul Oakenfold (2011) Re-up

Paul Oakenfold: Never Mind the Bollocks… Here's Paul Oakenfold (2011)
2CD | Trance, House, Dance | EAC Rip | Flac(Image) + Cue + Log & MP3 CBR 320Kbps
Reflecto/Perfect Music, PM 1022 | ~ 1175 or 417 Mb
Scans (JPG) -> 20 Mb

Paul Oakenfold has always been a DJ who has refused to give himself exclusively to one genre. Throughout his career his sets have always been musically varied but consistently melodic and energetic.

This variety and adaptability have led to an equally varied spectrum of live shows – from warming up for U2 and Madonna on worldwide arena tours through to sunrise sets at underground Psy raves – Paul Oakenfold’s ability to rock any crowd is unique.

In Paul’s own words….
Paul:”I’ve always played a variety of records from across the board. I like melodic music with energy and punch. I can’t think of anything more claustrophobic than being stuck playing one sound.”
During the 90’s Paul was at the forefront of the Goa sound with his Perfecto Fluoro label and associated artists. Today, with a vibrant new line up of producers from different genre backgrounds, Perfecto Fluoro has re-launched with a fresh sound – encompassing different styles but with a common vibe and attitude that stays true to the ethics of the label’s output during its first life.

Never mind The Bollocks is a showcase of Paul Oakenfold’s ‘Full on Fluoro’ sound that he has been playing at a number of his gigs over the last 8 months. As with his live sets – on Nevermind the Bollocks Paul has aimed to set aside any restrictions or rules about sourcing of material as well as any pressures to conform with one sound over another. As well as officially announcing Paul’s rekindled love of all things Goa – Nevermind the Bollocks also gives an authoritative exposé of the new sounds emanating from Paul’s labels right now, with no less than 13 tracks included from Perfecto and Perfecto Fluoro.

Paul: “Jonas Hornblad made me a great new version of Grace ‘Not Over Yet’ which I love and there’s a strong vocal track from Senadee called ‘Life Support Machine’ which is coming out on Perfecto. Those are on the first CD and then with the Perfecto Fluoro material I selected I wanted to have a mixture of new tracks from our latest signings like Beatman & Ludmilla and Federation with some new remixes of big tunes from the back catalogue. I took my 3 favourite Man with No Name singles from back in the day, ‘Sugar Rush’, ‘Teleport’ and ‘Floor Essence’, and had them remixed by some of the exciting producers currently linked to the label – HAARP, Nick Sentience and Apogee. I was also really pleased to get some killer exclusive tracks for the album including a couple of rocking Fluoro tracks from Tom Colontonio and Jamie Harrison.”

As well as displaying the skills of an array of new producers linked to Perfecto Fluoro – Nevermind the Bollocks hosts several Paul Oakenfold Productions including his latest single ‘Tokyo’, which has now enjoyed one month at the top of the Beatport Breaks Chart courtesy of a killer remix from Perfecto Fluoro’s Beatman & Ludmilla. Other highlights include Paul’s collaboration with Marco V titled ‘Groove Machine’ (out on Perfecto Records 27th June), his track with Infected Mushroom called ‘I’m Alive’ and his forthcoming single on Perfecto Fluoro ‘Full Moon Party’ which will be out at the end of the summer.

Nevermind the Bollocks…..here’s Paul Oakenfold…. is a straight up two fingered salute to all industry politics, a complete focus of all energies on the music and nothing else.

Nevermind the Bollocks is 41 energetic tracks – each meticulously chosen by Paul from an unrestricted array of sources with no regard for release date, artist name, label or genre.

by Remco, trancepodium

––––––––

Пол собрал силы и выдал релиз весьма ударной мощи. Он демонстрирует тот самый «Full on Fluoro» саунд, который можно было услышать на его выступлениях в течение последних восьми месяцев. Как и на лайв-сетах, Пол старался выделить всевозможные фишки и примочки – а их в обоих случае всегда было предостаточно. Не менее 13 треков включены в релиз с Perfecto и Perfecto Fluoro – всего же их 41. Здесь есть версия трека Грейс Not Over Yet от Jonas Hornblad, (оригинал был особенно любим Полом), здесь же сильный вокальный трек от Senadee под названием Life Support Machine, новые треки с вокалами Beatman & Ludmilla (не русская ли?), три сингла от Man with No Name в ремиксах продюсеров HAARP, Nick Sentience и Apogee, совершенно убойные треки от Tom Colontonio и Jamie Harrison, собственный сингл Оакенфольда Tokyo, совместная работа Пола и Marco V под названием Groove Machine (был презентован Perfecto Records 27 июня), а также коллаборация с Infected Mushroom под названием I’m Alive и новинка Perfecto Fluoro «Full Moon Party». Все это многообразие вместе с остальной массой собрано под одной обложкой - Nevermind the Bollocks… Не сказать, что сэр Пол превзошел самого себя, но приобрести релиз однозначно следует – хотя бы из любопытства, посмотреть, какого качества порох в тех самых пресловутых пороховницах.

~ yakaboo
Paul Oakenfold: Never Mind the Bollocks… Here's Paul Oakenfold (2011):

Paul Oakenfold: Never Mind the Bollocks... Here's Paul Oakenfold (2011) Re-up

Tracklist CD1:

01. Rocky & NOK - Green Sector (Neelix Remix)
02. Zyce - Basic
03. Liquid Soul - Adrenaline
04. Earsugar & Doube Click - Beat It
05. DJ Danila - Let The Music (Belocca Remix)
06. Ivan Nikusev & Wav-E - Aurora (Airwave Breaks Remix)
07. The Doppler Effect - Beauty Hides In The Deep (Ronski Speed Remix)
08. Paul Oakenfold & Marco V - Groove Machine
09. Neelix - Expect What
10. Cold Blue - Lucidity
11. Paul Oakenfold feat. Infected Mushroom - I’m Alive
12. Magnus - Hypnotic
13. Federation - Synchronized
14. Audiomatic - Think Twice (Cabal Remix)
15. Richard Durand - Dryland (Phynn Remix)
16. Daddy’s Groove & Little Mark - We Are In Da House
17. Man With No Name - Teleport (Nick Sentience Remix)
18. Ernesto vs Bastian - The Incredible Apollo
19. Grace - Not Over Yet (Jonas Hornblad Remix)
20. Mike Danis - For You
21. Tom Colontonio - Vertical Drop
22. Paul Oakenfold - Full Moon Party

Exact Audio Copy V1.0 beta 2 from 29. April 2011

EAC extraction logfile from 1. October 2011, 15:20

Paul Oakenfold / Never Mind the Bollocks… Here's Paul Oakenfold

Used drive : ASUS DRW-2014L1T Adapter: 2 ID: 0

Read mode : Secure
Utilize accurate stream : Yes
Defeat audio cache : Yes
Make use of C2 pointers : No

Read offset correction : 6
Overread into Lead-In and Lead-Out : No
Fill up missing offset samples with silence : Yes
Delete leading and trailing silent blocks : No
Null samples used in CRC calculations : Yes
Used interface : Native Win32 interface for Win NT & 2000

Used output format : User Defined Encoder
Selected bitrate : 768 kBit/s
Quality : High
Add ID3 tag : No
Command line compressor : I:\Program Files\Exact Audio Copy\FLAC\FLAC.EXE
Additional command line options : -V -8 -T "Date=%year%" -T "Genre=%genre%" %source%


TOC of the extracted CD

Track | Start | Length | Start sector | End sector
––––––––––––––––––––––––––––-
1 | 0:00.00 | 2:27.65 | 0 | 11089
2 | 2:27.65 | 3:18.20 | 11090 | 25959
3 | 5:46.10 | 3:14.59 | 25960 | 40568
4 | 9:00.69 | 1:51.23 | 40569 | 48916
5 | 10:52.17 | 3:35.49 | 48917 | 65090
6 | 14:27.66 | 4:10.33 | 65091 | 83873
7 | 18:38.24 | 5:47.62 | 83874 | 109960
8 | 24:26.11 | 2:12.13 | 109961 | 119873
9 | 26:38.24 | 6:06.72 | 119874 | 147395
10 | 32:45.21 | 3:42.46 | 147396 | 164091
11 | 36:27.67 | 2:52.13 | 164092 | 177004
12 | 39:20.05 | 3:00.65 | 177005 | 190569
13 | 42:20.70 | 3:00.65 | 190570 | 204134
14 | 45:21.60 | 1:23.36 | 204135 | 210395
15 | 46:45.21 | 5:26.72 | 210396 | 234917
16 | 52:12.18 | 3:00.65 | 234918 | 248482
17 | 55:13.08 | 3:14.59 | 248483 | 263091
18 | 58:27.67 | 4:38.20 | 263092 | 283961
19 | 63:06.12 | 5:06.07 | 283962 | 306918
20 | 68:12.19 | 0:27.62 | 306919 | 309005
21 | 68:40.06 | 3:28.52 | 309006 | 324657
22 | 72:08.58 | 3:11.23 | 324658 | 339005


Range status and errors

Selected range

Filename D:\EAC\By v3122\Paul Oakenfold - Never Mind the Bollocks… Here's Paul Oakenfold\Paul Oakenfold - Never Mind the Bollocks… Here's Paul Oakenfold.wav

Peak level 97.7 %
Extraction speed 8.2 X
Range quality 100.0 %
Test CRC B13805B6
Copy CRC B13805B6
Copy OK

No errors occurred


AccurateRip summary

Track 1 cannot be verified as accurate (confidence 1) [6197ED85], AccurateRip returned [57038F64] (AR v2)
Track 2 cannot be verified as accurate (confidence 1) [172AA93A], AccurateRip returned [1F523389] (AR v2)
Track 3 cannot be verified as accurate (confidence 1) [335F0236], AccurateRip returned [B7C3CDE0] (AR v2)
Track 4 cannot be verified as accurate (confidence 1) [2F65241D], AccurateRip returned [A1A61815] (AR v2)
Track 5 cannot be verified as accurate (confidence 1) [65A2E941], AccurateRip returned [E33EF65B] (AR v2)
Track 6 cannot be verified as accurate (confidence 1) [D32A37D8], AccurateRip returned [75A64A9D] (AR v2)
Track 7 cannot be verified as accurate (confidence 1) [02553046], AccurateRip returned [BEA59BF4] (AR v2)
Track 8 cannot be verified as accurate (confidence 1) [CFE74355], AccurateRip returned [E3F04438] (AR v2)
Track 9 cannot be verified as accurate (confidence 1) [2F8981C3], AccurateRip returned [949E0035] (AR v2)
Track 10 cannot be verified as accurate (confidence 1) [5162A459], AccurateRip returned [41E42102] (AR v2)
Track 11 cannot be verified as accurate (confidence 1) [8E078246], AccurateRip returned [B90C4C1A] (AR v2)
Track 12 cannot be verified as accurate (confidence 1) [5E6856AE], AccurateRip returned [FC650D9E] (AR v2)
Track 13 cannot be verified as accurate (confidence 1) [FA0CE331], AccurateRip returned [9CAC8E72] (AR v2)
Track 14 cannot be verified as accurate (confidence 1) [E5DA4914], AccurateRip returned [F59B3CC5] (AR v2)
Track 15 cannot be verified as accurate (confidence 1) [53D599C1], AccurateRip returned [EB71F735] (AR v2)
Track 16 cannot be verified as accurate (confidence 1) [A433B9AA], AccurateRip returned [A1D00853] (AR v2)
Track 17 cannot be verified as accurate (confidence 1) [ECCC6AAD], AccurateRip returned [64C35A00] (AR v2)
Track 18 cannot be verified as accurate (confidence 1) [948347A3], AccurateRip returned [73279FC2] (AR v2)
Track 19 cannot be verified as accurate (confidence 1) [3F446715], AccurateRip returned [DD2F2096] (AR v2)
Track 20 cannot be verified as accurate (confidence 1) [8D00D370], AccurateRip returned [5C2110BA] (AR v2)
Track 21 cannot be verified as accurate (confidence 1) [15DF6C69], AccurateRip returned [1A5DA7AB] (AR v2)
Track 22 cannot be verified as accurate (confidence 1) [AE645943], AccurateRip returned [02308622] (AR v2)

No tracks could be verified as accurate
You may have a different pressing from the one(s) in the database

End of status report

==== Log checksum E1F011712F695746C4275AAC69F9503D7A3A46B7FF53A065CC5896F78FE89124 ====

AUDIOCHECKER v2.0 beta (build 457) - by Dester - opdester@freemail.hu
~~~~~~~~~~~~~~~~~~~~~~~~~~~~~~~~~~
-=== DO NOT EDIT THIS FILE! ===-

Path: …\Never Mind the Bollocks… Here's Paul Oakenfold - cd1

1 -=- Paul Oakenfold - Never Mind the Bollocks… Here's Paul Oakenfold.flac -=- CDDA (100%)

72469332

[Verification date: 03.10.2011 14:41:56]
[Disc ID: 003ba56e-03c1957d-3911a816]
Track [ CRC ] Status
01 [faa12705] (00/01) No matches
02 [7b8ab3bb] (00/01) No matches
03 [ffd2de0d] (00/01) No matches
04 [366b1634] (00/01) No matches
05 [0f9e4bdf] (00/01) No matches
06 [eade59e1] (00/01) No matches
07 [45eb2e94] (00/01) No matches
08 [a630f393] (00/01) No matches
09 [f67f5404] (00/01) No matches
10 [1c4b1e68] (00/01) No matches
11 [446187d5] (00/01) No matches
12 [4b5a317e] (00/01) No matches
13 [f6f69331] (00/01) No matches
14 [ff018d9d] (00/01) No matches
15 [9f905006] (00/01) No matches
16 [19364ddf] (00/01) No matches
17 [dbc0a558] (00/01) No matches
18 [1b1ae9ba] (00/01) No matches
19 [ee3f693a] (00/01) No matches
20 [1624a904] (00/01) No matches
21 [621d1081] (00/01) No matches
22 [e5f51db9] (00/01) No matches
Offsetted by 670:
01 [57038f64] (01/01) Accurately ripped as in pressing(s) #1
02 [1f523389] (01/01) Accurately ripped as in pressing(s) #1
03 [b7c3cde0] (01/01) Accurately ripped as in pressing(s) #1
04 [a1a61815] (01/01) Accurately ripped as in pressing(s) #1
05 [e33ef65b] (01/01) Accurately ripped as in pressing(s) #1
06 [75a64a9d] (01/01) Accurately ripped as in pressing(s) #1
07 [bea59bf4] (01/01) Accurately ripped as in pressing(s) #1
08 [e3f04438] (01/01) Accurately ripped as in pressing(s) #1
09 [949e0035] (01/01) Accurately ripped as in pressing(s) #1
10 [41e42102] (01/01) Accurately ripped as in pressing(s) #1
11 [b90c4c1a] (01/01) Accurately ripped as in pressing(s) #1
12 [fc650d9e] (01/01) Accurately ripped as in pressing(s) #1
13 [9cac8e72] (01/01) Accurately ripped as in pressing(s) #1
14 [f59b3cc5] (01/01) Accurately ripped as in pressing(s) #1
15 [eb71f735] (01/01) Accurately ripped as in pressing(s) #1
16 [a1d00853] (01/01) Accurately ripped as in pressing(s) #1
17 [64c35a00] (01/01) Accurately ripped as in pressing(s) #1
18 [73279fc2] (01/01) Accurately ripped as in pressing(s) #1
19 [dd2f2096] (01/01) Accurately ripped as in pressing(s) #1
20 [5c2110ba] (01/01) Accurately ripped as in pressing(s) #1
21 [1a5da7ab] (01/01) Accurately ripped as in pressing(s) #1
22 [02308622] (01/01) Accurately ripped as in pressing(s) #1

Track [ CRC32 ] [W/O NULL] [ LOG ]
– [B13805B6] [40FBB43E] CRC32
01 [C16EE091] [6815B47C]
02 [86CD8A78] [EDD5D994]
03 [F1940F40] [E5EF82B3]
04 [145410D6] [A8685231]
05 [23020964] [10ED7A17]
06 [F805B3A3] [74C5434F]
07 [06A04674] [2F24B4B0]
08 [9D0A2B81] [5DAF5ECF]
09 [D86429CE] [AADDB659]
10 [D9989E22] [7ADA4013]
11 [3ADABEED] [60FCDAFE]
12 [B919BE68] [FBBF6AA2]
13 [7B890EF0] [E680E9AA]
14 [51B97B08] [F633083F]
15 [84A22EF5] [0DF15449]
16 [062C8227] [6F978DA7]
17 [54C876DB] [92BB7868]
18 [3FD500FD] [6FFECCC6]
19 [10A3E14E] [6664CCE6]
20 [1C978AA0] [E80D4C56]
21 [42D53F7F] [8ECC6C50]
22 [5F5F2973] [A23AEF6B]

Paul Oakenfold: Never Mind the Bollocks... Here's Paul Oakenfold (2011) Re-up

Tracklist CD2:

01. Ovnimoon - Galactic Mantra (Liquid Soul Remix)
02. Nick Sentience - Hear Me Now
03. Animalis - Mumbo Jumbo Business
04. Duotekk - Zlow
05. Des Mcmahon - Autumn Air (John Dopping Remix)
06. Protoculture feat. Shannon Hurley - Sun Gone Down
07. Norin & Rad vs. Audien - Thrust
08. Justin Oh - Wait For You
09. Marcos - Take Cover (Sonic Element Mix)
10. Beat Service feat. Emma Lock - Cut And Run
11. Paul Oakenfold - Tokyo (Beatman & Ludmilla Remix)
12. Yodis - Amore Trio
13. Man With No Name - Sugar Rush (HAARP Remix)
14. Kyota - Nemo (B-Vibes Remix)
15. Michael Dow - Desert Storm
16. Man with No Name - Floor Essence (Apogee Remix)
17. Jamie Harrison - Bucky Balls
18. Senadee - Life Support Machine (Bissen Remix)
19. Maguire - Face Yesterday

Exact Audio Copy V1.0 beta 2 from 29. April 2011

EAC extraction logfile from 1. October 2011, 15:43

Paul Oakenfold / Never Mind the Bollocks… Here's Paul Oakenfold

Used drive : ASUS DRW-2014L1T Adapter: 2 ID: 0

Read mode : Secure
Utilize accurate stream : Yes
Defeat audio cache : Yes
Make use of C2 pointers : No

Read offset correction : 6
Overread into Lead-In and Lead-Out : No
Fill up missing offset samples with silence : Yes
Delete leading and trailing silent blocks : No
Null samples used in CRC calculations : Yes
Used interface : Native Win32 interface for Win NT & 2000

Used output format : User Defined Encoder
Selected bitrate : 768 kBit/s
Quality : High
Add ID3 tag : No
Command line compressor : I:\Program Files\Exact Audio Copy\FLAC\FLAC.EXE
Additional command line options : -V -8 -T "Date=%year%" -T "Genre=%genre%" %source%


TOC of the extracted CD

Track | Start | Length | Start sector | End sector
––––––––––––––––––––––––––––-
1 | 0:00.00 | 3:33.68 | 0 | 16042
2 | 3:33.68 | 1:09.42 | 16043 | 21259
3 | 4:43.35 | 4:10.33 | 21260 | 40042
4 | 8:53.68 | 5:33.68 | 40043 | 65085
5 | 14:27.61 | 6:05.16 | 65086 | 92476
6 | 20:33.02 | 3:42.46 | 92477 | 109172
7 | 24:15.48 | 4:13.68 | 109173 | 128215
8 | 28:29.41 | 5:06.07 | 128216 | 151172
9 | 33:35.48 | 4:10.33 | 151173 | 169955
10 | 37:46.06 | 4:24.26 | 169956 | 189781
11 | 42:10.32 | 4:24.26 | 189782 | 209607
12 | 46:34.58 | 5:06.07 | 209608 | 232564
13 | 51:40.65 | 0:41.55 | 232565 | 235694
14 | 52:22.45 | 4:52.13 | 235695 | 257607
15 | 57:14.58 | 3:14.59 | 257608 | 272216
16 | 60:29.42 | 6:01.55 | 272217 | 299346
17 | 66:31.22 | 3:18.20 | 299347 | 314216
18 | 69:49.42 | 5:06.07 | 314217 | 337173
19 | 74:55.49 | 3:11.23 | 337174 | 351521


Range status and errors

Selected range

Filename D:\EAC\By v3122\Paul Oakenfold - Never Mind the Bollocks… Here's Paul Oakenfold - cd2\Paul Oakenfold - Never Mind the Bollocks… Here's Paul Oakenfold.wav

Peak level 97.7 %
Extraction speed 9.7 X
Range quality 100.0 %
Test CRC AF553341
Copy CRC AF553341
Copy OK

No errors occurred


AccurateRip summary

Track 1 cannot be verified as accurate (confidence 1) [7BC51E05], AccurateRip returned [46B305CC] (AR v2)
Track 2 cannot be verified as accurate (confidence 1) [6A7B47DE], AccurateRip returned [0702A8BF] (AR v2)
Track 3 cannot be verified as accurate (confidence 1) [969A30DD], AccurateRip returned [03A38643] (AR v2)
Track 4 cannot be verified as accurate (confidence 1) [DE804D26], AccurateRip returned [37123448] (AR v2)
Track 5 cannot be verified as accurate (confidence 1) [EF37CED6], AccurateRip returned [8C465C64] (AR v2)
Track 6 cannot be verified as accurate (confidence 1) [5A7BF149], AccurateRip returned [72064096] (AR v2)
Track 7 cannot be verified as accurate (confidence 1) [0525160B], AccurateRip returned [E21E62AB] (AR v2)
Track 8 cannot be verified as accurate (confidence 1) [F315ED1B], AccurateRip returned [BF1A9CF6] (AR v2)
Track 9 cannot be verified as accurate (confidence 1) [CD273218], AccurateRip returned [4D01F070] (AR v2)
Track 10 cannot be verified as accurate (confidence 1) [BC72D46E], AccurateRip returned [6DE08844] (AR v2)
Track 11 cannot be verified as accurate (confidence 1) [110A7FB6], AccurateRip returned [476746D2] (AR v2)
Track 12 cannot be verified as accurate (confidence 1) [5C9BB0F3], AccurateRip returned [9A5A90D8] (AR v2)
Track 13 cannot be verified as accurate (confidence 1) [C2B08D88], AccurateRip returned [7E7883B4] (AR v2)
Track 14 cannot be verified as accurate (confidence 1) [BFB7D347], AccurateRip returned [3901AF54] (AR v2)
Track 15 cannot be verified as accurate (confidence 1) [AACF9C69], AccurateRip returned [21067354] (AR v2)
Track 16 cannot be verified as accurate (confidence 1) [29C9A262], AccurateRip returned [52812493] (AR v2)
Track 17 cannot be verified as accurate (confidence 1) [18BFB936], AccurateRip returned [03452E85] (AR v2)
Track 18 cannot be verified as accurate (confidence 1) [335C7426], AccurateRip returned [8E3EBB0F] (AR v2)
Track 19 cannot be verified as accurate (confidence 1) [E5567334], AccurateRip returned [9EFD8830] (AR v2)

No tracks could be verified as accurate
You may have a different pressing from the one(s) in the database

End of status report

==== Log checksum A32557CA2DBE1CAA501716F8DE34791CD3966F1F48F8B54B43C0F996174ED1C3 ====

AUDIOCHECKER v2.0 beta (build 457) - by Dester - opdester@freemail.hu
~~~~~~~~~~~~~~~~~~~~~~~~~~~~~~~~~~
-=== DO NOT EDIT THIS FILE! ===-

Path: …\Never Mind the Bollocks… Here's Paul Oakenfold - cd2

1 -=- Paul Oakenfold - Never Mind the Bollocks… Here's Paul Oakenfold.flac -=- CDDA (100%)

72469332

[Verification date: 03.10.2011 14:42:44]
[Disc ID: 00354d2a-02f076df-12124e13]
Track [ CRC ] Status
01 [d51d9109] (00/01) No matches
02 [d747ab9d] (00/01) No matches
03 [e312979f] (00/01) No matches
04 [a5e34c5e] (00/01) No matches
05 [5db4eb9d] (00/01) No matches
06 [b48b707b] (00/01) No matches
07 [c2387de1] (00/01) No matches
08 [5682c802] (00/01) No matches
09 [9d6a6cfb] (00/01) No matches
10 [377b0fb3] (00/01) No matches
11 [e73b5796] (00/01) No matches
12 [33378498] (00/01) No matches
13 [ed3871d6] (00/01) No matches
14 [c9c16ba8] (00/01) No matches
15 [427e59e4] (00/01) No matches
16 [210f2886] (00/01) No matches
17 [061af74a] (00/01) No matches
18 [c2a7b606] (00/01) No matches
19 [d57a4652] (00/01) No matches
Offsetted by 670:
01 [46b305cc] (01/01) Accurately ripped as in pressing(s) #1
02 [0702a8bf] (01/01) Accurately ripped as in pressing(s) #1
03 [03a38643] (01/01) Accurately ripped as in pressing(s) #1
04 [37123448] (01/01) Accurately ripped as in pressing(s) #1
05 [8c465c64] (01/01) Accurately ripped as in pressing(s) #1
06 [72064096] (01/01) Accurately ripped as in pressing(s) #1
07 [e21e62ab] (01/01) Accurately ripped as in pressing(s) #1
08 [bf1a9cf6] (01/01) Accurately ripped as in pressing(s) #1
09 [4d01f070] (01/01) Accurately ripped as in pressing(s) #1
10 [6de08844] (01/01) Accurately ripped as in pressing(s) #1
11 [476746d2] (01/01) Accurately ripped as in pressing(s) #1
12 [9a5a90d8] (01/01) Accurately ripped as in pressing(s) #1
13 [7e7883b4] (01/01) Accurately ripped as in pressing(s) #1
14 [3901af54] (01/01) Accurately ripped as in pressing(s) #1
15 [21067354] (01/01) Accurately ripped as in pressing(s) #1
16 [52812493] (01/01) Accurately ripped as in pressing(s) #1
17 [03452e85] (01/01) Accurately ripped as in pressing(s) #1
18 [8e3ebb0f] (01/01) Accurately ripped as in pressing(s) #1
19 [9efd8830] (01/01) Accurately ripped as in pressing(s) #1

Track [ CRC32 ] [W/O NULL] [ LOG ]
– [AF553341] [65D675A7] CRC32
01 [6DB5D3B0] [351BB08F]
02 [C063C6E6] [656E0062]
03 [54D883C2] [E40EB4BA]
04 [7A380647] [77B099AF]
05 [4A56377E] [BC550E1B]
06 [60C9424B] [A3772AC5]
07 [79E1C60D] [5B909E02]
08 [CC47E84C] [6582B24F]
09 [38DF5120] [42845E7C]
10 [467B45A5] [5D871F67]
11 [63BAFD1F] [A2BB81BF]
12 [BF0F2A1C] [D5AE8D67]
13 [E38B270E] [480B23D2]
14 [AFB7710A] [2A6353F3]
15 [1CCFAE3B] [D631EE37]
16 [167FF42D] [E8EA8D73]
17 [BDE05F95] [8D4802AA]
18 [709D82C5] [68931A65]
19 [16FC9445] [620BF811]

Paul Oakenfold: Never Mind the Bollocks... Here's Paul Oakenfold (2011) Re-up

Download Paul Oakenfold: Never Mind the Bollocks… Here's Paul Oakenfold (2011):