Subcategories

New York Voices - Sing! Sing! Sing! (2000)

Posted By: Designol
New York Voices - Sing! Sing! Sing! (2000)

New York Voices - Sing! Sing! Sing! (2000)
EAC | FLAC | Tracks (Cue&Log) ~ 419 Mb | Mp3 (CBR320) ~ 167 Mb | Scans included | 01:03:22
Vocal Jazz, Harmony Vocal Group, Mainstream Jazz | Label: Concord Jazz | # CCD-4961-2

You have to admire New York Voices' diversity – this is a jazz vocal group that has embraced everything from modal post-bop and Brazilian jazz to Stevie Wonder pearls. And how many artists have devoted an entire album to jazz interpretations of Paul Simon tunes? Not everything the Voices have recorded is great, but more often than not, their sense of adventure and open-mindedness have served them well. After paying tribute to pop-rocker Simon in 1997, the Voices make big band music the main focus of Sing, Sing, Sing. This time, they are backed by a big band and turn their attention to gems associated with swing icons like Benny Goodman ("Sing, Sing, Sing," "Don't Be That Way"), Duke Ellington ("In A Mellow Tone"), Woody Herman ("Early Autumn"), and Artie Shaw ("Stardust"). Although many of these classics came out of the Swing Era, Sing, Sing, Sing also has its share of post-World War II gems. Ralph Burns' lovely "Early Autumn" is a gem that Herman recorded in 1948, when he was exploring bop with his Second Herd and the Four Brothers. And "Orange Colored Sky," which was a major hit for Nat "King" Cole in 1950, is quite relevant to the CD's big band theme because Cole recorded it with the Stan Kenton Orchestra. This CD is a major departure from the Voices' Simon tribute, but considering how flexible they have been, it isn't surprising that they would do something completely different this time. Sing, Sing, Sing is a rewarding addition to their catalogue.

Review by Alex Henderson, Allmusic.com

New York Voices - Sing! Sing! Sing! (2000)



New York Voices:
Lauren Kinhan - Vocals
Darmon Meader - Clarinet, Sax (Tenor), Vocals
Kim Nazarian - Vocals
Peter Elridge - Vocals


Saxophones:
Lawrence Feldman, soprano saxophone, alto saxophone, clarinet
Bobby Porcelli, alto saxophone, flute
Donny McCaslin, tenor saxophone, flute
Doug Lawrence, tenor saxophone (tracks 1, 3, 6, 9 ,10 & 12)
Darmon Meader, tenor saxophone, clarinet (tracks 7, 8, 11 & 13)
Kenny Berger, baritone saxophone (tracks 1, 3, 6, 9 ,10 & 12)
Roger Rosenberg, baritone saxophone, bass clarinet
(tracks 2, 5, 7, 8, 11 & 13)

Trumpets (& Flugelhorns):
Craig Johnson (lead on tracks 3, 6, 8, 9 & 10) Barry Danielian (lead on tracks 1, 2, 5 & 13) Greg Ruvolo (lead on track 7) Marvin Stamm (lead on tracks 11 & 13)
Trombones:
Randy Andos. Larry Parrell. Jay Ashby Dave Taylor, bass trombone

Andy Ezrin, piano
Paul Nowinski, bass
Mareello Pellitteri, drums (tracks 2, 4, 5, 7, S, 11 & 13)
Ben Wittman, drums (tracks 1, 3, 6, 9 ,10 & 12)
John "Bucky" Pizzarelli, guitar (tracks 6, 10 & 13)

All vocal arrangements by Darmon Meader
except: "Hallelujah, I Love Her So,"
arranged by Peter Eldridge & Darmon Meader
All instrumental arrangements by Darmon Meader
except: "Bli Blip" & "Hallelujah, I Love Her So"
arranged by Michael Abene;
and "Save Your Love for Me" arranged by Rob Mounsey


Tracklist:

01. Sing, Sing, Sing, (4:26)
02. I Can't Believe You're In Love with Me (3:59)
03. Smack Dab in the Middle (5:08)
04. Early Autumn (3:51)
05. Bli Blip (6:00)
06. Ain't Nobody Here But Us Chickens (3:36)
07. Save Your Love for Me (4:15)
08. Orange Colored Sky (3:55)
09. Hallelujah, I Love Her So (5:17)
10. Cloudburst (4:43)
11. Stardust (3:44)
12. Don't Be That Way (4:31)
13. In a Mellow Tone (6:08)
14. I'll Be Seeing You (3:49)


Exact Audio Copy V0.99 prebeta 4 from 23. January 2008

EAC extraction logfile from 14. November 2008, 9:27

New York Voices / Sing! Sing! Sing!

Used drive : PIONEER DVD-RW DVR-112D Adapter: 0 ID: 0

Read mode : Secure
Utilize accurate stream : Yes
Defeat audio cache : Yes
Make use of C2 pointers : No

Read offset correction : 48
Overread into Lead-In and Lead-Out : No
Fill up missing offset samples with silence : Yes
Delete leading and trailing silent blocks : No
Null samples used in CRC calculations : Yes
Used interface : Installed external ASPI interface
Gap handling : Appended to previous track

Used output format : User Defined Encoder
Selected bitrate : 320 kBit/s
Quality : High
Add ID3 tag : Yes
Command line compressor : C:\Program Files\Exact Audio Copy\Flac\flac.exe
Additional command line options : -V -8 -T "artist=%a" -T "title=%t" -T "album=%g" -T "date=%y" -T "tracknumber=%n" -T "genre=%m" %s


TOC of the extracted CD

Track | Start | Length | Start sector | End sector
––––––––––––––––––––––––––––-
1 | 0:00.00 | 4:26.25 | 0 | 19974
2 | 4:26.25 | 3:59.37 | 19975 | 37936
3 | 8:25.62 | 5:07.43 | 37937 | 61004
4 | 13:33.30 | 3:50.65 | 61005 | 78319
5 | 17:24.20 | 6:00.27 | 78320 | 105346
6 | 23:24.47 | 3:36.03 | 105347 | 121549
7 | 27:00.50 | 4:15.07 | 121550 | 140681
8 | 31:15.57 | 3:54.70 | 140682 | 158301
9 | 35:10.52 | 5:17.08 | 158302 | 182084
10 | 40:27.60 | 4:42.57 | 182085 | 203291
11 | 45:10.42 | 3:44.30 | 203292 | 220121
12 | 48:54.72 | 4:30.38 | 220122 | 240409
13 | 53:25.35 | 6:07.50 | 240410 | 267984
14 | 59:33.10 | 3:49.20 | 267985 | 285179


Track 1

Filename D:\music\rip\New York Voices - Sing! Sing! Sing! (2001,Concord)\01 - Sing, Sing, Sing,.wav

Pre-gap length 0:00:02.00

Peak level 99.8 %
Track quality 100.0 %
Test CRC 4B54BE8B
Copy CRC 4B54BE8B
Cannot be verified as accurate (confidence 2) [CBFDDD93], AccurateRip returned [A488C59B]
Copy OK

Track 2

Filename D:\music\rip\New York Voices - Sing! Sing! Sing! (2001,Concord)\02 - I Can't Believe You're In Love with Me.wav

Peak level 99.8 %
Track quality 100.0 %
Test CRC FBBCB7D4
Copy CRC FBBCB7D4
Cannot be verified as accurate (confidence 2) [0EC0659D], AccurateRip returned [03542715]
Copy OK

Track 3

Filename D:\music\rip\New York Voices - Sing! Sing! Sing! (2001,Concord)\03 - Smack Dab in the Middle.wav

Peak level 99.8 %
Track quality 100.0 %
Test CRC 8B75B58D
Copy CRC 8B75B58D
Cannot be verified as accurate (confidence 2) [AA6E0DBC], AccurateRip returned [1500409C]
Copy OK

Track 4

Filename D:\music\rip\New York Voices - Sing! Sing! Sing! (2001,Concord)\04 - Early Autumn.wav

Peak level 99.8 %
Track quality 100.0 %
Test CRC 746834D6
Copy CRC 746834D6
Cannot be verified as accurate (confidence 2) [196253F8], AccurateRip returned [2DBB5E97]
Copy OK

Track 5

Filename D:\music\rip\New York Voices - Sing! Sing! Sing! (2001,Concord)\05 - Bli Blip.wav

Peak level 99.8 %
Track quality 100.0 %
Test CRC A43B9FF6
Copy CRC A43B9FF6
Cannot be verified as accurate (confidence 2) [42764922], AccurateRip returned [84F62617]
Copy OK

Track 6

Filename D:\music\rip\New York Voices - Sing! Sing! Sing! (2001,Concord)\06 - Ain't Nobody Here But Us Chickens.wav

Peak level 99.8 %
Track quality 100.0 %
Test CRC 43E3C647
Copy CRC 43E3C647
Cannot be verified as accurate (confidence 2) [EDC45ECC], AccurateRip returned [181FA834]
Copy OK

Track 7

Filename D:\music\rip\New York Voices - Sing! Sing! Sing! (2001,Concord)\07 - Save Your Love for Me.wav

Peak level 99.8 %
Track quality 100.0 %
Test CRC 522BD12E
Copy CRC 522BD12E
Cannot be verified as accurate (confidence 2) [E3662B41], AccurateRip returned [13B19558]
Copy OK

Track 8

Filename D:\music\rip\New York Voices - Sing! Sing! Sing! (2001,Concord)\08 - Orange Colored Sky.wav

Peak level 99.8 %
Track quality 100.0 %
Test CRC 3D11033E
Copy CRC 3D11033E
Cannot be verified as accurate (confidence 2) [2F2A8A41], AccurateRip returned [E2784006]
Copy OK

Track 9

Filename D:\music\rip\New York Voices - Sing! Sing! Sing! (2001,Concord)\09 - Hallelujah, I Love Her So.wav

Peak level 99.8 %
Track quality 99.9 %
Test CRC E9DF3846
Copy CRC E9DF3846
Cannot be verified as accurate (confidence 2) [91D86292], AccurateRip returned [06328ED1]
Copy OK

Track 10

Filename D:\music\rip\New York Voices - Sing! Sing! Sing! (2001,Concord)\10 - Cloudburst.wav

Peak level 99.8 %
Track quality 100.0 %
Test CRC 3D2274A8
Copy CRC 3D2274A8
Cannot be verified as accurate (confidence 2) [6E111A0E], AccurateRip returned [D79E50B3]
Copy OK

Track 11

Filename D:\music\rip\New York Voices - Sing! Sing! Sing! (2001,Concord)\11 - Stardust.wav

Peak level 99.8 %
Track quality 100.0 %
Test CRC 19E7E79F
Copy CRC 19E7E79F
Cannot be verified as accurate (confidence 2) [F7DBADBB], AccurateRip returned [476FAEBF]
Copy OK

Track 12

Filename D:\music\rip\New York Voices - Sing! Sing! Sing! (2001,Concord)\12 - Don't Be That Way.wav

Peak level 99.8 %
Track quality 100.0 %
Test CRC 0FE5E59A
Copy CRC 0FE5E59A
Cannot be verified as accurate (confidence 2) [D7994136], AccurateRip returned [8CE10017]
Copy OK

Track 13

Filename D:\music\rip\New York Voices - Sing! Sing! Sing! (2001,Concord)\13 - In a Mellow Tone.wav

Peak level 99.8 %
Track quality 100.0 %
Test CRC B4C6AE28
Copy CRC B4C6AE28
Cannot be verified as accurate (confidence 2) [8B4B62D8], AccurateRip returned [24162016]
Copy OK

Track 14

Filename D:\music\rip\New York Voices - Sing! Sing! Sing! (2001,Concord)\14 - I'll Be Seeing You.wav

Peak level 99.8 %
Track quality 100.0 %
Test CRC 2FCBD2C7
Copy CRC 2FCBD2C7
Cannot be verified as accurate (confidence 2) [9C7B9C03], AccurateRip returned [DCC81BB7]
Copy OK


No tracks could be verified as accurate
You may have a different pressing from the one(s) in the database

No errors occurred

End of status report

[CUETools log; Date: 08.12.2017 4:06:21; Version: 2.1.4]
[CTDB TOCID: egMzL0QORKxn0p6VogX4n.QoL14-] found.
Track | CTDB Status
1 | (23/24) Accurately ripped
2 | (23/24) Accurately ripped
3 | (23/24) Accurately ripped
4 | (23/24) Accurately ripped
5 | (23/24) Accurately ripped
6 | (23/24) Accurately ripped
7 | (23/24) Accurately ripped
8 | (23/24) Accurately ripped
9 | (23/24) Accurately ripped
10 | (23/24) Accurately ripped
11 | (23/24) Accurately ripped
12 | (23/24) Accurately ripped
13 | (23/24) Accurately ripped
14 | (22/24) Accurately ripped
[AccurateRip ID: 002061d0-015a017a-bb0eda0e] found.
Track [ CRC | V2 ] Status
01 [cbfddd93|69ec2730] (04+04/38) Accurately ripped
02 [0ec0659d|f7d12d8a] (04+04/37) Accurately ripped
03 [aa6e0dbc|9cbe11fa] (04+04/37) Accurately ripped
04 [196253f8|b929b754] (04+04/37) Accurately ripped
05 [42764922|f7e60185] (04+04/37) Accurately ripped
06 [edc45ecc|46232f95] (04+04/37) Accurately ripped
07 [e3662b41|dcfe695e] (04+04/37) Accurately ripped
08 [2f2a8a41|82febd48] (04+04/38) Accurately ripped
09 [91d86292|ed342d8a] (04+04/36) Accurately ripped
10 [6e111a0e|c673a2b6] (04+04/37) Accurately ripped
11 [f7dbadbb|23971417] (04+04/37) Accurately ripped
12 [d7994136|be84d90a] (04+04/37) Accurately ripped
13 [8b4b62d8|451775d1] (04+04/37) Accurately ripped
14 [9c7b9c03|ba45c757] (04+04/36) Accurately ripped
Offsetted by 669:
01 [a488c59b] (06/38) Accurately ripped
02 [03542715] (05/37) Accurately ripped
03 [1500409c] (05/37) Accurately ripped
04 [2dbb5e97] (05/37) Accurately ripped
05 [84f62617] (05/37) Accurately ripped
06 [181fa834] (05/37) Accurately ripped
07 [13b19558] (05/37) Accurately ripped
08 [e2784006] (06/38) Accurately ripped
09 [06328ed1] (05/36) Accurately ripped
10 [d79e50b3] (06/37) Accurately ripped
11 [476faebf] (06/37) Accurately ripped
12 [8ce10017] (06/37) Accurately ripped
13 [24162016] (06/37) Accurately ripped
14 [dcc81bb7] (06/36) Accurately ripped
Offsetted by 583:
01 [2e7f4e27] (00/38) No match (V2 was not tested)
02 [f0820a84] (00/37) No match (V2 was not tested)
03 [b32a7845] (00/37) No match (V2 was not tested)
04 [44750660] (00/37) No match (V2 was not tested)
05 [c5353d6a] (00/37) No match (V2 was not tested)
06 [c43a66bb] (00/37) No match (V2 was not tested)
07 [1975e600] (00/37) No match (V2 was not tested)
08 [b422a5d1] (00/38) No match (V2 was not tested)
09 [0ac1b29a] (00/36) No match (V2 was not tested)
10 [48e2888a] (00/37) No match (V2 was not tested)
11 [fc352f0e] (00/37) No match (V2 was not tested)
12 [a3f49820] (00/37) No match (V2 was not tested)
13 [7d7833f5] (00/37) No match (V2 was not tested)
14 [bd7563c7] (00/36) No match (V2 was not tested)
Offsetted by 657:
01 [6445f741] (00/38) No match (V2 was not tested)
02 [d1817c99] (00/37) No match (V2 was not tested)
03 [f3ebd300] (00/37) No match (V2 was not tested)
04 [115b6138] (00/37) No match (V2 was not tested)
05 [d8be5d17] (00/37) No match (V2 was not tested)
06 [6cf58dce] (00/37) No match (V2 was not tested)
07 [97b7a34b] (00/37) No match (V2 was not tested)
08 [36affd3e] (00/38) No match (V2 was not tested)
09 [cb4db71e] (00/36) No match (V2 was not tested)
10 [5c06a2dd] (00/37) No match (V2 was not tested)
11 [d4d993b7] (00/37) No match (V2 was not tested)
12 [d10384bf] (00/37) No match (V2 was not tested)
13 [4828ea44] (00/37) No match (V2 was not tested)
14 [70ec4cdf] (00/36) No match (V2 was not tested)

Track Peak [ CRC32 ] [W/O NULL] [ LOG ]
– 99,8 [E45CFFFF] [AF152589]
01 99,8 [4B54BE8B] [B885E134] CRC32
02 99,8 [FBBCB7D4] [8D191A5A] CRC32
03 99,8 [8B75B58D] [BAEF4499] CRC32
04 99,8 [746834D6] [9E013497] CRC32
05 99,8 [A43B9FF6] [B0E08B45] CRC32
06 99,8 [43E3C647] [8C3D3019] CRC32
07 99,8 [522BD12E] [58C959AC] CRC32
08 99,8 [3D11033E] [1A258E53] CRC32
09 99,8 [E9DF3846] [02A32AE6] CRC32
10 99,8 [3D2274A8] [8D8D504F] CRC32
11 99,8 [19E7E79F] [CE2905B8] CRC32
12 99,8 [0FE5E59A] [FB85FA69] CRC32
13 99,8 [B4C6AE28] [81D56487] CRC32
14 99,8 [2FCBD2C7] [9BCCB188] CRC32

foobar2000 1.2 / Dynamic Range Meter 1.1.1
log date: 2017-12-08 04:34:15

––––––––––––––––––––––––––––––––––––––––
Analyzed: New York Voices / Sing! Sing! Sing!
––––––––––––––––––––––––––––––––––––––––

DR Peak RMS Duration Track
––––––––––––––––––––––––––––––––––––––––
DR10 -0.01 dB -12.57 dB 4:26 01-Sing, Sing, Sing,
DR10 -0.01 dB -12.86 dB 3:59 02-I Can't Believe You're In Love with Me
DR10 -0.01 dB -11.95 dB 5:08 03-Smack Dab in the Middle
DR11 -0.01 dB -14.09 dB 3:51 04-Early Autumn
DR11 -0.01 dB -14.29 dB 6:00 05-Bli Blip
DR9 -0.01 dB -11.16 dB 3:36 06-Ain't Nobody Here But Us Chickens
DR10 -0.01 dB -12.60 dB 4:15 07-Save Your Love for Me
DR10 -0.01 dB -12.59 dB 3:55 08-Orange Colored Sky
DR11 -0.01 dB -13.78 dB 5:17 09-Hallelujah, I Love Her So
DR10 -0.01 dB -12.56 dB 4:43 10-Cloudburst
DR10 -0.01 dB -13.62 dB 3:44 11-Stardust
DR9 -0.01 dB -11.70 dB 4:31 12-Don't Be That Way
DR10 -0.01 dB -13.11 dB 6:08 13-In a Mellow Tone
DR12 -0.01 dB -15.94 dB 3:49 14-I'll Be Seeing You
––––––––––––––––––––––––––––––––––––––––

Number of tracks: 14
Official DR value: DR10

Samplerate: 44100 Hz
Channels: 2
Bits per sample: 16
Bitrate: 761 kbps
Codec: FLAC
================================================================================

Quartet (1981)

Quartet (1981)