Subcategories

New Model Army - B-Sides And Abandoned Tracks (1994)

Posted By: uff
New Model Army - B-Sides And Abandoned Tracks (1994)

New Model Army - B-Sides And Abandoned Tracks (1994)
Rock | 1cd | EAC Rip | Flac + Cue + Log | covers
EMI 7243 8 30374 2 | rel: 1994 | 620Mb

B-Sides and Abandoned Tracks documents the non-LP material from the second LP through the present (the earlier non-LP stuff belongs to an indie label who's already compiled it on another great LP) and it instantly catapults itself over five of the six proper NMA LPs, and gives 1986's The Ghost of Cain a run for its money for the "best-ever NMA LP." No joke, this is a band whose B-sides have been mind-bogglingly great, and this 18-track monster plays start to finish with one truly memorable composition after another; how they could have left some of these off the LPs we'll never understand. In particular, "Ten Commandments" not only joins XTC's "Dear God" (also originally a B-side, unbelievably) as the finest anti-organized-religion song ever written by non-atheists, but the music is pulverizing. It demands singing along (no mean feat for such words). Ditto the anti-smack song "Heroin," and the anti-gang violence disgust of "Adrenalin" (up there with the (Newtown) Neurotics' "Mindless Violence" on this subject); both are as melodically and rockin' great as their no-nonsense, articulate and passionate lyrical matter. And that's just the start. Sullivan's burgeoning compassion is all over "Ghost of Your Father," "Prison," (which blew away its A-side "Get Me Out"), and the piano-only backed "Brave New World," so somber and ghostly, while the harsh keyboard that runs through "Courage" sends a chill. It's all here: acoustic tracks (some full band), full-blown rockers, one dance mix, and terribly, terribly fine material, do not miss this! Proof that at their most inspired, as this is 100%, all 18 songs, New Model Army has been one of the most important, exciting, topical, and emotional bands in all the world for 14 years. And this is clearly them at their finest! ~Allmusic

Track listing
01. Heroin 12'' Mix (5:27)
02. Adrenalin (3:47)
03. No Sense (2:45)
04. Trust (2:30)
05. Brave New World 12'' (Gregovich Mix) (5:16)
06. R.I.P (4:12)
07. Brave New World 2 (3:24)
08. Ten Commandments (3:44)
09. Courage (3:18)
10. Lights Go Out (US Remix) (6:31)
11. Deadeye (4:52)
12. Prison (4:13)
13. Curse (3:56)
14. Ghost Of Your Father (3:25)
15. Modern Times (3:40)
16. Drummy B (Billy McCann Version) (4:03)
17. Marry The Sea (4:47)
18. Sleepwalking (2:58)
~ (72:49)


Exact Audio Copy V1.0 beta 1 from 15. November 2010

EAC extraction logfile from 16. February 2011, 17:20

New Model Army / B Sides & Abandoned Tracks

Used drive : ATAPI iHBS112 2 Adapter: 1 ID: 1

Read mode : Secure
Utilize accurate stream : Yes
Defeat audio cache : Yes
Make use of C2 pointers : No

Read offset correction : 6
Overread into Lead-In and Lead-Out : No
Fill up missing offset samples with silence : Yes
Delete leading and trailing silent blocks : No
Null samples used in CRC calculations : Yes
Used interface : Native Win32 interface for Win NT & 2000
Gap handling : Appended to previous track

Used output format : User Defined Encoder
Selected bitrate : 768 kBit/s
Quality : High
Add ID3 tag : No
Command line compressor : C:\Program Files (x86)\Exact Audio Copy\Flac\flac.exe
Additional command line options : -8 -V -T "ARTIST=%a" -T "TITLE=%t" -T "ALBUM=%g" -T "DATE=%y" -T "TRACKNUMBER=%n" -T "TOTALTRACKS=%x" -T "GENRE=%m" -T "ALBUMARTIST=%v" -T "ALBUM ARTIST=%v" -T "COMMENT=EAC Secure Mode, Test & Copy, AccurateRip, FLAC -8" %s


TOC of the extracted CD

Track | Start | Length | Start sector | End sector
––––––––––––––––––––––––––––-
1 | 0:00.33 | 5:27.12 | 33 | 24569
2 | 5:27.45 | 3:47.20 | 24570 | 41614
3 | 9:14.65 | 2:44.60 | 41615 | 53974
4 | 11:59.50 | 2:29.68 | 53975 | 65217
5 | 14:29.43 | 5:16.12 | 65218 | 88929
6 | 19:45.55 | 4:12.03 | 88930 | 107832
7 | 23:57.58 | 3:24.00 | 107833 | 123132
8 | 27:21.58 | 3:43.62 | 123133 | 139919
9 | 31:05.45 | 3:18.23 | 139920 | 154792
10 | 34:23.68 | 6:31.00 | 154793 | 184117
11 | 40:54.68 | 4:52.30 | 184118 | 206047
12 | 45:47.23 | 4:13.00 | 206048 | 225022
13 | 50:00.23 | 3:56.00 | 225023 | 242722
14 | 53:56.23 | 3:25.12 | 242723 | 258109
15 | 57:21.35 | 3:39.48 | 258110 | 274582
16 | 61:01.08 | 4:03.22 | 274583 | 292829
17 | 65:04.30 | 4:46.48 | 292830 | 314327
18 | 69:51.03 | 2:58.05 | 314328 | 327682


Track 1

Filename C:\00_Music\01 - Heroin 12'' Mix.wav

Pre-gap length 0:00:02.33

Peak level 100.0 %
Extraction speed 3.3 X
Track quality 100.0 %
Test CRC 5E31FFAA
Copy CRC 5E31FFAA
Accurately ripped (confidence 27) [E03E6BA4]
Copy OK

Track 2

Filename C:\00_Music\02 - Adrenalin.wav

Pre-gap length 0:00:01.72

Peak level 97.7 %
Extraction speed 5.4 X
Track quality 100.0 %
Test CRC 4D0AC316
Copy CRC 4D0AC316
Accurately ripped (confidence 27) [0D551F1B]
Copy OK

Track 3

Filename C:\00_Music\03 - No Sense.wav

Pre-gap length 0:00:00.02

Peak level 97.7 %
Extraction speed 6.6 X
Track quality 100.0 %
Test CRC ACEA444F
Copy CRC ACEA444F
Accurately ripped (confidence 27) [9E79322A]
Copy OK

Track 4

Filename C:\00_Music\04 - Trust.wav

Pre-gap length 0:00:01.27

Peak level 88.3 %
Extraction speed 6.8 X
Track quality 100.0 %
Test CRC 81EF947D
Copy CRC 81EF947D
Accurately ripped (confidence 27) [2D8E3F77]
Copy OK

Track 5

Filename C:\00_Music\05 - Brave New World 12'' (Gregovich Mix).wav

Pre-gap length 0:00:01.38

Peak level 100.0 %
Extraction speed 8.0 X
Track quality 100.0 %
Test CRC CA16D14E
Copy CRC CA16D14E
Accurately ripped (confidence 27) [DD72A654]
Copy OK

Track 6

Filename C:\00_Music\06 - R.I.P.wav

Pre-gap length 0:00:00.52

Peak level 100.0 %
Extraction speed 6.9 X
Track quality 99.9 %
Test CRC 53222C58
Copy CRC 53222C58
Accurately ripped (confidence 27) [052A2489]
Copy OK

Track 7

Filename C:\00_Music\07 - Brave New World 2.wav

Pre-gap length 0:00:01.30

Peak level 97.1 %
Extraction speed 8.4 X
Track quality 100.0 %
Test CRC 36913144
Copy CRC 36913144
Accurately ripped (confidence 27) [3AC813BE]
Copy OK

Track 8

Filename C:\00_Music\08 - Ten Commandments.wav

Pre-gap length 0:00:00.68

Peak level 92.4 %
Extraction speed 8.7 X
Track quality 100.0 %
Test CRC BBA174BF
Copy CRC BBA174BF
Accurately ripped (confidence 27) [5B190805]
Copy OK

Track 9

Filename C:\00_Music\09 - Courage.wav

Pre-gap length 0:00:01.62

Peak level 100.0 %
Extraction speed 8.9 X
Track quality 100.0 %
Test CRC 1BE4B680
Copy CRC 1BE4B680
Accurately ripped (confidence 27) [E1AF7409]
Copy OK

Track 10

Filename C:\00_Music\10 - Lights Go Out (US Remix).wav

Pre-gap length 0:00:00.43

Peak level 87.1 %
Extraction speed 10.2 X
Track quality 100.0 %
Test CRC 624BD46D
Copy CRC 624BD46D
Accurately ripped (confidence 27) [ADC773A8]
Copy OK

Track 11

Filename C:\00_Music\11 - Deadeye.wav

Pre-gap length 0:00:01.60

Peak level 79.2 %
Extraction speed 10.4 X
Track quality 100.0 %
Test CRC ED215EF6
Copy CRC ED215EF6
Accurately ripped (confidence 27) [ABC66A59]
Copy OK

Track 12

Filename C:\00_Music\12 - Prison.wav

Pre-gap length 0:00:01.35

Peak level 95.6 %
Extraction speed 8.7 X
Track quality 99.9 %
Test CRC 9208CDA9
Copy CRC 9208CDA9
Accurately ripped (confidence 27) [29FEDC30]
Copy OK

Track 13

Filename C:\00_Music\13 - Curse.wav

Pre-gap length 0:00:01.55

Peak level 100.0 %
Extraction speed 10.7 X
Track quality 100.0 %
Test CRC 08065F8F
Copy CRC 08065F8F
Accurately ripped (confidence 27) [D12C6A31]
Copy OK

Track 14

Filename C:\00_Music\14 - Ghost Of Your Father.wav

Pre-gap length 0:00:01.48

Peak level 98.3 %
Extraction speed 10.7 X
Track quality 100.0 %
Test CRC 27BE2FE7
Copy CRC 27BE2FE7
Accurately ripped (confidence 27) [A2CF928B]
Copy OK

Track 15

Filename C:\00_Music\15 - Modern Times.wav

Pre-gap length 0:00:01.30

Peak level 93.3 %
Extraction speed 11.0 X
Track quality 100.0 %
Test CRC C3422979
Copy CRC C3422979
Accurately ripped (confidence 27) [C4CF22AF]
Copy OK

Track 16

Filename C:\00_Music\16 - Drummy B (Billy McCann Version).wav

Pre-gap length 0:00:01.53

Peak level 89.8 %
Extraction speed 11.6 X
Track quality 100.0 %
Test CRC FAA52237
Copy CRC FAA52237
Accurately ripped (confidence 25) [8DB0F931]
Copy OK

Track 17

Filename C:\00_Music\17 - Marry The Sea.wav

Pre-gap length 0:00:01.27

Peak level 68.6 %
Extraction speed 12.0 X
Track quality 100.0 %
Test CRC AC4A004F
Copy CRC AC4A004F
Accurately ripped (confidence 26) [AF304B9B]
Copy OK

Track 18

Filename C:\00_Music\18 - Sleepwalking.wav

Pre-gap length 0:00:01.00

Peak level 86.2 %
Extraction speed 11.4 X
Track quality 100.0 %
Test CRC FC9225F7
Copy CRC FC9225F7
Accurately ripped (confidence 25) [7E2F2BB1]
Copy OK


All tracks accurately ripped

No errors occurred

End of status report

==== Log checksum F8D33B9BB62EBBEA00FADA4356003E9180CEB5918E06BE6DF80E4E037706919F ====



[CUETools log; Date: 2016.01.06. 11:17:28; Version: 2.1.5]
Pregap length 00:00:33.
[CTDB TOCID: sQx.LGKZzOH8SHnEPEHfit1JtZg-] found.
Track | CTDB Status
1 | (22/22) Accurately ripped
2 | (22/22) Accurately ripped
3 | (22/22) Accurately ripped
4 | (22/22) Accurately ripped
5 | (22/22) Accurately ripped
6 | (22/22) Accurately ripped
7 | (22/22) Accurately ripped
8 | (22/22) Accurately ripped
9 | (22/22) Accurately ripped
10 | (22/22) Accurately ripped
11 | (22/22) Accurately ripped
12 | (22/22) Accurately ripped
13 | (21/22) Accurately ripped
14 | (21/22) Accurately ripped
15 | (22/22) Accurately ripped
16 | (21/22) Accurately ripped
17 | (22/22) Accurately ripped
18 | (22/22) Accurately ripped
[AccurateRip ID: 002fb0da-027cfa3d-0d111112] found.
Track [ CRC | V2 ] Status
01 [e03e6ba4|634451f9] (31+30/61) Accurately ripped
02 [0d551f1b|e9ec8aff] (31+30/61) Accurately ripped
03 [9e79322a|ac8b9c24] (31+30/61) Accurately ripped
04 [2d8e3f77|5ac562de] (31+30/61) Accurately ripped
05 [dd72a654|44b5caad] (31+30/61) Accurately ripped
06 [052a2489|442f82fe] (31+30/61) Accurately ripped
07 [3ac813be|3f88273a] (31+30/61) Accurately ripped
08 [5b190805|2eaffe81] (31+30/61) Accurately ripped
09 [e1af7409|3814db02] (31+29/60) Accurately ripped
10 [adc773a8|740f630a] (31+30/61) Accurately ripped
11 [abc66a59|2085fc36] (31+29/60) Accurately ripped
12 [29fedc30|0e8e4865] (31+30/61) Accurately ripped
13 [d12c6a31|17f424dd] (31+30/61) Accurately ripped
14 [a2cf928b|fb1f823b] (31+30/61) Accurately ripped
15 [c4cf22af|0461b7d6] (31+30/61) Accurately ripped
16 [8db0f931|cc7da88e] (29+31/60) Accurately ripped
17 [af304b9b|4231a761] (30+30/60) Accurately ripped
18 [7e2f2bb1|03e8102a] (29+31/60) Accurately ripped
Offsetted by -488:
01 [c1dabc3c] (00/61) No match (V2 was not tested)
02 [0588c76b] (00/61) No match (V2 was not tested)
03 [4c42742a] (00/61) No match (V2 was not tested)
04 [c82762c7] (00/61) No match (V2 was not tested)
05 [076f2724] (00/61) No match (V2 was not tested)
06 [e5e5bcc1] (00/61) No match (V2 was not tested)
07 [b24a3d3e] (00/61) No match (V2 was not tested)
08 [b1b2535d] (00/61) No match (V2 was not tested)
09 [73baf551] (00/60) No match (V2 was not tested)
10 [33a16300] (00/61) No match (V2 was not tested)
11 [c71301c9] (00/60) No match (V2 was not tested)
12 [e1576be0] (00/61) No match (V2 was not tested)
13 [5543a751] (00/61) No match (V2 was not tested)
14 [1b6b2b4b] (00/61) No match (V2 was not tested)
15 [eed8d1c7] (00/61) No match (V2 was not tested)
16 [ca8a09a9] (00/60) No match (V2 was not tested)
17 [e8d1dd6b] (00/60) No match (V2 was not tested)
18 [64f506d1] (00/60) No match (V2 was not tested)

Track Peak [ CRC32 ] [W/O NULL] [ LOG ]
– 100,0 [0B3788BC] [CA49411C]
01 100,0 [5E31FFAA] [3C2569FD] CRC32
02 97,7 [4D0AC316] [C5C65377] CRC32
03 97,7 [ACEA444F] [CA406D1F] CRC32
04 88,3 [81EF947D] [6CF3A7AD] CRC32
05 100,0 [CA16D14E] [9563DFF4] CRC32
06 100,0 [53222C58] [813DAFAB] CRC32
07 97,1 [36913144] [425E5600] CRC32
08 92,3 [BBA174BF] [1488664F] CRC32
09 100,0 [1BE4B680] [85728CFD] CRC32
10 87,1 [624BD46D] [6725C334] CRC32
11 79,2 [ED215EF6] [5FBBD28B] CRC32
12 95,6 [9208CDA9] [1BF10B26] CRC32
13 100,0 [08065F8F] [2D026019] CRC32
14 98,3 [27BE2FE7] [30833A8D] CRC32
15 93,3 [C3422979] [6496AD34] CRC32
16 89,8 [FAA52237] [0C9A1D9E] CRC32
17 68,6 [AC4A004F] [04728237] CRC32
18 86,2 [FC9225F7] [FB84813D] CRC32


original uploader unknown, found in my archive
Datafile

Yunfile


password: asd