Subcategories

Nicholas McGegan, Philharmonia Baroque Orchestra - Handel: Susanna (1990)

Posted By: tirexiss
Nicholas McGegan, Philharmonia Baroque Orchestra - Handel: Susanna (1990)

Nicholas McGegan, Philharmonia Baroque Orchestra - Handel: Susanna (1990)
EAC | FLAC (image+.cue, log) | Covers Included | 02:58:22 | 970 MB
Genre: Classical, Choral | Label: Harmonia Mundi France | Catalog: 907168

George Frideric Handel (1685 - 1759): Susanna. Oratorio. First performed 1749. Complete version including all the music that Handel later deleted. Performed by Lorraine Hunt and Jill Feldman, soprano, Drew Minter, countertenor, Jeffrey Thomas, tenor, David Thomas and William Parker, bass; the U.C. Berkely Chamber Choir; the Philharmonia Baroque Orchestra, San Francisco, conducted by Nicholas McGegan.
Recorded live in September, 1989, at the Hertz Hall at the University of California.

What a pity that Harmonia Mundi has deleted this first full recording of Handel's late oratorio "Susanna" from its catalogue. If, like me, you can manage to get hold of a second-hand copy, then do so by all means, for this Gramophone Award-winning set of discs is good for many hours of intensely pleasurable listening and provides insights into Handel's later style that are denied those who limit themselves to "Messiah" and "Israel in Egypt" or to his more dynamic, perhaps even blustery early works and operas. "Susanna", the story taken from a piece of Jewish writing from the 2nd century B. C. (and usually included in the "Apocrypha"), is a comparatively small-scale work with a lot of intimate writing: Lorraine Hunt, soprano, as Susanna, and Drew Minter, countertenor, as her husband Joacim, have wreaths of delightful airs in which they praise either each other or the delights of love and virtue. Both have comparatively small voices, not perhaps served particularly well by the dry and somewhat distant acoustic of this live recording, but while listening via headphones I came to the conclusion that this was, by far, the best McGegan recording I had heard to date and that the two singers mentioned were, stylistically, among the best Handel singers I have ever come across. Lorraine Hunt is wonderfully expressive, her voice seeming ideally to suit the pensive and intimate mood of this music, while Drew Minter impresses again and again with his ornamentation. The two villains of the piece, two Jewish elders who first attempt to rape Susanna and then, on being rebuffed, accuse her of adultery and have her sentenced to death, are sung by Jeffrey Thomas and David Thomas, two contrasting voices who here seem to capture perfectly the combination of perfidious hypocrisy and malevolent lust that Handel's libretto has woven into their texts. Although I am not a great fan of David Thomas's rather throaty bass, I must say that I found him here in magnificent form, ideally complementing Jeffrey Thomas, who here sounds, to my ears, a lot more convincing than on the McGegan recording of "La Resurrezione". The smaller roles are song by William Parker, bass, who acquits himself well, and by the boyish-sounding Jill Feldman, soprano, who had already captured my admiring attention on her earlier recordings with William Christie's Les Arts Florissants: here, again, I found her small but extremely pure voice to be absolutely delectable. - The relatively small contribution made by the choir is very well captured, although I found myself thinking that there was not really a comparison between the large Berkeley Chamber Choir (around 48 singers) and, for example, John Eliot Gardiner's Monteverdi Choir on recordings such as "Solomon" for Philips. The smallish Philharmonia Baroque Orchestra produces beautiful music despite the lack of volume in the strings, and the harpsichord continuo (McGegan himself with Philip Brett and a continuo team) is always lively and keeps one on one's listening toes. Handel was remarkably reticent in this oratorio, and he only introduces trumpets very briefly towards the end of the third part, where they are played skilfully and accurately, something that is not always the case with natural trumpets.
All in all, a marvelous listening experience. The recordings were made live at two performances, but I only detected the slightest amount of stage or audience noise, and there is no applause at the end.

Nicholas McGegan, Philharmonia Baroque Orchestra - Handel: Susanna (1990)

Track List:

CD 1:
01 Overture
02 How long, oh Lord, shall Israel groan?
03 Clouds o'ertake the brightest day
04 When thou art nigh
05 Who fears the Lord may dare all foes
06 When first I saw my lovely maid
07 Would custom bid
08 Peace crown'd with roses
09 Without the swain's assiduous care
10 The parent bird in search of food
11 On Joacim may every joy attend
12 Bending to the throne of glory
13 Tyrannic love
14 Ye verdant bills, ye balmy vales
15 Say, is it fit that age?
16 The oak that for a thousand years
17 When the trumpet sounds to arms
18 Righteous heav'n beholds their guile

Exact Audio Copy V1.3 from 2. September 2016

EAC extraction logfile from 19. February 2017, 4:42

Georg Friedrich Händel; Philharmonia Baroque Orchestra, UC Berkeley Chamber Chorus, Nicholas McGegan / Susanna

Used drive : HL-DT-STDVDRAM GSA-4081B Adapter: 1 ID: 1

Read mode : Secure
Utilize accurate stream : Yes
Defeat audio cache : Yes
Make use of C2 pointers : No

Read offset correction : 667
Overread into Lead-In and Lead-Out : No
Fill up missing offset samples with silence : Yes
Delete leading and trailing silent blocks : No
Null samples used in CRC calculations : Yes
Used interface : Native Win32 interface for Win NT & 2000

Used output format : User Defined Encoder
Selected bitrate : 768 kBit/s
Quality : High
Add ID3 tag : No
Command line compressor : C:\Program Files\Exact Audio Copy\FLAC\FLAC.EXE
Additional command line options : -6 -V -T "ARTIST=%artist%" -T "TITLE=%title%" -T "ALBUM=%albumtitle%" -T "DATE=%year%" -T "TRACKNUMBER=%tracknr%" -T "GENRE=%genre%" -T "COMMENT=%comment%" -T "BAND=%albuminterpret%" -T "ALBUMARTIST=%albuminterpret%" -T "COMPOSER=%composer%" %haslyrics%–tag-from-file=LYRICS="%lyricsfile%"%haslyrics% -T "DISCNUMBER=%cdnumber%" -T "TOTALDISCS=%totalcds%" -T "TOTALTRACKS=%numtracks%" %hascover%–picture="%coverfile%"%hascover% %source% -o %dest%


TOC of the extracted CD

Track | Start | Length | Start sector | End sector
––––––––––––––––––––––––––––-
1 | 0:00.33 | 4:20.17 | 33 | 19549
2 | 4:20.50 | 3:31.43 | 19550 | 35417
3 | 7:52.18 | 5:01.27 | 35418 | 58019
4 | 12:53.45 | 4:15.18 | 58020 | 77162
5 | 17:08.63 | 4:24.00 | 77163 | 96962
6 | 21:32.63 | 4:39.40 | 96963 | 117927
7 | 26:12.28 | 7:05.37 | 117928 | 149839
8 | 33:17.65 | 2:09.53 | 149840 | 159567
9 | 35:27.43 | 6:36.65 | 159568 | 189332
10 | 42:04.33 | 5:19.15 | 189333 | 213272
11 | 47:23.48 | 1:13.32 | 213273 | 218779
12 | 48:37.05 | 5:23.40 | 218780 | 243044
13 | 54:00.45 | 1:46.38 | 243045 | 251032
14 | 55:47.08 | 2:48.05 | 251033 | 263637
15 | 58:35.13 | 2:09.45 | 263638 | 273357
16 | 60:44.58 | 3:32.57 | 273358 | 289314
17 | 64:17.40 | 4:08.20 | 289315 | 307934
18 | 68:25.60 | 5:11.03 | 307935 | 331262


Range status and errors

Selected range

Filename C:\Users\Miguel Angel\Downloads\Georg Friedrich Händel; Philharmonia Baroque Orchestra, UC Berkeley Chamber Chorus, Nicholas McGegan - Susanna.wav

Peak level 100.0 %
Extraction speed 4.5 X
Range quality 100.0 %
Test CRC FD407E9D
Copy CRC FD407E9D
Copy OK

No errors occurred


AccurateRip summary

Track 1 accurately ripped (confidence 19) [C0819B12] (AR v2)
Track 2 accurately ripped (confidence 19) [E49BA7C3] (AR v2)
Track 3 accurately ripped (confidence 19) [1E375666] (AR v2)
Track 4 accurately ripped (confidence 18) [E2AB23E6] (AR v2)
Track 5 accurately ripped (confidence 18) [B770CA04] (AR v2)
Track 6 accurately ripped (confidence 19) [95FF9DBA] (AR v2)
Track 7 accurately ripped (confidence 18) [CC477DA9] (AR v2)
Track 8 accurately ripped (confidence 19) [627353F2] (AR v2)
Track 9 accurately ripped (confidence 18) [77B43775] (AR v2)
Track 10 accurately ripped (confidence 17) [863C34AD] (AR v2)
Track 11 accurately ripped (confidence 17) [7BC894D4] (AR v2)
Track 12 accurately ripped (confidence 17) [6665E5BF] (AR v2)
Track 13 accurately ripped (confidence 17) [C2D10722] (AR v2)
Track 14 accurately ripped (confidence 17) [0262CF49] (AR v2)
Track 15 accurately ripped (confidence 17) [EE68DF71] (AR v2)
Track 16 accurately ripped (confidence 17) [52AFE843] (AR v2)
Track 17 accurately ripped (confidence 17) [95562F3E] (AR v2)
Track 18 accurately ripped (confidence 17) [69F8CCE7] (AR v2)

All tracks accurately ripped

End of status report

–– CUETools DB Plugin V2.1.6

[CTDB TOCID: AiZLdmq4emFBtns8EKq8rPnfnHI-] found
Submit result: AiZLdmq4emFBtns8EKq8rPnfnHI- has been confirmed
Track | CTDB Status
1 | (8/9) Accurately ripped
2 | (8/9) Accurately ripped
3 | (9/9) Accurately ripped
4 | (9/9) Accurately ripped
5 | (9/9) Accurately ripped
6 | (9/9) Accurately ripped
7 | (9/9) Accurately ripped
8 | (9/9) Accurately ripped
9 | (8/9) Accurately ripped
10 | (9/9) Accurately ripped
11 | (9/9) Accurately ripped
12 | (9/9) Accurately ripped
13 | (9/9) Accurately ripped
14 | (9/9) Accurately ripped
15 | (9/9) Accurately ripped
16 | (9/9) Accurately ripped
17 | (8/9) Accurately ripped
18 | (8/9) Accurately ripped

[CUETools log; Date: 20.02.2017 13:32:40; Version: 2.1.5]
Pregap length 00:00:33.
[CTDB TOCID: AiZLdmq4emFBtns8EKq8rPnfnHI-] found.
Track | CTDB Status
1 | ( 9/10) Accurately ripped
2 | ( 9/10) Accurately ripped
3 | (10/10) Accurately ripped
4 | (10/10) Accurately ripped
5 | (10/10) Accurately ripped
6 | (10/10) Accurately ripped
7 | (10/10) Accurately ripped
8 | (10/10) Accurately ripped
9 | ( 9/10) Accurately ripped
10 | (10/10) Accurately ripped
11 | (10/10) Accurately ripped
12 | (10/10) Accurately ripped
13 | (10/10) Accurately ripped
14 | (10/10) Accurately ripped
15 | (10/10) Accurately ripped
16 | (10/10) Accurately ripped
17 | ( 9/10) Accurately ripped
18 | ( 9/10) Accurately ripped
[AccurateRip ID: 003248e0-0296a718-1b114012] found.
Track [ CRC | V2 ] Status
01 [e03319e4|c0819b12] (08+19/27) Accurately ripped
02 [f2d614bf|e49ba7c3] (08+19/27) Accurately ripped
03 [df158a03|1e375666] (07+19/26) Accurately ripped
04 [63b6848d|e2ab23e6] (08+18/26) Accurately ripped
05 [c91a9f23|b770ca04] (08+18/26) Accurately ripped
06 [2b1a3384|95ff9dba] (08+19/27) Accurately ripped
07 [30321f9a|cc477da9] (08+18/26) Accurately ripped
08 [1338ddbf|627353f2] (08+19/27) Accurately ripped
09 [16ceebf3|77b43775] (08+18/26) Accurately ripped
10 [e6ab11d8|863c34ad] (08+17/25) Accurately ripped
11 [3f8a5aa5|7bc894d4] (08+17/25) Accurately ripped
12 [75ecc5b5|6665e5bf] (08+17/25) Accurately ripped
13 [1331b636|c2d10722] (08+17/25) Accurately ripped
14 [61ba20b2|0262cf49] (08+17/25) Accurately ripped
15 [d829a247|ee68df71] (08+17/25) Accurately ripped
16 [67e215e8|52afe843] (09+17/26) Accurately ripped
17 [1d14dd79|95562f3e] (09+17/26) Accurately ripped
18 [862e3999|69f8cce7] (09+17/26) Accurately ripped

Track Peak [ CRC32 ] [W/O NULL] [ LOG ]
– 100,0 [FD407E9D] [E302B58D] CRC32
01 34,0 [A689955F] [8F23BF9C]
02 78,8 [7191E7FB] [B5E7F69A]
03 36,6 [151DFDB5] [4BACE08B]
04 57,1 [B3D59A19] [E2F68F34]
05 52,0 [ACEE1AFE] [ECC8C228]
06 50,3 [90FB0325] [404A8574]
07 48,8 [50154D8F] [93DBA568]
08 41,3 [3F927A23] [09F3C001]
09 52,3 [FB1927BD] [096769FA]
10 50,8 [742E5FB5] [7A0DCE1C]
11 30,2 [3DEEE76E] [2016C938]
12 56,9 [FE065973] [773500DF]
13 44,0 [A2536DF2] [660FB020]
14 37,0 [3B9FEEED] [8C37EB1E]
15 36,7 [69BAE0A1] [0F6A0FE9]
16 52,5 [E6E9CB7B] [1EAD4D3C]
17 43,7 [AA010435] [D379C984]
18 100,0 [CDC3EF30] [D7BD1CE1]

CD 2:
01 Frost nips the flowers
02 On fair Euphrates' verdant side
03 Lead me to some cool retreat
04 Crystal streams in murmurs flowing
05 Ask if you damask rose
06 Beneath the cypress' gloomy shade
07 But hark, what sudden noise?
08 Blooming as the face of spring
09 The torrent that sweeps in its course
10 Away, ye tempt me both in vain
12 If guiltless blood be your intent
13 Let justice reign
14 Is fair Susanna false?
15 On the rapid whirlwind's wing
16 Oh Joacim, thy wedded truth

Exact Audio Copy V1.3 from 2. September 2016

Archivo Log de extracciones desde 19. Febrero 2017, 2:40

Nicholas McGegan / Handel: Susanna (Disc 2)

Usar unidad : hp CDDVDW SU-208GB Adapter: 1 ID: 0

Modo de Lectura : : Seguro
Utilizar corriente precisa : Sí
Caché de audio por defecto : Sí
Utilizar los punteros C2 : No

Corrección de Desplazamiento de Lectura : : 6
Sobreleer tanto en Lead-In como en Lead-Out : No
Rellenar las muestras faltantes con silencios : Sí
Eliminar silencios inicial y final : No
Muestras nulas usadas en los calculos de CRC : Sí
Interfaz usada : Interfaz propio de Win32 para Windowns NT y 2000

Formato de Salida utilizado : : Compresor definido por el Usuario
Velocidad de bits seleccionada : 768 kBit/s
Calidad : Alta
Añadir ID3 tag : No
linea de comandos del compresor : C:\Program Files (x86)\Exact Audio Copy\FLAC\FLAC.EXE
Opciones adicionales en línea de comandos : : -6 -V -T "ARTIST=%artist%" -T "TITLE=%title%" -T "ALBUM=%albumtitle%" -T "DATE=%year%" -T "TRACKNUMBER=%tracknr%" -T "GENRE=%genre%" -T "COMMENT=%comment%" -T "BAND=%albuminterpret%" -T "ALBUMARTIST=%albuminterpret%" -T "COMPOSER=%composer%" %haslyrics%–tag-from-file=LYRICS="%lyricsfile%"%haslyrics% -T "DISCNUMBER=%cdnumber%" -T "TOTALDISCS=%totalcds%" -T "TOTALTRACKS=%numtracks%" %hascover%–picture="%coverfile%"%hascover% %source% -o %dest%


TOC extraídos del CD

Pista | Inicio | Longitud | Inicio del sector | Fin del sector
–––––––––––––––––––––––––––––––––
1 | 0:00.33 | 0:31.67 | 33 | 2424
2 | 0:32.25 | 5:59.65 | 2425 | 29414
3 | 6:32.15 | 0:16.50 | 29415 | 30664
4 | 6:48.65 | 8:32.70 | 30665 | 69134
5 | 15:21.60 | 2:58.03 | 69135 | 82487
6 | 18:19.63 | 2:31.35 | 82488 | 93847
7 | 20:51.23 | 0:23.30 | 93848 | 95602
8 | 21:14.53 | 5:03.52 | 95603 | 118379
9 | 26:18.30 | 4:36.30 | 118380 | 139109
10 | 30:54.60 | 2:12.45 | 139110 | 149054
11 | 33:07.30 | 0:37.35 | 149055 | 151864
12 | 33:44.65 | 8:39.55 | 151865 | 190844
13 | 42:24.45 | 2:00.05 | 190845 | 199849
14 | 44:24.50 | 0:31.30 | 199850 | 202204
15 | 44:56.05 | 4:53.03 | 202205 | 224182
16 | 49:49.08 | 3:50.20 | 224183 | 241452


Gama de estados y errores

Seleccionar gama

Nombre de Archivo C:\Users\MATS\Downloads\Nicholas McGegan - Handel- Susanna (Disc 2).wav

Nivel Pico 82.0 %
Velocidad de extracción 1.8 X
Gama de Calidad 100.0 %
Comprobación CRC D39169B1
Copiar CRC D39169B1
Copia OK

Sin Errores


Sumario AccurateRip

Pista 1 extraido con precisión (confidencia 18) [1CB57FD4] (AR v2)
Pista 2 extraido con precisión (confidencia 19) [023C1A82] (AR v2)
Pista 3 extraido con precisión (confidencia 19) [6F32BA80] (AR v2)
Pista 4 extraido con precisión (confidencia 19) [0EA0EBF7] (AR v2)
Pista 5 extraido con precisión (confidencia 19) [3A35FEE1] (AR v2)
Pista 6 extraido con precisión (confidencia 19) [769792A9] (AR v2)
Pista 7 extraido con precisión (confidencia 19) [59D8082B] (AR v2)
Pista 8 extraido con precisión (confidencia 19) [D9E65D1D] (AR v2)
Pista 9 extraido con precisión (confidencia 19) [D55DADFE] (AR v2)
Pista 10 extraido con precisión (confidencia 19) [B81B55DD] (AR v2)
Pista 11 extraido con precisión (confidencia 19) [691CED64] (AR v2)
Pista 12 extraido con precisión (confidencia 17) [CB9C8529] (AR v2)
Pista 13 extraido con precisión (confidencia 18) [8B1BBAB1] (AR v2)
Pista 14 extraido con precisión (confidencia 19) [D008FF2A] (AR v2)
Pista 15 extraido con precisión (confidencia 19) [76BD9B69] (AR v2)
Pista 16 extraido con precisión (confidencia 19) [75A75993] (AR v2)

Todas las pistas extraidas con precisión

Final del Informe

–– CUETools DB Plugin V2.1.6

[CTDB TOCID: AxdkYJxqEed1m.QixkU5rZxEFic-] found
Submit result: AxdkYJxqEed1m.QixkU5rZxEFic- has been confirmed
Track | CTDB Status
1 | (8/8) Accurately ripped
2 | (8/8) Accurately ripped
3 | (8/8) Accurately ripped
4 | (8/8) Accurately ripped
5 | (8/8) Accurately ripped
6 | (8/8) Accurately ripped
7 | (8/8) Accurately ripped
8 | (8/8) Accurately ripped
9 | (8/8) Accurately ripped
10 | (8/8) Accurately ripped
11 | (8/8) Accurately ripped
12 | (8/8) Accurately ripped
13 | (8/8) Accurately ripped
14 | (8/8) Accurately ripped
15 | (8/8) Accurately ripped
16 | (8/8) Accurately ripped

[CUETools log; Date: 20.02.2017 13:33:04; Version: 2.1.5]
Pregap length 00:00:33.
[CTDB TOCID: AxdkYJxqEed1m.QixkU5rZxEFic-] found.
Track | CTDB Status
1 | (9/9) Accurately ripped
2 | (9/9) Accurately ripped
3 | (9/9) Accurately ripped
4 | (9/9) Accurately ripped
5 | (9/9) Accurately ripped
6 | (9/9) Accurately ripped
7 | (9/9) Accurately ripped
8 | (9/9) Accurately ripped
9 | (9/9) Accurately ripped
10 | (9/9) Accurately ripped
11 | (9/9) Accurately ripped
12 | (9/9) Accurately ripped
13 | (9/9) Accurately ripped
14 | (9/9) Accurately ripped
15 | (9/9) Accurately ripped
16 | (9/9) Accurately ripped
[AccurateRip ID: 001ed4ce-01745175-e40c9310] found.
Track [ CRC | V2 ] Status
01 [5f182e9d|1cb57fd4] (09+18/27) Accurately ripped
02 [5abe12a8|023c1a82] (09+19/28) Accurately ripped
03 [004ef0b9|6f32ba80] (09+19/28) Accurately ripped
04 [127a2c96|0ea0ebf7] (09+19/28) Accurately ripped
05 [757029cf|3a35fee1] (09+19/28) Accurately ripped
06 [b37bd1df|769792a9] (09+19/28) Accurately ripped
07 [b727b32d|59d8082b] (09+19/28) Accurately ripped
08 [ed67fb93|d9e65d1d] (09+19/28) Accurately ripped
09 [e2c97cdb|d55dadfe] (09+19/28) Accurately ripped
10 [f06b2a93|b81b55dd] (09+19/28) Accurately ripped
11 [64e98016|691ced64] (09+19/28) Accurately ripped
12 [bf476687|cb9c8529] (09+17/26) Accurately ripped
13 [ccdb3cc2|8b1bbab1] (08+18/26) Accurately ripped
14 [64e2a3a9|d008ff2a] (09+19/28) Accurately ripped
15 [68baf8e2|76bd9b69] (09+19/28) Accurately ripped
16 [e61d2da0|75a75993] (09+19/28) Accurately ripped

Track Peak [ CRC32 ] [W/O NULL]
– 82,0 [D39169B1] [E4A9241E]
01 27,6 [58930238] [EA212948]
02 47,8 [7CA4EA94] [566CBA63]
03 19,1 [64638AC8] [54E7D22D]
04 46,2 [267D76C5] [36A5566C]
05 25,5 [27AC91A1] [98DFDF36]
06 24,1 [C4154413] [14253CCC]
07 50,4 [AF5607EB] [BF3430FC]
08 52,8 [723752FE] [E36719AB]
09 57,1 [C54B79A0] [CD33DFFB]
10 60,5 [DFE1E117] [8ADA1DC2]
11 28,8 [95FDF02C] [E7FA869A]
12 71,8 [6B859FA9] [AD89832D]
13 70,7 [24947A23] [2D6DC598]
14 18,4 [801C6437] [FA3E522F]
15 49,0 [67CE1F0A] [D97E9012]
16 82,0 [613C4D2D] [0FC46790]

CD 3:
01 The cause is decided
02 Faith displays her rosy wing
03 Round thy urn my tears shall flow
04 'Tis not age's sullen face
05 Impartial heav'n
06 Chasity, thou cherub bright
07 Gold within the furnace try'd
08 Raise your voice to sounds of joy
09 Bless'd be the day that gave Susanna birth
10 Guilt trembling spoke my doom
11 To my chaste Susanna's praise
12 A virtuous wife shall soften Fortune's frown

Exact Audio Copy V1.3 from 2. September 2016

EAC extraction logfile from 19. February 2017, 4:05

Philharmonia Baroque with UC Berkeley Chamber Chorus / Handel: Susanna disc 3

Used drive : HL-DT-STDVDRAM GSA-4081B Adapter: 1 ID: 1

Read mode : Secure
Utilize accurate stream : Yes
Defeat audio cache : Yes
Make use of C2 pointers : No

Read offset correction : 667
Overread into Lead-In and Lead-Out : No
Fill up missing offset samples with silence : Yes
Delete leading and trailing silent blocks : No
Null samples used in CRC calculations : Yes
Used interface : Native Win32 interface for Win NT & 2000

Used output format : User Defined Encoder
Selected bitrate : 768 kBit/s
Quality : High
Add ID3 tag : No
Command line compressor : C:\Program Files\Exact Audio Copy\FLAC\FLAC.EXE
Additional command line options : -6 -V -T "ARTIST=%artist%" -T "TITLE=%title%" -T "ALBUM=%albumtitle%" -T "DATE=%year%" -T "TRACKNUMBER=%tracknr%" -T "GENRE=%genre%" -T "COMMENT=%comment%" -T "BAND=%albuminterpret%" -T "ALBUMARTIST=%albuminterpret%" -T "COMPOSER=%composer%" %haslyrics%–tag-from-file=LYRICS="%lyricsfile%"%haslyrics% -T "DISCNUMBER=%cdnumber%" -T "TOTALDISCS=%totalcds%" -T "TOTALTRACKS=%numtracks%" %hascover%–picture="%coverfile%"%hascover% %source% -o %dest%


TOC of the extracted CD

Track | Start | Length | Start sector | End sector
––––––––––––––––––––––––––––-
1 | 0:00.33 | 1:59.52 | 33 | 9009
2 | 2:00.10 | 4:18.30 | 9010 | 28389
3 | 6:18.40 | 4:53.08 | 28390 | 50372
4 | 11:11.48 | 5:42.55 | 50373 | 76077
5 | 16:54.28 | 6:34.20 | 76078 | 105647
6 | 23:28.48 | 6:45.65 | 105648 | 136087
7 | 30:14.38 | 4:19.42 | 136088 | 155554
8 | 34:34.05 | 3:14.23 | 155555 | 170127
9 | 37:48.28 | 2:00.37 | 170128 | 179164
10 | 39:48.65 | 6:34.60 | 179165 | 208774
11 | 46:23.50 | 2:52.18 | 208775 | 221692
12 | 49:15.68 | 1:51.15 | 221693 | 230032


Range status and errors

Selected range

Filename C:\Users\Miguel Angel\Downloads\Philharmonia Baroque with UC Berkeley Chamber Chorus - Handel- Susanna disc 3.wav

Peak level 97.6 %
Extraction speed 4.2 X
Range quality 99.9 %
Test CRC 1AE27DF2
Copy CRC 1AE27DF2
Copy OK

No errors occurred


AccurateRip summary

Track 1 accurately ripped (confidence 19) [2A2AA9DE] (AR v2)
Track 2 accurately ripped (confidence 19) [F74DBA2E] (AR v2)
Track 3 accurately ripped (confidence 19) [4B3FDE90] (AR v2)
Track 4 accurately ripped (confidence 18) [CF42258A] (AR v2)
Track 5 accurately ripped (confidence 18) [0B87EDFC] (AR v2)
Track 6 accurately ripped (confidence 18) [737E15CE] (AR v2)
Track 7 accurately ripped (confidence 19) [DF4661F3] (AR v2)
Track 8 accurately ripped (confidence 19) [50659A4F] (AR v2)
Track 9 accurately ripped (confidence 19) [3F560312] (AR v2)
Track 10 accurately ripped (confidence 19) [B23DB203] (AR v2)
Track 11 accurately ripped (confidence 19) [353A378C] (AR v2)
Track 12 accurately ripped (confidence 19) [08203FE9] (AR v2)

All tracks accurately ripped

End of status report

–– CUETools DB Plugin V2.1.6

[CTDB TOCID: DRGFM95z7GIKV9xBsgom.Qi0drw-] found
Submit result: DRGFM95z7GIKV9xBsgom.Qi0drw- has been confirmed
Track | CTDB Status
1 | (8/8) Accurately ripped
2 | (8/8) Accurately ripped
3 | (8/8) Accurately ripped
4 | (8/8) Accurately ripped
5 | (8/8) Accurately ripped
6 | (8/8) Accurately ripped
7 | (8/8) Accurately ripped
8 | (8/8) Accurately ripped
9 | (8/8) Accurately ripped
10 | (8/8) Accurately ripped
11 | (8/8) Accurately ripped
12 | (8/8) Accurately ripped

[CUETools log; Date: 20.02.2017 13:33:43; Version: 2.1.5]
Pregap length 00:00:33.
[CTDB TOCID: DRGFM95z7GIKV9xBsgom.Qi0drw-] found.
Track | CTDB Status
1 | (9/9) Accurately ripped
2 | (9/9) Accurately ripped
3 | (9/9) Accurately ripped
4 | (9/9) Accurately ripped
5 | (9/9) Accurately ripped
6 | (9/9) Accurately ripped
7 | (9/9) Accurately ripped
8 | (9/9) Accurately ripped
9 | (9/9) Accurately ripped
10 | (9/9) Accurately ripped
11 | (9/9) Accurately ripped
12 | (9/9) Accurately ripped
[AccurateRip ID: 0017f899-00e19e49-950bfb0c] found.
Track [ CRC | V2 ] Status
01 [8df73152|2a2aa9de] (09+19/28) Accurately ripped
02 [00bf404d|f74dba2e] (09+19/28) Accurately ripped
03 [f96ffc47|4b3fde90] (09+19/28) Accurately ripped
04 [4d459beb|cf42258a] (08+18/26) Accurately ripped
05 [393ef2af|0b87edfc] (09+18/27) Accurately ripped
06 [510199b6|737e15ce] (09+18/27) Accurately ripped
07 [9ffbf8d6|df4661f3] (09+19/28) Accurately ripped
08 [61c4902b|50659a4f] (09+19/28) Accurately ripped
09 [9f2d0e35|3f560312] (09+19/28) Accurately ripped
10 [037b327e|b23db203] (08+19/27) Accurately ripped
11 [c9adce97|353a378c] (09+19/28) Accurately ripped
12 [56fe3755|08203fe9] (09+19/28) Accurately ripped

Track Peak [ CRC32 ] [W/O NULL] [ LOG ]
– 97,6 [1AE27DF2] [9C39AE27] CRC32
01 75,0 [AE3DBBF6] [B080E853]
02 45,6 [9D0E7341] [27E542BA]
03 45,8 [EFC0342C] [FE0C4654]
04 27,8 [28246118] [BEAB33AE]
05 65,8 [8B91B216] [F96B42E6]
06 29,4 [C76F1CFC] [0E2E9A32]
07 55,7 [F48D3012] [2A11CE8A]
08 45,0 [E63EF38C] [4F7BB751]
09 97,6 [B062D7FF] [C7B9B463]
10 73,9 [2CCA3473] [D5434753]
11 58,9 [4E71B67C] [9255BCD6]
12 63,5 [F8A0B736] [8E918714]

Performers:
Lorraine Hunt & Jill Feldman, soprano
Drew Minter, countertenor
Jeffrey Thomas, tenor
David Thomas & William Parker, bass
U.C. Berkely Chamber Choir
conducted by Philip Brett
Philharmonia Baroque Orchestra, San Francisco
conducted by Nicholas McGegan

Thanks to the Original ripper (unknown)!

Download: