Subcategories

Nick Cave and the Bad Seeds - Kicking Against the Pricks (1986) [Remastered, CD & DVD]

Posted By: v3122
Nick Cave and the Bad Seeds - Kicking Against the Pricks (1986) [Remastered, CD & DVD]

Nick Cave and the Bad Seeds - Kicking Against the Pricks (1986)
EAC | Flac(Image) + Cue + Log & MP3 CBR 320Kbps
2009 | Mute, CDSEEDS3/5099923699922 | ~ 287 or 110 Mb | Scans(jpg) -> 17 Mb
DVD9: NTSC 16:9 (720x480) VBR, Auto Letterboxed
DTS, 6 ch / Dolby AC3, 6 ch / LPCM, 2 ch -> 6.01 Gb
Alternative Rock, Post-Punk

Besides being noteworthy as an astonishingly good all-covers album, Kicking Against the Pricks is notable for the arrival of a new key member for the Seeds, drummer Thomas Wydler. Besides being a fine percussionist, able to perform at both the explosive and restrained levels Cave requires, Wydler also allowed Harvey to concentrate on adding guitar and keyboards live as well as in the studio, a notable bonus. Race reappears briefly to add some guitar while former Birthday Party cohorts Rowland Howard and Tracy Pew guest as well, the latter on some of his last tracks before his untimely death. The selection of songs is quite impressive, ranging from old standards like "Long Black Veil" to everything from John Lee Hooker's "I'm Gonna Kill That Woman" and Gene Pitney's pop aria "Something's Gotten Hold of My Heart." Matching the range of material, the Seeds are well on their way to becoming the rock/cabaret/blues showband of Cave's dreams, able to conjure up haunting, winsome atmospheres ("Sleeping Annaleah") as much as higher-volume takes (Roy Orbison's "Running Scared," the Velvet Underground's "All Tomorrow's Parties"). The version of Leadbelly's "Black Betty" is particularly grand, Harvey's drumming driving the track with ominous power. This said, often holding everything back is the key, as the creepout build of "Hey Joe" demonstrates. Even more striking is how Cave's own vocals rebut the charges that all he ever does is overdramatize everything he sings – consider the husky, purring delivery on Johnny Cash's "The Singer." Other winners include a masterful version of Jimmy Webb's "By the Time I Get to Phoenix" and the stately, album-closing "The Carnival Is Over," originally a mid-'60s hit for the Seekers.

by Ned Raggett, allmusic
Nick Cave and the Bad Seeds - Kicking Against the Pricks (1986):

Tracklist CD:

Muddy Water
I’m Gonna Kill That Woman
Sleeping Annaleah
Long Black Veil
Hey Joe
The Singer
All Tomorrows Parties
By The Time I Get To Phoenix
The Hammer Song
Something’s Gotten Hold Of My Heart
Jesus Met The Woman At The Well
The Carnival is Over

Exact Audio Copy V0.99 prebeta 5 from 4. May 2009

Отчёт EAC об извлечении, выполненном 9. августа 2009, 18:04

Nick Cave anf the Bad Seeds / Kicking Against the Pricks [R1]

Дисковод: TSSTcorpCDDVDW TS-L632H Adapter: 0 ID: 0

Режим чтения : Достоверность
Использование точного потока : Да
Отключение кэша аудио : Да
Использование указателей C2 : Нет

Коррекция смещения при чтении : 6
Способность читать области Lead-in и Lead-out : Нет
Заполнение пропущенных сэмплов тишиной : Да
Удаление блоков с тишиной в начале и конце : Нет
При вычислениях CRC использовались нулевые сэмплы : Да
Интерфейс : Встроенный Win32-интерфейс для Win NT/2000

Выходной формат : Пользовательский кодировщик
Выбранный битрейт : 1024 kBit/s
Качество : Высокий
Добавление ID3-тэга : Нет
Утилита сжатия : C:\Program Files\Exact Audio Copy\FLAC\FLAC.EXE
Дополнительные параметры : -6 -V -T "ARTIST=%a" -T "TITLE=%t" -T "ALBUM=%g" -T "DATE=%y" -T "TRACKNUMBER=%n" -T "GENRE=%m" -T "COMMENT=%e" %s -o %d


TOC извлечённого CD

Трек | Старт | Длительность | Начальный сектор | Конечный сектор
––––––––––––––––––––––––––––––––––-
1 | 0:00.00 | 5:17.14 | 0 | 23788
2 | 5:17.14 | 3:44.26 | 23789 | 40614
3 | 9:01.40 | 3:18.24 | 40615 | 55488
4 | 12:19.64 | 3:46.62 | 55489 | 72500
5 | 16:06.51 | 3:56.35 | 72501 | 90235
6 | 20:03.11 | 3:08.64 | 90236 | 104399
7 | 23:12.00 | 5:52.13 | 104400 | 130812
8 | 29:04.13 | 3:39.53 | 130813 | 147290
9 | 32:43.66 | 3:50.15 | 147291 | 164555
10 | 36:34.06 | 3:44.67 | 164556 | 181422
11 | 40:18.73 | 2:00.25 | 181423 | 190447
12 | 42:19.23 | 3:14.64 | 190448 | 205061


Характеристики диапазона извлечения и сообщения об ошибках

Выбранный диапазон

Имя файла D:\newCAVE\Nick Cave anf the Bad Seeds - Kicking Against the Pricks [R1].wav

Пиковый уровень 100.0 %
Качество диапазона 100.0 %
CRC теста B5CB0B25
CRC копии B5CB0B25
Копирование… OK

Ошибок не произошло


AccurateRip: сводка

Трек 1 точное извлечение (доверие 7) [42A8015B]
Трек 2 точное извлечение (доверие 7) [F39406E7]
Трек 3 точное извлечение (доверие 7) [4999AED4]
Трек 4 точное извлечение (доверие 7) [BE01B069]
Трек 5 точное извлечение (доверие 7) [B6CE3DA2]
Трек 6 точное извлечение (доверие 7) [E11942B5]
Трек 7 точное извлечение (доверие 7) [76D36B77]
Трек 8 точное извлечение (доверие 7) [DDBFBF92]
Трек 9 точное извлечение (доверие 7) [C42F31AF]
Трек 10 точное извлечение (доверие 7) [CFF59A96]
Трек 11 точное извлечение (доверие 7) [FA7686A4]
Трек 12 точное извлечение (доверие 7) [AE0A1AC4]

Все треки извлечены точно

Конец отчёта


[CUETools log; Date: 27.04.2018 14:55:24; Version: 2.1.5]
[AccurateRip ID: 0015769f-00c6389b-a40aae0c] found.
Track [ CRC | V2 ] Status
01 [42a8015b|7e356464] (038+064/111) Accurately ripped
02 [f39406e7|820270ed] (039+065/113) Accurately ripped
03 [4999aed4|73660898] (039+065/113) Accurately ripped
04 [be01b069|17556117] (039+065/113) Accurately ripped
05 [b6ce3da2|65a7ba8a] (039+064/112) Accurately ripped
06 [e11942b5|d81d07be] (039+065/113) Accurately ripped
07 [76d36b77|e3cbfa7a] (039+065/113) Accurately ripped
08 [ddbfbf92|6cedd7c3] (039+064/112) Accurately ripped
09 [c42f31af|598c59b7] (039+064/112) Accurately ripped
10 [cff59a96|2cedaadd] (039+064/112) Accurately ripped
11 [fa7686a4|5757b48e] (039+065/113) Accurately ripped
12 [ae0a1ac4|b0dd70cb] (039+065/113) Accurately ripped
Offsetted by 6:
01 [f4fc601b] (002/111) Accurately ripped
02 [f84e51ed] (002/113) Accurately ripped
03 [c5ab45a0] (002/113) Accurately ripped
04 [e3191b75] (002/113) Accurately ripped
05 [9dda1f04] (002/112) Accurately ripped
06 [9446c811] (002/113) Accurately ripped
07 [3b1d09cd] (002/113) Accurately ripped
08 [45bd3f9d] (002/112) Accurately ripped
09 [d325111c] (002/112) Accurately ripped
10 [8d8b9e22] (002/112) Accurately ripped
11 [493ed128] (002/113) Accurately ripped
12 [3817eb6c] (002/113) Accurately ripped

Track Peak [ CRC32 ] [W/O NULL] [ LOG ]
– 100,0 [B5CB0B25] [B97DA796] CRC32
01 98,8 [AD51BD7A] [DD8499DE]
02 98,8 [6D72EEFF] [91B40F3D]
03 100,0 [CB5FF238] [B7170523]
04 98,8 [8C48F204] [D6E0B154]
05 100,0 [C89D4E25] [BBE506D4]
06 100,0 [8ED769AF] [3E2878F3]
07 100,0 [1AB93613] [7C9CC091]
08 100,0 [D4271DBC] [9E5F0D2E]
09 100,0 [1BCFA273] [1BEDB921]
10 100,0 [C10341F0] [C2422042]
11 99,2 [2A44E922] [A79918AA]
12 99,9 [D54AC2BA] [A1D382D8]



Tracklist DVD:

Muddy Water
I’m Gonna Kill That Woman
Sleeping Annaleah
Long Black Veil
Hey Joe
The Singer
All Tomorrows Parties
By The Time I Get To Phoenix
The Hammer Song
Something’s Gotten Hold Of My Heart
Jesus Met The Woman At The Well
The Carnival is Over

Extra tracks:
Black Betty – 12’’ B Side
Running Scared – 7” B Side

Video:
Do you love me like I love you. Part III: Kicking Against The Pricks.
The Singer.

Title: Nick Cave and the Bad Seeds 1986 - Kicking Against the Pricks - dvd
Size: 4.94 Gb ( 5 183 318,00 KBytes ) - DVD-9
Enabled regions: 1, 2, 3, 4, 5, 6, 7, 8

VTS_01 :
Play Length: 00:00:00+00:00:00+00:00:00+00:00:00+00:00:00+00:00:00
Video: NTSC 16:9 (720x480) VBR, Auto Letterboxed

VTS_02 :
Play Length: 00:45:36
Video: NTSC 16:9 (720x480) VBR, Auto Letterboxed
Audio:
English (Dolby AC3, 6 ch)
English (DTS, 6 ch)

VTS_03 :
Play Length: 00:45:34
Video: NTSC 16:9 (720x480) VBR, Auto Letterboxed
Audio:
English (LinearPCM, 2 ch)

VTS_04 :
Play Length: 00:00:00
Video: NTSC 16:9 (720x480) VBR, Auto Letterboxed

VTS_05 :
Play Length: 00:40:38
Video: NTSC 16:9 (720x480) VBR, Auto Letterboxed
Audio:
English (LinearPCM, 2 ch)
Subtitles:
English
Francais
Italiano
Deutsch
Espanol

VTS_06 :
Play Length: 00:02:35
Video: NTSC 16:9 (720x480) VBR, Auto Letterboxed
Audio:
English (Dolby AC3, 6 ch)
English (DTS, 6 ch)

VTS_07 :
Play Length: 00:02:34
Video: NTSC 16:9 (720x480) VBR, Auto Letterboxed
Audio:
Not specified (LinearPCM, 2 ch)

VTS_08 :
Play Length: 00:02:10
Video: NTSC 16:9 (720x480) VBR, Auto Letterboxed
Audio:
English (Dolby AC3, 6 ch)
English (DTS, 6 ch)
English (LinearPCM, 2 ch)

VTS_09 :
Play Length: 00:00:00
Video: NTSC 16:9 (720x480) VBR, Auto Letterboxed

VTS_10 :
Play Length: 00:02:58
Video: NTSC 4:3 (720x480) VBR
Audio:
English (LinearPCM, 2 ch)

VTS_11 :
Play Length: 00:00:22
Video: NTSC 4:3 (720x480) VBR
Audio:
Not specified (Dolby AC3, 2 ch)

VTS_12 :
Play Length: 00:00:00
Video: NTSC 4:3 (720x480) VBR

VTS_13 :
Play Length: 00:00:00
Video: NTSC 4:3 (720x480) VBR

VTS_14 :
Play Length: 00:00:00
Video: NTSC 4:3 (720x480) VBR


Nick Cave and the Bad Seeds - Kicking Against the Pricks (1986) [Remastered, CD & DVD]

Nick Cave and the Bad Seeds - Kicking Against the Pricks (1986) [Remastered, CD & DVD]

Nick Cave and the Bad Seeds - Kicking Against the Pricks (1986) [Remastered, CD & DVD]

All thanks go to the original releaser

Nick Cave or Nick Cave in my Blog

Download Nick Cave and the Bad Seeds - Kicking Against the Pricks (1986):