Subcategories

Nick Cave & The Bad Seeds - The Good Son (1990) [Remastered, CD & DVD]

Posted By: v3122
Nick Cave & The Bad Seeds - The Good Son (1990) [Remastered, CD & DVD]

Nick Cave & The Bad Seeds - The Good Son (1990)
EAC | Flac(Image) + Cue + Log & MP3 CBR 320Kbps
2010 | Mute, CDSEEDS6/5099996465820 | ~ 317 or 109 Mb | Scans(jpg) -> 69 Mb
DVD9: NTSC 16:9 (720x480) VBR, Auto Letterboxed
Dolby AC3, 2 ch / Dolby AC3, 6 ch / LPCM, 2 ch -> 5.35 Gb
Alternative Rock, Post-Punk

Losing Wolf, aside from in the final reprise of "Lucy," but otherwise making no changes in the lineup, the Seeds followed up Tender Prey with the equally brilliant but generally calmer Good Son. At the time of its release, there were more than a few comments that Cave had somehow softened or sold out, given how he was more intent on exploring his dark, cabaret pop stylings than his thrashy, explosive side. This not only ignored the constant examples of such quieter material all the way back to From Her to Eternity, but Cave's own constant threads of lyrical darkness, whether in terms of romance or something all the more distressing. That said, the softly crooning group vocals and sweet strings on the opening "Foi Na Cruz" certainly could catch some off guard. The title track itself captures the overall mood of the album, a retelling of the Bible's prodigal son story from the other son, the one who stayed at home and did what he was meant to do. The elegant, reflective "Lucy" and the staccato then sweeping "Lament" are two further high points, but the flat-out winners come dead center. "The Weeping Song," a magnificent duet between Cave and Bargeld, starts out sounding a bit like Gene Pitney's "Something's Gotta Hold of My Heart," which the Seeds covered on Pricks, before shading into its own powerful, blasted drama. "The Ship Song," meanwhile, equals if not overtakes the Scott Walker ballads Cave is so clearly inspired by, a soaring, tearjerking declaration of intense love that's simply amazing. [A bonus-DVD version was released in 2010.]

by Ned Raggett, allmusic
Nick Cave & The Bad Seeds - The Good Son (1990):

Nick Cave & The Bad Seeds - The Good Son (1990) [Remastered, CD & DVD]

Tracklist CD:

01 - Foi Na Cruz
02 - The Good Son
03 - Sorrow's Child
04 - The Weeping Song
05 - The Ship Song
06 - The Hammer Song
07 - Lament
08 - The Witness Song
09 - Lucy

Exact Audio Copy V0.99 prebeta 5 from 4. May 2009

EAC extraction logfile from 14. April 2010, 22:29

Nick Cave & The Bad Seeds / The Good Son

Used drive : Optiarc DVD RW AD-7203A Adapter: 4 ID: 0

Read mode : Secure
Utilize accurate stream : Yes
Defeat audio cache : Yes
Make use of C2 pointers : No

Read offset correction : 48
Overread into Lead-In and Lead-Out : No
Fill up missing offset samples with silence : Yes
Delete leading and trailing silent blocks : No
Null samples used in CRC calculations : Yes
Used interface : Native Win32 interface for Win NT & 2000

Used output format : User Defined Encoder
Selected bitrate : 768 kBit/s
Quality : High
Add ID3 tag : No
Command line compressor : C:\Program Files\Exact Audio Copy\Flac\flac.exe
Additional command line options : -8 -V -T "ARTIST=%a" -T "TITLE=%t" -T "ALBUM=%g" -T "DATE=%y" -T "TRACKNUMBER=%n" -T "GENRE=%m" -T "COMMENT=EAC FLAC -8" %s


TOC of the extracted CD

Track | Start | Length | Start sector | End sector
––––––––––––––––––––––––––––-
1 | 0:00.00 | 5:40.53 | 0 | 25552
2 | 5:40.53 | 6:03.13 | 25553 | 52790
3 | 11:43.66 | 4:39.53 | 52791 | 73768
4 | 16:23.44 | 4:25.11 | 73769 | 93654
5 | 20:48.55 | 5:14.11 | 93655 | 117215
6 | 26:02.66 | 4:17.02 | 117216 | 136492
7 | 30:19.68 | 4:54.18 | 136493 | 158560
8 | 35:14.11 | 5:57.69 | 158561 | 185404
9 | 41:12.05 | 4:17.15 | 185405 | 204694


Range status and errors

Selected range

Filename C:\Fet's Lossless Rips\Nick Cave & The Bad Seeds - The Good Son.wav

Peak level 100.0 %
Range quality 100.0 %
Test CRC F071D1C1
Copy CRC F071D1C1
Copy OK

No errors occurred


AccurateRip summary

Track 1 not present in database
Track 2 not present in database
Track 3 not present in database
Track 4 not present in database
Track 5 not present in database
Track 6 not present in database
Track 7 not present in database
Track 8 not present in database
Track 9 not present in database

None of the tracks are present in the AccurateRip database

End of status report


[CUETools log; Date: 31.03.2018 11:57:49; Version: 2.1.5]
[CTDB TOCID: qBW7zvOXVATn2FbsAzpgCGyqDZg-] found.
Track | CTDB Status
1 | (158/158) Accurately ripped
2 | (158/158) Accurately ripped
3 | (157/158) Accurately ripped
4 | (156/158) Accurately ripped
5 | (158/158) Accurately ripped
6 | (157/158) Accurately ripped
7 | (157/158) Accurately ripped
8 | (157/158) Accurately ripped
9 | (157/158) Accurately ripped
[AccurateRip ID: 000ffe4a-007434ad-6c0aa909] found.
Track [ CRC | V2 ] Status
01 [d81a3264|2a092e67] (029+063/117) Accurately ripped
02 [ab3c35d6|01fff746] (029+063/118) Accurately ripped
03 [d6733854|3e5d783f] (029+063/117) Accurately ripped
04 [a624b69c|65f46a88] (029+063/117) Accurately ripped
05 [adde5109|479f2533] (029+063/118) Accurately ripped
06 [758d3c10|8c88b024] (030+063/118) Accurately ripped
07 [eba22a00|aa98e126] (029+063/117) Accurately ripped
08 [a1309f9d|6fd73f3a] (029+063/118) Accurately ripped
09 [61b4fbab|1d776f22] (029+064/119) Accurately ripped
Offsetted by 6:
01 [76ec487c] (000/117) No match (V2 was not tested)
02 [dea4f066] (000/118) No match (V2 was not tested)
03 [7cc391d0] (000/117) No match (V2 was not tested)
04 [782c19d6] (000/117) No match (V2 was not tested)
05 [9ba732ff] (000/118) No match (V2 was not tested)
06 [05d84c2a] (000/118) No match (V2 was not tested)
07 [43556f4e] (000/117) No match (V2 was not tested)
08 [e0cb5743] (000/118) No match (V2 was not tested)
09 [7d9462bf] (000/119) No match (V2 was not tested)

Track Peak [ CRC32 ] [W/O NULL] [ LOG ]
– 100,0 [F071D1C1] [3A699DC1] CRC32
01 98,6 [A1C72F35] [8C7D9CA4]
02 99,2 [99A8C5ED] [6E2CF4EB]
03 99,5 [4638439C] [EB6A5029]
04 98,9 [EA5A9858] [6D0EA0A5]
05 98,9 [287E0666] [B3B690C4]
06 99,2 [90A7FE85] [FC25227E]
07 100,0 [4A919214] [243699D6]
08 99,4 [FDD0E48D] [C44152FF]
09 98,5 [BFCF9900] [7F50BEB3]


Nick Cave & The Bad Seeds - The Good Son (1990) [Remastered, CD & DVD]

Tracklist DVD:

Foi Na Cruz
The Good Son
Sorrow's Child
The Weeping Song
The Ship Song
The Hammer Song
Lament
The Witness Song
Lucy

Extra tracks:
The Train Song
Cocks 'n' Asses
Helpless

Video:
Фильм Do You Love Me Like I Love You. Part 6: The Good Son
Клип The Weeping Song
Клип The Ship Song

Title: Nick Cave & The Bad Seeds 1990 - The Good Son - DVD
Size: 4.98 Gb ( 5 216 994,00 KBytes ) - DVD-9
Enabled regions: 1, 2, 3, 4, 5, 6, 7, 8

VTS_01 :
Play Length: 00:00:00+00:00:00+00:00:00+00:00:00+00:00:00+00:00:00
Video: NTSC 16:9 (720x480) VBR, Auto Letterboxed
Audio:
Not specified (Dolby AC3, 2 ch)

VTS_02 :
Play Length: 00:45:29
Video: NTSC 16:9 (720x480) VBR, Auto Letterboxed
Audio:
English (Dolby AC3, 6 ch)
English (DTS, 6 ch)
English (LinearPCM, 2 ch)

VTS_03 :
Play Length: 00:00:00
Video: NTSC 16:9 (720x480) VBR, Auto Letterboxed

VTS_04 :
Play Length: 00:00:00
Video: NTSC 16:9 (720x480) VBR, Auto Letterboxed

VTS_05 :
Play Length: 00:37:55
Video: NTSC 16:9 (720x480) VBR, Auto Letterboxed
Audio:
English (LinearPCM, 2 ch)
Subtitles:
English
Francais
Italiano
Deutsch
Espanol

VTS_06 :
Play Length: 00:15:09
Video: NTSC 16:9 (720x480) VBR, Auto Letterboxed
Audio:
English (Dolby AC3, 6 ch)
English (DTS, 6 ch)
English (LinearPCM, 2 ch)

VTS_07 :
Play Length: 00:05:08
Video: NTSC 4:3 (720x480) VBR
Audio:
English (LinearPCM, 2 ch)

VTS_08 :
Play Length: 00:00:00
Video: NTSC 4:3 (720x480) VBR

VTS_09 :
Play Length: 00:00:00
Video: NTSC 16:9 (720x480) VBR, Auto Letterboxed

VTS_10 :
Play Length: 00:04:20
Video: NTSC 4:3 (720x480) VBR
Audio:
English (LinearPCM, 2 ch)

VTS_11 :
Play Length: 00:00:22
Video: NTSC 4:3 (720x480) VBR
Audio:
Not specified (Dolby AC3, 2 ch)

VTS_12 :
Play Length: 00:00:00
Video: NTSC 4:3 (720x480) VBR

VTS_13 :
Play Length: 00:00:00
Video: NTSC 4:3 (720x480) VBR

VTS_14 :
Play Length: 00:00:00
Video: NTSC 4:3 (720x480) VBR


Nick Cave & The Bad Seeds - The Good Son (1990) [Remastered, CD & DVD]

Nick Cave & The Bad Seeds - The Good Son (1990) [Remastered, CD & DVD]

Nick Cave & The Bad Seeds - The Good Son (1990) [Remastered, CD & DVD]

Nick Cave & The Bad Seeds - The Good Son (1990) [Remastered, CD & DVD]

All thanks go to the original releaser

Nick Cave or Nick Cave in my Blog

Download Nick Cave & The Bad Seeds - The Good Son (1990):