Subcategories

Nick Cave and the Bad Seeds - From Her To Eternity (1984) [Remastered, CD & DVD]

Posted By: v3122
Nick Cave and the Bad Seeds - From Her To Eternity (1984) [Remastered, CD & DVD]

Nick Cave and the Bad Seeds - From Her To Eternity (1984)
EAC | Flac(Image) + Cue + Log & MP3 CBR 320Kbps
2008 | Mute, CDSEEDS1/5099923699229 | ~ 267 or 105 Mb | Scans(jpg) -> 26 Mb
DVD9: NTSC 16:9 (720x480) VBR, Auto Letterboxed
Dolby AC3, 2 ch / Dolby AC3, 6 ch / LPCM, 2 ch -> 7.12 Gb
Alternative Rock, Post-Punk

Nick Cave launched his solo career in style with From Her to Eternity, an accomplished album mixing the frenzy and power of his Birthday Party days with a dank, moody atmosphere that showed he was not interested in simply continuing what the older group had done. To be sure, Mick Harvey joined him from the Party days, as ever playing a variety of instruments, while one-time Party guest Blixa Bargeld now became a permanent Cave partner, splitting his time between the Bad Seeds and Einsturzende Neubaten ever since. The group took wing with a harrowing version of Leonard Cohen's "Avalanche," Cave's wracked, buried tones suiting the Canadian legend's words perfectly, and never looked back. From Her to Eternity is crammed with any number of doom-laden songs, with Cave the understandable center of attention, his commanding vocals turning the blues and rural music into theatrical exhibitionism unmatched since Jim Morrison stalked stages. Songs like "Cabin Fever," with its steadily paced drumming and relentless piano line, and the more restrained and moody "The Moon Is in the Gutter" sound like cabarets in hell. "In the Ghetto," already perfectly suited to such a treatment, shows the underlying sense of beauty that defines the Seeds as much as drama. Even though it's a Presley cover, the sense of Scott Walker's influence isn't far away at all. The title track is and remains a Bad Seeds classic, played at shows up through the present, a tense piano/organ beginning then accompanied by the edgy build of the band, pounding drums, stabbing feedback and keyboard parts and more. [The 2009 reissue adds new liner notes and a DVD that includes a 5.1 Surround Sound mix of the album plus bonus audio tracks (the band's amazing cover of the Elvis classic "In the Ghetto," "The Moon is in the Gutter" and a different version of the title track) and video content.]

by Ned Raggett, allmusic
Nick Cave and the Bad Seeds - From Her To Eternity (1984) [Remastered, CD & DVD]

Nick Cave and the Bad Seeds - From Her To Eternity (1984):

Tracklist:

Avalanche
Cabin Fever!
Well of Misery
From Her To Eternity
Saint Huck
Wings Off Flies
A Box For Black Paul

Exact Audio Copy V0.99 prebeta 5 from 4. May 2009

Отчёт EAC об извлечении, выполненном 9. августа 2009, 18:55

Nick Cave and the Bad Seeds / From Her To Eternity [R1]

Дисковод: TSSTcorpCDDVDW TS-L632H Adapter: 0 ID: 0

Режим чтения : Достоверность
Использование точного потока : Да
Отключение кэша аудио : Да
Использование указателей C2 : Нет

Коррекция смещения при чтении : 6
Способность читать области Lead-in и Lead-out : Нет
Заполнение пропущенных сэмплов тишиной : Да
Удаление блоков с тишиной в начале и конце : Нет
При вычислениях CRC использовались нулевые сэмплы : Да
Интерфейс : Встроенный Win32-интерфейс для Win NT/2000

Выходной формат : Пользовательский кодировщик
Выбранный битрейт : 1024 kBit/s
Качество : Высокий
Добавление ID3-тэга : Нет
Утилита сжатия : C:\Program Files\Exact Audio Copy\FLAC\FLAC.EXE
Дополнительные параметры : -6 -V -T "ARTIST=%a" -T "TITLE=%t" -T "ALBUM=%g" -T "DATE=%y" -T "TRACKNUMBER=%n" -T "GENRE=%m" -T "COMMENT=%e" %s -o %d


TOC извлечённого CD

Трек | Старт | Длительность | Начальный сектор | Конечный сектор
––––––––––––––––––––––––––––––––––-
1 | 0:00.00 | 5:09.23 | 0 | 23197
2 | 5:09.23 | 6:12.43 | 23198 | 51140
3 | 11:21.66 | 5:25.51 | 51141 | 75566
4 | 16:47.42 | 5:35.17 | 75567 | 100708
5 | 22:22.59 | 7:23.41 | 100709 | 133974
6 | 29:46.25 | 4:06.54 | 133975 | 152478
7 | 33:53.04 | 9:44.26 | 152479 | 196304


Характеристики диапазона извлечения и сообщения об ошибках

Выбранный диапазон

Имя файла D:\newCAVE\Nick Cave and the Bad Seeds - From Her To Eternity [R1].wav

Пиковый уровень 99.0 %
Качество диапазона 100.0 %
CRC теста 8E4EE4CE
CRC копии 8E4EE4CE
Копирование… OK

Ошибок не произошло


AccurateRip: сводка

Трек 1 точное извлечение (доверие 7) [804BB3DF]
Трек 2 точное извлечение (доверие 7) [542D0065]
Трек 3 точное извлечение (доверие 7) [739363DE]
Трек 4 точное извлечение (доверие 7) [FF4F4F81]
Трек 5 точное извлечение (доверие 7) [D66D9AEC]
Трек 6 точное извлечение (доверие 7) [22843FC0]
Трек 7 точное извлечение (доверие 6) [2B8B36E4]

Все треки извлечены точно

Конец отчёта


[CUETools log; Date: 04.04.2018 17:40:28; Version: 2.1.5]
[CTDB TOCID: bQobVyd3USZrBms5ksg2XwqTlGU-] found.
Track | CTDB Status
1 | (130/131) Accurately ripped
2 | (131/131) Accurately ripped
3 | (131/131) Accurately ripped
4 | (131/131) Accurately ripped
5 | (131/131) Accurately ripped
6 | (130/131) Accurately ripped
7 | (131/131) Accurately ripped
[AccurateRip ID: 000b30be-0043dc2c-500a3907] found.
Track [ CRC | V2 ] Status
01 [804bb3df|03a98777] (046+058/114) Accurately ripped
02 [542d0065|54a658ea] (046+058/114) Accurately ripped
03 [739363de|9b7a71b8] (046+058/114) Accurately ripped
04 [ff4f4f81|9dde3fe5] (046+058/114) Accurately ripped
05 [d66d9aec|4e4cfff4] (046+058/114) Accurately ripped
06 [22843fc0|1b0ff29d] (046+057/113) Accurately ripped
07 [2b8b36e4|cf6630f8] (040+057/112) Accurately ripped
Offsetted by 6:
01 [2927b2b3] (000/114) No match (V2 was not tested)
02 [34f56bc8] (000/114) No match (V2 was not tested)
03 [5de3880f] (000/114) No match (V2 was not tested)
04 [b04c1f15] (000/114) No match (V2 was not tested)
05 [c3935902] (000/114) No match (V2 was not tested)
06 [ec160b92] (000/113) No match (V2 was not tested)
07 [0bc62fe4] (000/112) No match (V2 was not tested)

Track Peak [ CRC32 ] [W/O NULL] [ LOG ]
– 99,0 [8E4EE4CE] [0A814586] CRC32
01 99,0 [E89BF0E8] [F8AEB7C6]
02 98,8 [0E454E61] [A555920A]
03 98,8 [1D8D8121] [893398DC]
04 98,8 [CE5467D8] [4F02D1EC]
05 98,9 [2A1A64D8] [EDA82DED]
06 98,8 [1FE9AAA9] [DEA10D2E]
07 94,4 [1E6D1900] [175B6204]


Tracklist DVD:

Audio:

Avalanche
Cabin Fever!
Well of Misery
From Her To Eternity
Saint Huck
Wings Off Flies
A Box For Black Paul

Extra tracks:
In The Ghetto -
The Moon Is In The Gutter
From Her To Eternity (version from Der Himmel Uber Berlin)

Video:
Do you love me like I love you. Part I: From Her To Eternity.
In The Ghetto.

Title: Nick Cave and the Bad Seeds 1984 - From Her To Eternity - DVD
Size: 5.88 Gb ( 6 166 946,00 KBytes ) - DVD-9
Enabled regions: 1, 2, 3, 4, 5, 6, 7, 8

VTS_01 :
Play Length: 00:00:00+00:00:00+00:00:00+00:00:00+00:00:00+00:00:00
Video: NTSC 16:9 (720x480) VBR, Auto Letterboxed

VTS_02 :
Play Length: 00:43:31
Video: NTSC 16:9 (720x480) VBR, Auto Letterboxed
Audio:
English (Dolby AC3, 6 ch)
English (DTS, 6 ch)

VTS_03 :
Play Length: 00:43:35
Video: NTSC 16:9 (720x480) VBR, Auto Letterboxed
Audio:
English (LinearPCM, 2 ch)

VTS_04 :
Play Length: 00:00:00
Video: NTSC 16:9 (720x480) VBR, Auto Letterboxed

VTS_05 :
Play Length: 00:41:38
Video: NTSC 16:9 (720x480) VBR, Auto Letterboxed
Audio:
English (LinearPCM, 2 ch)
Subtitles:
English
Francais
Italiano
Deutsch
Espanol

VTS_06 :
Play Length: 00:04:11
Video: NTSC 16:9 (720x480) VBR, Auto Letterboxed
Audio:
English (Dolby AC3, 6 ch)
English (DTS, 6 ch)

VTS_07 :
Play Length: 00:04:08
Video: NTSC 16:9 (720x480) VBR, Auto Letterboxed
Audio:
English (LinearPCM, 2 ch)

VTS_08 :
Play Length: 00:02:40
Video: NTSC 16:9 (720x480) VBR, Auto Letterboxed
Audio:
English (Dolby AC3, 6 ch)
English (DTS, 6 ch)
English (LinearPCM, 2 ch)

VTS_09 :
Play Length: 00:04:36
Video: NTSC 16:9 (720x480) VBR, Auto Letterboxed
Audio:
English (Dolby AC3, 6 ch)
English (DTS, 6 ch)
English (LinearPCM, 2 ch)

VTS_10 :
Play Length: 00:04:05
Video: NTSC 4:3 (720x480) VBR
Audio:
English (LinearPCM, 2 ch)

VTS_11 :
Play Length: 00:00:22
Video: NTSC 4:3 (720x480) VBR
Audio:
Not specified (Dolby AC3, 2 ch)

VTS_12 :
Play Length: 00:00:00
Video: NTSC 4:3 (720x480) VBR

VTS_13 :
Play Length: 00:00:00
Video: NTSC 4:3 (720x480) VBR

VTS_14 :
Play Length: 00:00:00
Video: NTSC 4:3 (720x480) VBR


Nick Cave and the Bad Seeds - From Her To Eternity (1984) [Remastered, CD & DVD]

Nick Cave and the Bad Seeds - From Her To Eternity (1984) [Remastered, CD & DVD]

Nick Cave and the Bad Seeds - From Her To Eternity (1984) [Remastered, CD & DVD]

All thanks go to the original releasers

Nick Cave or Nick Cave in my Blog

Download Nick Cave and the Bad Seeds - From Her To Eternity (1984):