Subcategories

Nicki Parrott - Fever: The Best Of Nicki Parrott (2011)

Posted By: v3122
Nicki Parrott - Fever: The Best Of Nicki Parrott (2011)

Nicki Parrott - Fever: The Best Of Nicki Parrott (2011)
EAC | Flac(Image) + Cue + Log & MP3 CBR 320Kbps
Venus Records, VHCD-1058 | Japan | ~ 442 or 164 Mb | Scans(jpg) -> 11 Mb
Vocal Jazz

Celebrated as an instrumentalist and a vocalist, Australian artist Nicki Parrott has earned acclaim as one of the most engaging talents to emerge on the jazz scene in the 21st century. Born in Newcastle, New South Wales, Australia in 1970, Parrott had a precocious talent for music, first learning to play the piano when she was four years old. She would become proficient on piano and flute, but when her sister Lisa, who plays saxophone, was looking for a bassist for her jazz combo, Nicki took up the double bass, and fell in love with the instrument. At the age of 16, Parrott earned a scholarship to attend the Pan Pacific Music Camps, and after completing high school, she relocated to Sydney to enroll at the New South Wales Conservatorium of Music. Parrott was soon performing with a number of leading Australian jazz musicians (including Mike Nock, Paul Grabowski, and Dale Barlow), as well as American artists Chuck Findley and Bobby Shew. In 1994, Parrott left Australia for New York City thanks to an Arts Council grant, and she began studying bass with Rufus Reid. In 2000, Parrott landed an especially prestigious gig – she became bassist with Les Paul's combo for the legendary guitarist's weekly performances at the Manhattan jazz spot Iridium. Paul became her mentor, and encouraged her as a vocalist as well as a bassist.

Awabakal Suite In 2001, Nicki made her recording debut with Awabakal Suite, a collaborate effort with her sister Lisa; the album featured an original composition, "Come and Get It," which in 1992 took first prize in the Jazz Action Society's Annual Song Competition. Nicki also performed in a number of Broadway musicals, including Avenue Q, You're a Good Man, Charlie Brown, and Jekyll & Hyde. In 2007 she released an album with pianist Rossano Sportiello, People Will Say We're in Love, in which they essayed a number of jazz pieces and vintage pop standards. Nicki's first solo effort, 2008's Moon River, was the first of a series of albums in which she performed a handful of favorite standards with graceful jazz arrangements and her subtle but expert vocals. It would be one of 17 albums the prolific Parrott cut for Venus Records between 2008 and 2017; she also cut several more albums with Sportiello, and kept up a busy schedule playing jazz clubs and music festivals around the world. In 2017 Parrott also released Dear Blossom, her tribute to the influential jazz vocalist Blossom Dearie.

by Mark Deming, allmusic
Nicki Parrott - Fever: The Best Of Nicki Parrott (2011):

Nicki Parrott - Fever: The Best Of Nicki Parrott (2011)

Tracklist:

01. Moon River (4:01)
02. You'd Be So Nice To Come Home To (3:39)
03. Getting Some Fun Out Of Life (4:41)
04. Bei Mir Bist Du Schoen (4:04)
05. Fly Me To The Moon (4:05)
06. I Love The Way You're Breakin' My Heart (4:03)
07. Black Coffee (5:36)
08. Dark Eyes (3:52)
09. Fever (4:15)
10. Like A Lover (5:01)
11. For No One (2:32)
12. How Could You Do A Thing Like That To Me (4:24)
13. Detour Ahead (5:32)
14. Somewhere Over The Rainbow (5:33)
15. Best Things In Life Are Free (3:19)
16. What Are You Doing The Rest Of Your Life (3:38)

Converted to Image (CUETools 2.1.4)

Exact Audio Copy V1.0 beta 3 from 29. August 2011

EAC extraction logfile from 20. June 2012, 20:14

Nicki Parrott / Fever - The Best Of Nicki Parrott

Used drive : PIONEER BD-RW BDR-207M Adapter: 0 ID: 3

Read mode : Secure
Utilize accurate stream : Yes
Defeat audio cache : Yes
Make use of C2 pointers : No

Read offset correction : 667
Overread into Lead-In and Lead-Out : No
Fill up missing offset samples with silence : Yes
Delete leading and trailing silent blocks : No
Null samples used in CRC calculations : Yes
Used interface : Native Win32 interface for Win NT & 2000
Gap handling : Appended to previous track

Used output format : User Defined Encoder
Selected bitrate : 1024 kBit/s
Quality : High
Add ID3 tag : No
Command line compressor : C:\Program Files (x86)\Exact Audio Copy\Flac\flac.exe
Additional command line options : -8 -V -T "ARTIST=%artist%" -T "TITLE=%title%" -T "ALBUM=%albumtitle%" -T "DATE=%year%" -T "TRACKNUMBER=%tracknr%" -T "GENRE=%genre%" -T "PERFORMER=%albuminterpret%" -T "COMPOSER=%composer%" %haslyrics%–tag-from-file=LYRICS="%lyricsfile%"%haslyrics% -T "ALBUMARTIST=%albumartist%" -T "DISCNUMBER=%cdnumber%" -T "TOTALDISCS=%totalcds%" -T "TOTALTRACKS=%numtracks%" -T "COMMENT=%comment%" %source% -o %dest%


TOC of the extracted CD

Track | Start | Length | Start sector | End sector
––––––––––––––––––––––––––––-
1 | 0:00.00 | 4:00.42 | 0 | 18041
2 | 4:00.42 | 3:38.45 | 18042 | 34436
3 | 7:39.12 | 4:41.32 | 34437 | 55543
4 | 12:20.44 | 4:03.65 | 55544 | 73833
5 | 16:24.34 | 4:04.72 | 73834 | 92205
6 | 20:29.31 | 4:03.08 | 92206 | 110438
7 | 24:32.39 | 5:36.12 | 110439 | 135650
8 | 30:08.51 | 3:52.06 | 135651 | 153056
9 | 34:00.57 | 4:14.49 | 153057 | 172155
10 | 38:15.31 | 5:00.73 | 172156 | 194728
11 | 43:16.29 | 2:31.40 | 194729 | 206093
12 | 45:47.69 | 4:23.65 | 206094 | 225883
13 | 50:11.59 | 5:32.14 | 225884 | 250797
14 | 55:43.73 | 5:32.47 | 250798 | 275744
15 | 61:16.45 | 3:18.50 | 275745 | 290644
16 | 64:35.20 | 3:38.26 | 290645 | 307020


Track 1

Filename E:\OPENCD\Nicki Parrott - Fever- The Best Of Nicki Parrott 2011\01 - Moon River.wav

Pre-gap length 0:00:02.00

Peak level 100.0 %
Extraction speed 4.5 X
Track quality 100.0 %
Test CRC EC1945D3
Copy CRC EC1945D3
Accurately ripped (confidence 2) [49DF3976] (AR v1)
Copy OK

Track 2

Filename E:\OPENCD\Nicki Parrott - Fever- The Best Of Nicki Parrott 2011\02 - You'd Be So Nice To Come Home To.wav

Pre-gap length 0:00:02.60

Peak level 100.0 %
Extraction speed 4.9 X
Track quality 100.0 %
Test CRC D9715F83
Copy CRC D9715F83
Accurately ripped (confidence 2) [E11CCA62] (AR v1)
Copy OK

Track 3

Filename E:\OPENCD\Nicki Parrott - Fever- The Best Of Nicki Parrott 2011\03 - Getting Some Fun Out Of Life.wav

Pre-gap length 0:00:02.60

Peak level 100.0 %
Extraction speed 5.4 X
Track quality 100.0 %
Test CRC 09A0D571
Copy CRC 09A0D571
Accurately ripped (confidence 2) [D6FE9139] (AR v1)
Copy OK

Track 4

Filename E:\OPENCD\Nicki Parrott - Fever- The Best Of Nicki Parrott 2011\04 - Bei Mir Bist Du Schoen.wav

Pre-gap length 0:00:02.60

Peak level 100.0 %
Extraction speed 5.7 X
Track quality 100.0 %
Test CRC AADB9A31
Copy CRC AADB9A31
Accurately ripped (confidence 2) [C590D3D3] (AR v1)
Copy OK

Track 5

Filename E:\OPENCD\Nicki Parrott - Fever- The Best Of Nicki Parrott 2011\05 - Fly Me To The Moon.wav

Pre-gap length 0:00:02.60

Peak level 100.0 %
Extraction speed 6.1 X
Track quality 100.0 %
Test CRC 405FA48A
Copy CRC 405FA48A
Accurately ripped (confidence 2) [87E5A1C1] (AR v1)
Copy OK

Track 6

Filename E:\OPENCD\Nicki Parrott - Fever- The Best Of Nicki Parrott 2011\06 - I Love The Way You're Breakin' My Heart.wav

Pre-gap length 0:00:02.60

Peak level 100.0 %
Extraction speed 6.3 X
Track quality 100.0 %
Test CRC 770D5F9B
Copy CRC 770D5F9B
Accurately ripped (confidence 2) [F45EAADC] (AR v1)
Copy OK

Track 7

Filename E:\OPENCD\Nicki Parrott - Fever- The Best Of Nicki Parrott 2011\07 - Black Coffee.wav

Pre-gap length 0:00:02.60

Peak level 100.0 %
Extraction speed 6.9 X
Track quality 100.0 %
Test CRC 6CF7ACD9
Copy CRC 6CF7ACD9
Accurately ripped (confidence 2) [6088C927] (AR v1)
Copy OK

Track 8

Filename E:\OPENCD\Nicki Parrott - Fever- The Best Of Nicki Parrott 2011\08 - Dark Eyes.wav

Pre-gap length 0:00:02.60

Peak level 100.0 %
Extraction speed 6.0 X
Track quality 99.9 %
Test CRC 1630C7E4
Copy CRC 1630C7E4
Accurately ripped (confidence 2) [F9DA4933] (AR v1)
Copy OK

Track 9

Filename E:\OPENCD\Nicki Parrott - Fever- The Best Of Nicki Parrott 2011\09 - Fever.wav

Pre-gap length 0:00:02.60

Peak level 100.0 %
Extraction speed 6.4 X
Track quality 99.9 %
Test CRC 9E5D07B4
Copy CRC 9E5D07B4
Accurately ripped (confidence 2) [7FE492FD] (AR v1)
Copy OK

Track 10

Filename E:\OPENCD\Nicki Parrott - Fever- The Best Of Nicki Parrott 2011\10 - Like A Lover.wav

Pre-gap length 0:00:02.60

Peak level 99.9 %
Extraction speed 7.3 X
Track quality 100.0 %
Test CRC 87FAA234
Copy CRC 87FAA234
Accurately ripped (confidence 2) [8F377D67] (AR v1)
Copy OK

Track 11

Filename E:\OPENCD\Nicki Parrott - Fever- The Best Of Nicki Parrott 2011\11 - For No One.wav

Pre-gap length 0:00:02.60

Peak level 97.4 %
Extraction speed 6.9 X
Track quality 100.0 %
Test CRC DDCCC180
Copy CRC DDCCC180
Accurately ripped (confidence 2) [8BA64CC0] (AR v1)
Copy OK

Track 12

Filename E:\OPENCD\Nicki Parrott - Fever- The Best Of Nicki Parrott 2011\12 - How Could You Do A Thing Like That To Me.wav

Pre-gap length 0:00:02.60

Peak level 97.9 %
Extraction speed 7.7 X
Track quality 100.0 %
Test CRC 8D47265D
Copy CRC 8D47265D
Accurately ripped (confidence 2) [3579729B] (AR v1)
Copy OK

Track 13

Filename E:\OPENCD\Nicki Parrott - Fever- The Best Of Nicki Parrott 2011\13 - Detour Ahead.wav

Pre-gap length 0:00:02.60

Peak level 100.0 %
Extraction speed 8.2 X
Track quality 100.0 %
Test CRC D2F93A3B
Copy CRC D2F93A3B
Accurately ripped (confidence 2) [FD797920] (AR v1)
Copy OK

Track 14

Filename E:\OPENCD\Nicki Parrott - Fever- The Best Of Nicki Parrott 2011\14 - Somewhere Over The Rainbow.wav

Pre-gap length 0:00:02.60

Peak level 100.0 %
Extraction speed 7.6 X
Track quality 99.9 %
Test CRC 8105ED22
Copy CRC 8105ED22
Accurately ripped (confidence 2) [97902D51] (AR v1)
Copy OK

Track 15

Filename E:\OPENCD\Nicki Parrott - Fever- The Best Of Nicki Parrott 2011\15 - Best Things In Life Are Free.wav

Pre-gap length 0:00:02.60

Peak level 100.0 %
Extraction speed 8.0 X
Track quality 100.0 %
Test CRC F36AB4F7
Copy CRC F36AB4F7
Accurately ripped (confidence 2) [D5BBAD88] (AR v1)
Copy OK

Track 16

Filename E:\OPENCD\Nicki Parrott - Fever- The Best Of Nicki Parrott 2011\16 - What Are You Doing The Rest Of Your Life.wav

Pre-gap length 0:00:02.60

Peak level 100.0 %
Extraction speed 8.3 X
Track quality 100.0 %
Test CRC 5F3D9625
Copy CRC 5F3D9625
Accurately ripped (confidence 2) [21779BE0] (AR v1)
Copy OK


All tracks accurately ripped

No errors occurred

End of status report

–– CUETools DB Plugin V2.1.3

[CTDB TOCID: DX65YxyD47_tPZFmPkxE0_thuKA-] disk not present in database, Submit result: DX65YxyD47_tPZFmPkxE0_thuKA- has been uploaded


==== Log checksum E363C671B75ECD3DD3E35808D85423C1AF67FC8B00CA799B93F41DAA032FE57C ====


[CUETools log; Date: 20.02.2018 10:58:51; Version: 2.1.5]
[AccurateRip ID: 00279dba-01ddc0ab-eb0ffd10] found.
Track [ CRC | V2 ] Status
01 [49df3976|8197d7ee] (03+22/25) Accurately ripped
02 [e11cca62|5fcbc589] (03+22/25) Accurately ripped
03 [d6fe9139|6ea036bd] (03+22/25) Accurately ripped
04 [c590d3d3|3cbb46e1] (03+22/25) Accurately ripped
05 [87e5a1c1|fc9a6a05] (03+22/25) Accurately ripped
06 [f45eaadc|56c8f3f7] (03+22/25) Accurately ripped
07 [6088c927|f908c631] (03+22/25) Accurately ripped
08 [f9da4933|cdc4fd38] (03+22/25) Accurately ripped
09 [7fe492fd|c4823390] (03+22/25) Accurately ripped
10 [8f377d67|e3199c6f] (03+22/25) Accurately ripped
11 [8ba64cc0|cedea97f] (03+22/25) Accurately ripped
12 [3579729b|2882c9a6] (03+22/25) Accurately ripped
13 [fd797920|ef7c5bbf] (03+21/24) Accurately ripped
14 [97902d51|654f66bf] (03+22/25) Accurately ripped
15 [d5bbad88|c1ba3c41] (03+22/25) Accurately ripped
16 [21779be0|c0c0ba84] (03+20/23) Accurately ripped

Track Peak [ CRC32 ] [W/O NULL] [ LOG ]
– 100,0 [C2AC5508] [DFC3815C]
01 100,0 [EC1945D3] [39A92BF6] CRC32
02 100,0 [D9715F83] [B60A40A1] CRC32
03 100,0 [09A0D571] [3AC7486B] CRC32
04 100,0 [AADB9A31] [4CD001C3] CRC32
05 100,0 [405FA48A] [9D80D678] CRC32
06 100,0 [770D5F9B] [CBB6C795] CRC32
07 100,0 [6CF7ACD9] [FB7FC21F] CRC32
08 100,0 [1630C7E4] [659137C2] CRC32
09 100,0 [9E5D07B4] [5677CC45] CRC32
10 99,9 [87FAA234] [87A1B254] CRC32
11 97,4 [DDCCC180] [84777BB2] CRC32
12 97,9 [8D47265D] [393CE97A] CRC32
13 100,0 [D2F93A3B] [88D73315] CRC32
14 100,0 [8105ED22] [9E695BBA] CRC32
15 100,0 [F36AB4F7] [C3B160F9] CRC32
16 100,0 [5F3D9625] [BE5F59B3] CRC32


Nicki Parrott - Fever: The Best Of Nicki Parrott (2011)

All thanks go to the original releaser

Nicki Parrott or Nicki Parrott in my Blog

Download Nicki Parrott - Fever: The Best Of Nicki Parrott (2011):