Subcategories

Nicolai Gedda, Liliane Berton, Louis de Froment - Gluck: Orphée et Euridice (2009)

Posted By: tirexiss
Nicolai Gedda, Liliane Berton, Louis de Froment - Gluck: Orphée et Euridice (2009)

Nicolai Gedda, Liliane Berton, Louis de Froment - Gluck: Orphée et Euridice (2009)
EAC | FLAC (tracks+.cue, log) | Covers Included | 01:45:49 | 521 MB
Genre: Classical, Opera | Label: Profil | Catalog: PH 09021

A conductor who spent most of his career in tiny Luxembourg is hardly a musician one would expect to become well known, but Louis de Froment grew extremely familiar to record collectors thanks to his long association with the Vox label. Born in Toulouse, he studied at the Paris Conservatory, where he won first prize in conducting in 1948. After graduation, Froment conducted one of the French radio orchestras and, from 1950 to 1954, served as music director at the casinos in Cannes, Deauville, and Vichy. He developed a higher profile through work as a guest conductor with a number of European orchestras and appearances at French music festivals. In 1958 he was named conductor of the Luxembourg Radio Orchestra, with which he embarked on an extensive series of recordings for the budget label Vox. Most often he served as accompanist in surveys of the concertos of such composers as Arensky, Mendelssohn, Saint-Saëns, and Tchaikovsky. He and his orchestra were the main attraction in some projects, though, including the orchestral music of Debussy. Froment's performances with his orchestra, if not tonally sleek, tended to be idiomatic and well attuned to the needs of soloists. Froment retired from the orchestra in 1981. – James Reel

Nicolai Gedda, Liliane Berton, Louis de Froment - Gluck: Orphée et Euridice (2009)

Track List:

CD 1:
01. Ouverture

Act I
02. Ah! dans ce bois tranquille et sombre
03. Vos plaintes, vos regrets, augmentent
04. Pantomime des nymphes et des bergers
05. Ah! dans ce bois lugubre et sombre
06. Elognez-vous: ce lieu convient a ma douleur
07. Ritournelle
08. Objet de mon amour
09. Euridice! Euridice! ombre chere
10. Accable de regrets
11. Euridice! Euridice! De ce doux nom
12. Divinites de l'Acheron
13. L'amour vient au secours de l'amant - Si les doux accords de ta lyre
14. Soumis au silence
15. Impitoyables Dieux!

Act II
16. Danse des furies
17. Quel est l'audacieux
18. Laissez-vous toucher par mes pleurs
19. Qui t'amene en ces lieux
20. Ballet des ombres heureuses
21. Danse des ombres heureuses
22. Cet asile aimable et tranquille
23. Quel nouveau ciel pare ces lieux?
24. Viens dans ce sejour paisable
25. O vous, Ombre qui j'implore
26. Pres du tendre objet qu'on aime
27. Danse des heros et heroines

Exact Audio Copy V1.3 from 2. September 2016

Archivo Log de extracciones desde 31. Enero 2018, 6:52

Artista desconocido / Título desconocido

Usar unidad : HL-DT-STDVDRAM GH24NSC0 Adapter: 1 ID: 1

Modo de Lectura : : Seguro
Utilizar corriente precisa : Sí
Caché de audio por defecto : Sí
Utilizar los punteros C2 : No

Corrección de Desplazamiento de Lectura : : 6
Sobreleer tanto en Lead-In como en Lead-Out : No
Rellenar las muestras faltantes con silencios : Sí
Eliminar silencios inicial y final : No
Muestras nulas usadas en los calculos de CRC : Sí
Interfaz usada : Interfaz propio de Win32 para Windowns NT y 2000
Manejo de huecos : Anexada a la pista anterior

Formato de Salida utilizado : : Compresor definido por el Usuario
Velocidad de bits seleccionada : 896 kBit/s
Calidad : Alta
Añadir ID3 tag : Sí
linea de comandos del compresor : C:\Program Files (x86)\Exact Audio Copy\FLAC\FLAC.EXE
Opciones adicionales en línea de comandos : : -6 -V -T "ARTIST=%artist%" -T "TITLE=%title%" -T "ALBUM=%albumtitle%" -T "DATE=%year%" -T "TRACKNUMBER=%tracknr%" -T "GENRE=%genre%" -T "COMMENT=%comment%" -T "BAND=%albuminterpret%" -T "ALBUMARTIST=%albuminterpret%" -T "COMPOSER=%composer%" %haslyrics%–tag-from-file=LYRICS="%lyricsfile%"%haslyrics% -T "DISCNUMBER=%cdnumber%" -T "TOTALDISCS=%totalcds%" -T "TOTALTRACKS=%numtracks%" %hascover%–picture="%coverfile%"%hascover% %source% -o %dest%


TOC extraídos del CD

Pista | Inicio | Longitud | Inicio del sector | Fin del sector
–––––––––––––––––––––––––––––––––
1 | 0:00.00 | 3:06.44 | 0 | 13993
2 | 3:06.44 | 3:33.27 | 13994 | 29995
3 | 6:39.71 | 0:48.37 | 29996 | 33632
4 | 7:28.33 | 1:54.51 | 33633 | 42233
5 | 9:23.09 | 1:38.26 | 42234 | 49609
6 | 11:01.35 | 0:33.39 | 49610 | 52123
7 | 11:34.74 | 1:10.06 | 52124 | 57379
8 | 12:45.05 | 1:40.07 | 57380 | 64886
9 | 14:25.12 | 1:37.16 | 64887 | 72177
10 | 16:02.28 | 1:28.26 | 72178 | 78803
11 | 17:30.54 | 1:40.66 | 78804 | 86369
12 | 19:11.45 | 1:11.61 | 86370 | 91755
13 | 20:23.31 | 3:09.60 | 91756 | 105990
14 | 23:33.16 | 2:00.48 | 105991 | 115038
15 | 25:33.64 | 1:09.33 | 115039 | 120246
16 | 26:43.22 | 4:33.30 | 120247 | 140751
17 | 31:16.52 | 3:09.22 | 140752 | 154948
18 | 34:25.74 | 2:34.06 | 154949 | 166504
19 | 37:00.05 | 4:52.32 | 166505 | 188436
20 | 41:52.37 | 6:29.32 | 188437 | 217643
21 | 48:21.69 | 2:18.69 | 217644 | 228062
22 | 50:40.63 | 3:35.48 | 228063 | 244235
23 | 54:16.36 | 5:08.09 | 244236 | 267344
24 | 59:24.45 | 2:13.13 | 267345 | 277332
25 | 61:37.58 | 0:43.65 | 277333 | 280622
26 | 62:21.48 | 3:07.28 | 280623 | 294675
27 | 65:29.01 | 1:59.42 | 294676 | 303642


Pista 1

Nombre de Archivo F:\Users\Guillermo\Documents\EAC CONVERTIDOS\01 Pista01 - Artista desconocido.wav

Longitud Pre-gap 0:00:02.00

Nivel Pico 88.9 %
Velocidad de extracción 3.7 X
Calidad de Pista 99.9 %
Comprobación CRC FDDC4089
Copiar CRC FDDC4089
Extraida con precisión (confidencia 1) [874E7C37] (AR v2)
Copia OK

Pista 2

Nombre de Archivo F:\Users\Guillermo\Documents\EAC CONVERTIDOS\02 Pista02 - Artista desconocido.wav

Nivel Pico 87.4 %
Velocidad de extracción 5.0 X
Calidad de Pista 100.0 %
Comprobación CRC 47327A32
Copiar CRC 47327A32
Extraida con precisión (confidencia 1) [0160B60B] (AR v2)
Copia OK

Pista 3

Nombre de Archivo F:\Users\Guillermo\Documents\EAC CONVERTIDOS\03 Pista03 - Artista desconocido.wav

Nivel Pico 61.0 %
Velocidad de extracción 3.4 X
Calidad de Pista 100.0 %
Comprobación CRC 059995B4
Copiar CRC 059995B4
Extraida con precisión (confidencia 1) [92EBCBEF] (AR v2)
Copia OK

Pista 4

Nombre de Archivo F:\Users\Guillermo\Documents\EAC CONVERTIDOS\04 Pista04 - Artista desconocido.wav

Nivel Pico 57.7 %
Velocidad de extracción 4.8 X
Calidad de Pista 100.0 %
Comprobación CRC 3D11AAD4
Copiar CRC 3D11AAD4
Extraida con precisión (confidencia 1) [ABF93B92] (AR v2)
Copia OK

Pista 5

Nombre de Archivo F:\Users\Guillermo\Documents\EAC CONVERTIDOS\05 Pista05 - Artista desconocido.wav

Nivel Pico 96.5 %
Velocidad de extracción 4.8 X
Calidad de Pista 100.0 %
Comprobación CRC 9F1D8E3E
Copiar CRC 9F1D8E3E
Extraida con precisión (confidencia 1) [6604921A] (AR v2)
Copia OK

Pista 6

Nombre de Archivo F:\Users\Guillermo\Documents\EAC CONVERTIDOS\06 Pista06 - Artista desconocido.wav

Nivel Pico 60.4 %
Velocidad de extracción 1.7 X
Calidad de Pista 99.6 %
Comprobación CRC C372925C
Copiar CRC C372925C
Extraida con precisión (confidencia 1) [5A4ED8A1] (AR v2)
Copia OK

Pista 7

Nombre de Archivo F:\Users\Guillermo\Documents\EAC CONVERTIDOS\07 Pista07 - Artista desconocido.wav

Nivel Pico 51.0 %
Velocidad de extracción 4.3 X
Calidad de Pista 100.0 %
Comprobación CRC CFB11FCB
Copiar CRC CFB11FCB
Extraida con precisión (confidencia 1) [E451820B] (AR v2)
Copia OK

Pista 8

Nombre de Archivo F:\Users\Guillermo\Documents\EAC CONVERTIDOS\08 Pista08 - Artista desconocido.wav

Nivel Pico 71.2 %
Velocidad de extracción 5.0 X
Calidad de Pista 100.0 %
Comprobación CRC 2F065687
Copiar CRC 2F065687
Extraida con precisión (confidencia 1) [8D3EF8BB] (AR v2)
Copia OK

Pista 9

Nombre de Archivo F:\Users\Guillermo\Documents\EAC CONVERTIDOS\09 Pista09 - Artista desconocido.wav

Nivel Pico 66.4 %
Velocidad de extracción 5.1 X
Calidad de Pista 100.0 %
Comprobación CRC 50CDC3C2
Copiar CRC 50CDC3C2
Extraida con precisión (confidencia 1) [1F6F0A26] (AR v2)
Copia OK

Pista 10

Nombre de Archivo F:\Users\Guillermo\Documents\EAC CONVERTIDOS\10 Pista10 - Artista desconocido.wav

Nivel Pico 79.9 %
Velocidad de extracción 5.0 X
Calidad de Pista 100.0 %
Comprobación CRC A459D3BC
Copiar CRC A459D3BC
Extraida con precisión (confidencia 1) [13562974] (AR v2)
Copia OK

Pista 11

Nombre de Archivo F:\Users\Guillermo\Documents\EAC CONVERTIDOS\11 Pista11 - Artista desconocido.wav

Nivel Pico 62.7 %
Velocidad de extracción 3.8 X
Calidad de Pista 99.8 %
Comprobación CRC AE21CDBE
Copiar CRC AE21CDBE
Extraida con precisión (confidencia 1) [19BD2C56] (AR v2)
Copia OK

Pista 12

Nombre de Archivo F:\Users\Guillermo\Documents\EAC CONVERTIDOS\12 Pista12 - Artista desconocido.wav

Nivel Pico 79.2 %
Velocidad de extracción 5.0 X
Calidad de Pista 100.0 %
Comprobación CRC 304501C8
Copiar CRC 304501C8
Extraida con precisión (confidencia 1) [B57B5729] (AR v2)
Copia OK

Pista 13

Nombre de Archivo F:\Users\Guillermo\Documents\EAC CONVERTIDOS\13 Pista13 - Artista desconocido.wav

Nivel Pico 94.3 %
Velocidad de extracción 6.5 X
Calidad de Pista 100.0 %
Comprobación CRC 222707A2
Copiar CRC 222707A2
Extraida con precisión (confidencia 1) [605F1910] (AR v2)
Copia OK

Pista 14

Nombre de Archivo F:\Users\Guillermo\Documents\EAC CONVERTIDOS\14 Pista14 - Artista desconocido.wav

Nivel Pico 87.8 %
Velocidad de extracción 6.0 X
Calidad de Pista 100.0 %
Comprobación CRC 3EC3E4BC
Copiar CRC 3EC3E4BC
Extraida con precisión (confidencia 1) [0E4CB2B8] (AR v2)
Copia OK

Pista 15

Nombre de Archivo F:\Users\Guillermo\Documents\EAC CONVERTIDOS\15 Pista15 - Artista desconocido.wav

Nivel Pico 87.5 %
Velocidad de extracción 5.2 X
Calidad de Pista 100.0 %
Comprobación CRC 5F464F53
Copiar CRC 5F464F53
Extraida con precisión (confidencia 1) [499CE521] (AR v2)
Copia OK

Pista 16

Nombre de Archivo F:\Users\Guillermo\Documents\EAC CONVERTIDOS\16 Pista16 - Artista desconocido.wav

Nivel Pico 97.1 %
Velocidad de extracción 7.3 X
Calidad de Pista 100.0 %
Comprobación CRC 04BC6370
Copiar CRC 04BC6370
Extraida con precisión (confidencia 1) [801D2826] (AR v2)
Copia OK

Pista 17

Nombre de Archivo F:\Users\Guillermo\Documents\EAC CONVERTIDOS\17 Pista17 - Artista desconocido.wav

Nivel Pico 94.2 %
Velocidad de extracción 7.2 X
Calidad de Pista 100.0 %
Comprobación CRC 5BB5A9AA
Copiar CRC 5BB5A9AA
Extraida con precisión (confidencia 1) [DD899D51] (AR v2)
Copia OK

Pista 18

Nombre de Archivo F:\Users\Guillermo\Documents\EAC CONVERTIDOS\18 Pista18 - Artista desconocido.wav

Nivel Pico 83.3 %
Velocidad de extracción 7.1 X
Calidad de Pista 100.0 %
Comprobación CRC D83F8673
Copiar CRC D83F8673
Extraida con precisión (confidencia 1) [81605AA6] (AR v2)
Copia OK

Pista 19

Nombre de Archivo F:\Users\Guillermo\Documents\EAC CONVERTIDOS\19 Pista19 - Artista desconocido.wav

Nivel Pico 77.7 %
Velocidad de extracción 8.2 X
Calidad de Pista 100.0 %
Comprobación CRC 22355F9B
Copiar CRC 22355F9B
Extraida con precisión (confidencia 1) [A12847B6] (AR v2)
Copia OK

Pista 20

Nombre de Archivo F:\Users\Guillermo\Documents\EAC CONVERTIDOS\20 Pista20 - Artista desconocido.wav

Nivel Pico 47.4 %
Velocidad de extracción 7.7 X
Calidad de Pista 99.9 %
Comprobación CRC 10F596B5
Copiar CRC 10F596B5
Extraida con precisión (confidencia 1) [0AE58C22] (AR v2)
Copia OK

Pista 21

Nombre de Archivo F:\Users\Guillermo\Documents\EAC CONVERTIDOS\21 Pista21 - Artista desconocido.wav

Nivel Pico 49.5 %
Velocidad de extracción 7.8 X
Calidad de Pista 100.0 %
Comprobación CRC DEF7917A
Copiar CRC DEF7917A
Extraida con precisión (confidencia 1) [E20B2555] (AR v2)
Copia OK

Pista 22

Nombre de Archivo F:\Users\Guillermo\Documents\EAC CONVERTIDOS\22 Pista22 - Artista desconocido.wav

Nivel Pico 81.2 %
Velocidad de extracción 8.6 X
Calidad de Pista 100.0 %
Comprobación CRC 6A87F5E2
Copiar CRC 6A87F5E2
Extraida con precisión (confidencia 1) [C76C7429] (AR v2)
Copia OK

Pista 23

Nombre de Archivo F:\Users\Guillermo\Documents\EAC CONVERTIDOS\23 Pista23 - Artista desconocido.wav

Nivel Pico 62.4 %
Velocidad de extracción 9.2 X
Calidad de Pista 100.0 %
Comprobación CRC D7240CDF
Copiar CRC D7240CDF
Extraida con precisión (confidencia 1) [06642450] (AR v2)
Copia OK

Pista 24

Nombre de Archivo F:\Users\Guillermo\Documents\EAC CONVERTIDOS\24 Pista24 - Artista desconocido.wav

Nivel Pico 83.0 %
Velocidad de extracción 8.2 X
Calidad de Pista 100.0 %
Comprobación CRC B6AF636F
Copiar CRC B6AF636F
Extraida con precisión (confidencia 1) [19AF623E] (AR v2)
Copia OK

Pista 25

Nombre de Archivo F:\Users\Guillermo\Documents\EAC CONVERTIDOS\25 Pista25 - Artista desconocido.wav

Nivel Pico 69.5 %
Velocidad de extracción 5.7 X
Calidad de Pista 100.0 %
Comprobación CRC C011A0F9
Copiar CRC C011A0F9
Extraida con precisión (confidencia 1) [89E4FA63] (AR v2)
Copia OK

Pista 26

Nombre de Archivo F:\Users\Guillermo\Documents\EAC CONVERTIDOS\26 Pista26 - Artista desconocido.wav

Nivel Pico 72.3 %
Velocidad de extracción 9.0 X
Calidad de Pista 100.0 %
Comprobación CRC D0A2D4B0
Copiar CRC D0A2D4B0
Extraida con precisión (confidencia 1) [7A60C631] (AR v2)
Copia OK

Pista 27

Nombre de Archivo F:\Users\Guillermo\Documents\EAC CONVERTIDOS\27 Pista27 - Artista desconocido.wav

Nivel Pico 23.7 %
Velocidad de extracción 8.3 X
Calidad de Pista 100.0 %
Comprobación CRC 9F5BC201
Copiar CRC 9F5BC201
Extraida con precisión (confidencia 1) [DD3ED8FB] (AR v2)
Copia OK


Todas las pistas extraidas con precisión

Sin Errores

Final del Informe

–– CUETools DB Plugin V2.1.6

[CTDB TOCID: _7zkrEQEbrHzX04cXRjoiyKM.js-] disk not present in database
Submit result: _7zkrEQEbrHzX04cXRjoiyKM.js- has been uploaded


==== Log checksum 3C194BB5B37B2137F6EB0F9E607006E919F1037626DF3D80B6B805F18596D94A ====

––––––––––––––––––––––––––––––

Exact Audio Copy V1.3 from 2. September 2016

Archivo Log de extracciones desde 31. Enero 2018, 6:52

Artista desconocido / Título desconocido

Usar unidad : HL-DT-STDVDRAM GH24NSC0 Adapter: 1 ID: 1

Modo de Lectura : : Seguro
Utilizar corriente precisa : Sí
Caché de audio por defecto : Sí
Utilizar los punteros C2 : No

Corrección de Desplazamiento de Lectura : : 6
Sobreleer tanto en Lead-In como en Lead-Out : No
Rellenar las muestras faltantes con silencios : Sí
Eliminar silencios inicial y final : No
Muestras nulas usadas en los calculos de CRC : Sí
Interfaz usada : Interfaz propio de Win32 para Windowns NT y 2000
Manejo de huecos : Anexada a la pista anterior

Formato de Salida utilizado : : Compresor definido por el Usuario
Velocidad de bits seleccionada : 896 kBit/s
Calidad : Alta
Añadir ID3 tag : Sí
linea de comandos del compresor : C:\Program Files (x86)\Exact Audio Copy\FLAC\FLAC.EXE
Opciones adicionales en línea de comandos : : -6 -V -T "ARTIST=%artist%" -T "TITLE=%title%" -T "ALBUM=%albumtitle%" -T "DATE=%year%" -T "TRACKNUMBER=%tracknr%" -T "GENRE=%genre%" -T "COMMENT=%comment%" -T "BAND=%albuminterpret%" -T "ALBUMARTIST=%albuminterpret%" -T "COMPOSER=%composer%" %haslyrics%–tag-from-file=LYRICS="%lyricsfile%"%haslyrics% -T "DISCNUMBER=%cdnumber%" -T "TOTALDISCS=%totalcds%" -T "TOTALTRACKS=%numtracks%" %hascover%–picture="%coverfile%"%hascover% %source% -o %dest%


TOC extraídos del CD

Pista | Inicio | Longitud | Inicio del sector | Fin del sector
–––––––––––––––––––––––––––––––––
1 | 0:00.00 | 3:06.44 | 0 | 13993
2 | 3:06.44 | 3:33.27 | 13994 | 29995
3 | 6:39.71 | 0:48.37 | 29996 | 33632
4 | 7:28.33 | 1:54.51 | 33633 | 42233
5 | 9:23.09 | 1:38.26 | 42234 | 49609
6 | 11:01.35 | 0:33.39 | 49610 | 52123
7 | 11:34.74 | 1:10.06 | 52124 | 57379
8 | 12:45.05 | 1:40.07 | 57380 | 64886
9 | 14:25.12 | 1:37.16 | 64887 | 72177
10 | 16:02.28 | 1:28.26 | 72178 | 78803
11 | 17:30.54 | 1:40.66 | 78804 | 86369
12 | 19:11.45 | 1:11.61 | 86370 | 91755
13 | 20:23.31 | 3:09.60 | 91756 | 105990
14 | 23:33.16 | 2:00.48 | 105991 | 115038
15 | 25:33.64 | 1:09.33 | 115039 | 120246
16 | 26:43.22 | 4:33.30 | 120247 | 140751
17 | 31:16.52 | 3:09.22 | 140752 | 154948
18 | 34:25.74 | 2:34.06 | 154949 | 166504
19 | 37:00.05 | 4:52.32 | 166505 | 188436
20 | 41:52.37 | 6:29.32 | 188437 | 217643
21 | 48:21.69 | 2:18.69 | 217644 | 228062
22 | 50:40.63 | 3:35.48 | 228063 | 244235
23 | 54:16.36 | 5:08.09 | 244236 | 267344
24 | 59:24.45 | 2:13.13 | 267345 | 277332
25 | 61:37.58 | 0:43.65 | 277333 | 280622
26 | 62:21.48 | 3:07.28 | 280623 | 294675
27 | 65:29.01 | 1:59.42 | 294676 | 303642


Pista 1

Nombre de Archivo F:\Users\Guillermo\Documents\EAC CONVERTIDOS\01 Pista01 - Artista desconocido.wav

Longitud Pre-gap 0:00:02.00

Nivel Pico 88.9 %
Velocidad de extracción 3.7 X
Calidad de Pista 99.9 %
Comprobación CRC FDDC4089
Copiar CRC FDDC4089
Extraida con precisión (confidencia 1) [874E7C37] (AR v2)
Copia OK

Pista 2

Nombre de Archivo F:\Users\Guillermo\Documents\EAC CONVERTIDOS\02 Pista02 - Artista desconocido.wav

Nivel Pico 87.4 %
Velocidad de extracción 5.0 X
Calidad de Pista 100.0 %
Comprobación CRC 47327A32
Copiar CRC 47327A32
Extraida con precisión (confidencia 1) [0160B60B] (AR v2)
Copia OK

Pista 3

Nombre de Archivo F:\Users\Guillermo\Documents\EAC CONVERTIDOS\03 Pista03 - Artista desconocido.wav

Nivel Pico 61.0 %
Velocidad de extracción 3.4 X
Calidad de Pista 100.0 %
Comprobación CRC 059995B4
Copiar CRC 059995B4
Extraida con precisión (confidencia 1) [92EBCBEF] (AR v2)
Copia OK

Pista 4

Nombre de Archivo F:\Users\Guillermo\Documents\EAC CONVERTIDOS\04 Pista04 - Artista desconocido.wav

Nivel Pico 57.7 %
Velocidad de extracción 4.8 X
Calidad de Pista 100.0 %
Comprobación CRC 3D11AAD4
Copiar CRC 3D11AAD4
Extraida con precisión (confidencia 1) [ABF93B92] (AR v2)
Copia OK

Pista 5

Nombre de Archivo F:\Users\Guillermo\Documents\EAC CONVERTIDOS\05 Pista05 - Artista desconocido.wav

Nivel Pico 96.5 %
Velocidad de extracción 4.8 X
Calidad de Pista 100.0 %
Comprobación CRC 9F1D8E3E
Copiar CRC 9F1D8E3E
Extraida con precisión (confidencia 1) [6604921A] (AR v2)
Copia OK

Pista 6

Nombre de Archivo F:\Users\Guillermo\Documents\EAC CONVERTIDOS\06 Pista06 - Artista desconocido.wav

Nivel Pico 60.4 %
Velocidad de extracción 1.7 X
Calidad de Pista 99.6 %
Comprobación CRC C372925C
Copiar CRC C372925C
Extraida con precisión (confidencia 1) [5A4ED8A1] (AR v2)
Copia OK

Pista 7

Nombre de Archivo F:\Users\Guillermo\Documents\EAC CONVERTIDOS\07 Pista07 - Artista desconocido.wav

Nivel Pico 51.0 %
Velocidad de extracción 4.3 X
Calidad de Pista 100.0 %
Comprobación CRC CFB11FCB
Copiar CRC CFB11FCB
Extraida con precisión (confidencia 1) [E451820B] (AR v2)
Copia OK

Pista 8

Nombre de Archivo F:\Users\Guillermo\Documents\EAC CONVERTIDOS\08 Pista08 - Artista desconocido.wav

Nivel Pico 71.2 %
Velocidad de extracción 5.0 X
Calidad de Pista 100.0 %
Comprobación CRC 2F065687
Copiar CRC 2F065687
Extraida con precisión (confidencia 1) [8D3EF8BB] (AR v2)
Copia OK

Pista 9

Nombre de Archivo F:\Users\Guillermo\Documents\EAC CONVERTIDOS\09 Pista09 - Artista desconocido.wav

Nivel Pico 66.4 %
Velocidad de extracción 5.1 X
Calidad de Pista 100.0 %
Comprobación CRC 50CDC3C2
Copiar CRC 50CDC3C2
Extraida con precisión (confidencia 1) [1F6F0A26] (AR v2)
Copia OK

Pista 10

Nombre de Archivo F:\Users\Guillermo\Documents\EAC CONVERTIDOS\10 Pista10 - Artista desconocido.wav

Nivel Pico 79.9 %
Velocidad de extracción 5.0 X
Calidad de Pista 100.0 %
Comprobación CRC A459D3BC
Copiar CRC A459D3BC
Extraida con precisión (confidencia 1) [13562974] (AR v2)
Copia OK

Pista 11

Nombre de Archivo F:\Users\Guillermo\Documents\EAC CONVERTIDOS\11 Pista11 - Artista desconocido.wav

Nivel Pico 62.7 %
Velocidad de extracción 3.8 X
Calidad de Pista 99.8 %
Comprobación CRC AE21CDBE
Copiar CRC AE21CDBE
Extraida con precisión (confidencia 1) [19BD2C56] (AR v2)
Copia OK

Pista 12

Nombre de Archivo F:\Users\Guillermo\Documents\EAC CONVERTIDOS\12 Pista12 - Artista desconocido.wav

Nivel Pico 79.2 %
Velocidad de extracción 5.0 X
Calidad de Pista 100.0 %
Comprobación CRC 304501C8
Copiar CRC 304501C8
Extraida con precisión (confidencia 1) [B57B5729] (AR v2)
Copia OK

Pista 13

Nombre de Archivo F:\Users\Guillermo\Documents\EAC CONVERTIDOS\13 Pista13 - Artista desconocido.wav

Nivel Pico 94.3 %
Velocidad de extracción 6.5 X
Calidad de Pista 100.0 %
Comprobación CRC 222707A2
Copiar CRC 222707A2
Extraida con precisión (confidencia 1) [605F1910] (AR v2)
Copia OK

Pista 14

Nombre de Archivo F:\Users\Guillermo\Documents\EAC CONVERTIDOS\14 Pista14 - Artista desconocido.wav

Nivel Pico 87.8 %
Velocidad de extracción 6.0 X
Calidad de Pista 100.0 %
Comprobación CRC 3EC3E4BC
Copiar CRC 3EC3E4BC
Extraida con precisión (confidencia 1) [0E4CB2B8] (AR v2)
Copia OK

Pista 15

Nombre de Archivo F:\Users\Guillermo\Documents\EAC CONVERTIDOS\15 Pista15 - Artista desconocido.wav

Nivel Pico 87.5 %
Velocidad de extracción 5.2 X
Calidad de Pista 100.0 %
Comprobación CRC 5F464F53
Copiar CRC 5F464F53
Extraida con precisión (confidencia 1) [499CE521] (AR v2)
Copia OK

Pista 16

Nombre de Archivo F:\Users\Guillermo\Documents\EAC CONVERTIDOS\16 Pista16 - Artista desconocido.wav

Nivel Pico 97.1 %
Velocidad de extracción 7.3 X
Calidad de Pista 100.0 %
Comprobación CRC 04BC6370
Copiar CRC 04BC6370
Extraida con precisión (confidencia 1) [801D2826] (AR v2)
Copia OK

Pista 17

Nombre de Archivo F:\Users\Guillermo\Documents\EAC CONVERTIDOS\17 Pista17 - Artista desconocido.wav

Nivel Pico 94.2 %
Velocidad de extracción 7.2 X
Calidad de Pista 100.0 %
Comprobación CRC 5BB5A9AA
Copiar CRC 5BB5A9AA
Extraida con precisión (confidencia 1) [DD899D51] (AR v2)
Copia OK

Pista 18

Nombre de Archivo F:\Users\Guillermo\Documents\EAC CONVERTIDOS\18 Pista18 - Artista desconocido.wav

Nivel Pico 83.3 %
Velocidad de extracción 7.1 X
Calidad de Pista 100.0 %
Comprobación CRC D83F8673
Copiar CRC D83F8673
Extraida con precisión (confidencia 1) [81605AA6] (AR v2)
Copia OK

Pista 19

Nombre de Archivo F:\Users\Guillermo\Documents\EAC CONVERTIDOS\19 Pista19 - Artista desconocido.wav

Nivel Pico 77.7 %
Velocidad de extracción 8.2 X
Calidad de Pista 100.0 %
Comprobación CRC 22355F9B
Copiar CRC 22355F9B
Extraida con precisión (confidencia 1) [A12847B6] (AR v2)
Copia OK

Pista 20

Nombre de Archivo F:\Users\Guillermo\Documents\EAC CONVERTIDOS\20 Pista20 - Artista desconocido.wav

Nivel Pico 47.4 %
Velocidad de extracción 7.7 X
Calidad de Pista 99.9 %
Comprobación CRC 10F596B5
Copiar CRC 10F596B5
Extraida con precisión (confidencia 1) [0AE58C22] (AR v2)
Copia OK

Pista 21

Nombre de Archivo F:\Users\Guillermo\Documents\EAC CONVERTIDOS\21 Pista21 - Artista desconocido.wav

Nivel Pico 49.5 %
Velocidad de extracción 7.8 X
Calidad de Pista 100.0 %
Comprobación CRC DEF7917A
Copiar CRC DEF7917A
Extraida con precisión (confidencia 1) [E20B2555] (AR v2)
Copia OK

Pista 22

Nombre de Archivo F:\Users\Guillermo\Documents\EAC CONVERTIDOS\22 Pista22 - Artista desconocido.wav

Nivel Pico 81.2 %
Velocidad de extracción 8.6 X
Calidad de Pista 100.0 %
Comprobación CRC 6A87F5E2
Copiar CRC 6A87F5E2
Extraida con precisión (confidencia 1) [C76C7429] (AR v2)
Copia OK

Pista 23

Nombre de Archivo F:\Users\Guillermo\Documents\EAC CONVERTIDOS\23 Pista23 - Artista desconocido.wav

Nivel Pico 62.4 %
Velocidad de extracción 9.2 X
Calidad de Pista 100.0 %
Comprobación CRC D7240CDF
Copiar CRC D7240CDF
Extraida con precisión (confidencia 1) [06642450] (AR v2)
Copia OK

Pista 24

Nombre de Archivo F:\Users\Guillermo\Documents\EAC CONVERTIDOS\24 Pista24 - Artista desconocido.wav

Nivel Pico 83.0 %
Velocidad de extracción 8.2 X
Calidad de Pista 100.0 %
Comprobación CRC B6AF636F
Copiar CRC B6AF636F
Extraida con precisión (confidencia 1) [19AF623E] (AR v2)
Copia OK

Pista 25

Nombre de Archivo F:\Users\Guillermo\Documents\EAC CONVERTIDOS\25 Pista25 - Artista desconocido.wav

Nivel Pico 69.5 %
Velocidad de extracción 5.7 X
Calidad de Pista 100.0 %
Comprobación CRC C011A0F9
Copiar CRC C011A0F9
Extraida con precisión (confidencia 1) [89E4FA63] (AR v2)
Copia OK

Pista 26

Nombre de Archivo F:\Users\Guillermo\Documents\EAC CONVERTIDOS\26 Pista26 - Artista desconocido.wav

Nivel Pico 72.3 %
Velocidad de extracción 9.0 X
Calidad de Pista 100.0 %
Comprobación CRC D0A2D4B0
Copiar CRC D0A2D4B0
Extraida con precisión (confidencia 1) [7A60C631] (AR v2)
Copia OK

Pista 27

Nombre de Archivo F:\Users\Guillermo\Documents\EAC CONVERTIDOS\27 Pista27 - Artista desconocido.wav

Nivel Pico 23.7 %
Velocidad de extracción 8.3 X
Calidad de Pista 100.0 %
Comprobación CRC 9F5BC201
Copiar CRC 9F5BC201
Extraida con precisión (confidencia 1) [DD3ED8FB] (AR v2)
Copia OK


Todas las pistas extraidas con precisión

Sin Errores

Final del Informe

–– CUETools DB Plugin V2.1.6

[CTDB TOCID: _7zkrEQEbrHzX04cXRjoiyKM.js-] disk not present in database
Submit result: _7zkrEQEbrHzX04cXRjoiyKM.js- has been uploaded


==== Log checksum 3C194BB5B37B2137F6EB0F9E607006E919F1037626DF3D80B6B805F18596D94A ====

[CUETools log; Date: 06.02.2018 10:39:04; Version: 2.1.5]
[CTDB TOCID: _7zkrEQEbrHzX04cXRjoiyKM.js-] found.
Track | CTDB Status
1 | (1/1) Accurately ripped
2 | (1/1) Accurately ripped
3 | (1/1) Accurately ripped
4 | (1/1) Accurately ripped
5 | (1/1) Accurately ripped
6 | (1/1) Accurately ripped
7 | (1/1) Accurately ripped
8 | (1/1) Accurately ripped
9 | (1/1) Accurately ripped
10 | (1/1) Accurately ripped
11 | (1/1) Accurately ripped
12 | (1/1) Accurately ripped
13 | (1/1) Accurately ripped
14 | (1/1) Accurately ripped
15 | (1/1) Accurately ripped
16 | (1/1) Accurately ripped
17 | (1/1) Accurately ripped
18 | (1/1) Accurately ripped
19 | (1/1) Accurately ripped
20 | (1/1) Accurately ripped
21 | (1/1) Accurately ripped
22 | (1/1) Accurately ripped
23 | (1/1) Accurately ripped
24 | (1/1) Accurately ripped
25 | (1/1) Accurately ripped
26 | (1/1) Accurately ripped
27 | (1/1) Accurately ripped
[AccurateRip ID: 0039a791-0480b643-870fd01b] found.
Track [ CRC | V2 ] Status
01 [b4835848|874e7c37] (0+1/1) Accurately ripped
02 [b2f78aa4|0160b60b] (0+1/1) Accurately ripped
03 [60a57091|92ebcbef] (0+1/1) Accurately ripped
04 [c1cbaba0|abf93b92] (0+1/1) Accurately ripped
05 [815ed7c6|6604921a] (0+1/1) Accurately ripped
06 [c6e6fc9e|5a4ed8a1] (0+1/1) Accurately ripped
07 [e4e600f8|e451820b] (0+1/1) Accurately ripped
08 [2fbe39e8|8d3ef8bb] (0+1/1) Accurately ripped
09 [78284cd3|1f6f0a26] (0+1/1) Accurately ripped
10 [7f7923a6|13562974] (0+1/1) Accurately ripped
11 [1ebe6591|19bd2c56] (0+1/1) Accurately ripped
12 [ec86b139|b57b5729] (0+1/1) Accurately ripped
13 [4365fc67|605f1910] (0+1/1) Accurately ripped
14 [439a85f6|0e4cb2b8] (0+1/1) Accurately ripped
15 [cd518b99|499ce521] (0+1/1) Accurately ripped
16 [f6f39cf7|801d2826] (0+1/1) Accurately ripped
17 [bb1d5911|dd899d51] (0+1/1) Accurately ripped
18 [327cd3c2|81605aa6] (0+1/1) Accurately ripped
19 [75e24fc3|a12847b6] (0+1/1) Accurately ripped
20 [89b164d0|0ae58c22] (0+1/1) Accurately ripped
21 [75cd0dbb|e20b2555] (0+1/1) Accurately ripped
22 [64241892|c76c7429] (0+1/1) Accurately ripped
23 [5a465f24|06642450] (0+1/1) Accurately ripped
24 [bf0e16a9|19af623e] (0+1/1) Accurately ripped
25 [3aa9cb96|89e4fa63] (0+1/1) Accurately ripped
26 [31ab18ec|7a60c631] (0+1/1) Accurately ripped
27 [2252c9e1|dd3ed8fb] (0+1/1) Accurately ripped

Track Peak [ CRC32 ] [W/O NULL]
– 97,1 [06E949F6] [0880C2CA]
01 88,9 [FDDC4089] [F12393EF]
02 87,4 [47327A32] [1DEA806F]
03 61,0 [059995B4] [A0A27CAC]
04 57,7 [3D11AAD4] [1235191A]
05 96,5 [9F1D8E3E] [1D26F9BA]
06 60,4 [C372925C] [FCAAF106]
07 51,0 [CFB11FCB] [0635620A]
08 71,2 [2F065687] [EE7C0BCB]
09 66,4 [50CDC3C2] [31A1D53B]
10 79,9 [A459D3BC] [8B5F7B50]
11 62,7 [AE21CDBE] [D483E2BF]
12 79,2 [304501C8] [9F8F16E8]
13 94,3 [222707A2] [2BD75C79]
14 87,8 [3EC3E4BC] [1CE16BCB]
15 87,5 [5F464F53] [28377840]
16 97,1 [04BC6370] [6729D919]
17 94,2 [5BB5A9AA] [495C2F85]
18 83,3 [D83F8673] [25E29E83]
19 77,7 [22355F9B] [1E424503]
20 47,4 [10F596B5] [9E376FB8]
21 49,5 [DEF7917A] [9AE5A9A3]
22 81,2 [6A87F5E2] [773CD5B8]
23 62,4 [D7240CDF] [BDD8FB72]
24 83,0 [B6AF636F] [BAF52F58]
25 69,5 [C011A0F9] [C343BAFC]
26 72,3 [D0A2D4B0] [CA8307D5]
27 23,7 [9F5BC201] [A2E27AB1]

CD 2:
Act III
01. Viens, viens, Euridice, suis-moi
02. Viens, suis epoux que t'adore
03. Mais d'ou vient qu'il persiste a garder
04. Fortune ennemie!
05. Quelle epreuve cruelle!
06. J'ai perdu mon Euridice
07. Ah! puisse ma douleur finir avec ma vie!
08. Arrete, Orphee!
09. Tendre amour, que tes chaines
10. Ballet du triomphe de l'amour
11. L'amour triomphe

Exact Audio Copy V1.3 from 2. September 2016

Archivo Log de extracciones desde 31. Enero 2018, 7:22

Artista desconocido / Título desconocido

Usar unidad : HL-DT-STDVDRAM GH24NSC0 Adapter: 1 ID: 1

Modo de Lectura : : Seguro
Utilizar corriente precisa : Sí
Caché de audio por defecto : Sí
Utilizar los punteros C2 : No

Corrección de Desplazamiento de Lectura : : 6
Sobreleer tanto en Lead-In como en Lead-Out : No
Rellenar las muestras faltantes con silencios : Sí
Eliminar silencios inicial y final : No
Muestras nulas usadas en los calculos de CRC : Sí
Interfaz usada : Interfaz propio de Win32 para Windowns NT y 2000
Manejo de huecos : Anexada a la pista anterior

Formato de Salida utilizado : : Compresor definido por el Usuario
Velocidad de bits seleccionada : 896 kBit/s
Calidad : Alta
Añadir ID3 tag : Sí
linea de comandos del compresor : C:\Program Files (x86)\Exact Audio Copy\FLAC\FLAC.EXE
Opciones adicionales en línea de comandos : : -6 -V -T "ARTIST=%artist%" -T "TITLE=%title%" -T "ALBUM=%albumtitle%" -T "DATE=%year%" -T "TRACKNUMBER=%tracknr%" -T "GENRE=%genre%" -T "COMMENT=%comment%" -T "BAND=%albuminterpret%" -T "ALBUMARTIST=%albuminterpret%" -T "COMPOSER=%composer%" %haslyrics%–tag-from-file=LYRICS="%lyricsfile%"%haslyrics% -T "DISCNUMBER=%cdnumber%" -T "TOTALDISCS=%totalcds%" -T "TOTALTRACKS=%numtracks%" %hascover%–picture="%coverfile%"%hascover% %source% -o %dest%


TOC extraídos del CD

Pista | Inicio | Longitud | Inicio del sector | Fin del sector
–––––––––––––––––––––––––––––––––
1 | 0:00.00 | 4:23.33 | 0 | 19757
2 | 4:23.33 | 4:04.09 | 19758 | 38066
3 | 8:27.42 | 1:30.29 | 38067 | 44845
4 | 9:57.71 | 3:15.56 | 44846 | 59526
5 | 13:13.52 | 3:31.69 | 59527 | 75420
6 | 16:45.46 | 4:02.42 | 75421 | 93612
7 | 20:48.13 | 1:15.33 | 93613 | 99270
8 | 22:03.46 | 1:34.32 | 99271 | 106352
9 | 23:38.03 | 2:49.61 | 106353 | 119088
10 | 26:27.64 | 8:36.11 | 119089 | 157799
11 | 35:04.00 | 3:33.03 | 157800 | 173777


Pista 1

Nombre de Archivo F:\Users\Guillermo\Documents\EAC CONVERTIDOS\01 Pista01 - Artista desconocido.wav

Longitud Pre-gap 0:00:02.00

Nivel Pico 88.6 %
Velocidad de extracción 4.4 X
Calidad de Pista 100.0 %
Comprobación CRC C9D95A93
Copiar CRC C9D95A93
Extraida con precisión (confidencia 1) [547C458E] (AR v2)
Copia OK

Pista 2

Nombre de Archivo F:\Users\Guillermo\Documents\EAC CONVERTIDOS\02 Pista02 - Artista desconocido.wav

Nivel Pico 84.1 %
Velocidad de extracción 4.9 X
Calidad de Pista 100.0 %
Comprobación CRC 1ACF98B3
Copiar CRC 1ACF98B3
Extraida con precisión (confidencia 1) [FF110C68] (AR v2)
Copia OK

Pista 3

Nombre de Archivo F:\Users\Guillermo\Documents\EAC CONVERTIDOS\03 Pista03 - Artista desconocido.wav

Nivel Pico 70.3 %
Velocidad de extracción 4.2 X
Calidad de Pista 100.0 %
Comprobación CRC 4BE6E463
Copiar CRC 4BE6E463
Extraida con precisión (confidencia 1) [AB487FAE] (AR v2)
Copia OK

Pista 4

Nombre de Archivo F:\Users\Guillermo\Documents\EAC CONVERTIDOS\04 Pista04 - Artista desconocido.wav

Nivel Pico 83.4 %
Velocidad de extracción 5.3 X
Calidad de Pista 100.0 %
Comprobación CRC 7C52B73B
Copiar CRC 7C52B73B
Extraida con precisión (confidencia 1) [58ADBDA7] (AR v2)
Copia OK

Pista 5

Nombre de Archivo F:\Users\Guillermo\Documents\EAC CONVERTIDOS\05 Pista05 - Artista desconocido.wav

Nivel Pico 81.4 %
Velocidad de extracción 5.7 X
Calidad de Pista 100.0 %
Comprobación CRC 1C06A6CF
Copiar CRC 1C06A6CF
Extraida con precisión (confidencia 1) [E855EFE3] (AR v2)
Copia OK

Pista 6

Nombre de Archivo F:\Users\Guillermo\Documents\EAC CONVERTIDOS\06 Pista06 - Artista desconocido.wav

Nivel Pico 90.8 %
Velocidad de extracción 6.2 X
Calidad de Pista 100.0 %
Comprobación CRC BF542337
Copiar CRC BF542337
Extraida con precisión (confidencia 1) [EBCEEFA4] (AR v2)
Copia OK

Pista 7

Nombre de Archivo F:\Users\Guillermo\Documents\EAC CONVERTIDOS\07 Pista07 - Artista desconocido.wav

Nivel Pico 72.8 %
Velocidad de extracción 4.9 X
Calidad de Pista 100.0 %
Comprobación CRC 28B043F8
Copiar CRC 28B043F8
Extraida con precisión (confidencia 1) [01DA62DF] (AR v2)
Copia OK

Pista 8

Nombre de Archivo F:\Users\Guillermo\Documents\EAC CONVERTIDOS\08 Pista08 - Artista desconocido.wav

Nivel Pico 62.4 %
Velocidad de extracción 5.3 X
Calidad de Pista 100.0 %
Comprobación CRC D7C7F940
Copiar CRC D7C7F940
Extraida con precisión (confidencia 1) [B4769D06] (AR v2)
Copia OK

Pista 9

Nombre de Archivo F:\Users\Guillermo\Documents\EAC CONVERTIDOS\09 Pista09 - Artista desconocido.wav

Nivel Pico 92.5 %
Velocidad de extracción 6.3 X
Calidad de Pista 100.0 %
Comprobación CRC 8883F1F6
Copiar CRC 8883F1F6
Extraida con precisión (confidencia 1) [0252BE5C] (AR v2)
Copia OK

Pista 10

Nombre de Archivo F:\Users\Guillermo\Documents\EAC CONVERTIDOS\10 Pista10 - Artista desconocido.wav

Nivel Pico 99.8 %
Velocidad de extracción 7.7 X
Calidad de Pista 100.0 %
Comprobación CRC 01A5FDBF
Copiar CRC 01A5FDBF
Extraida con precisión (confidencia 1) [3F3C768B] (AR v2)
Copia OK

Pista 11

Nombre de Archivo F:\Users\Guillermo\Documents\EAC CONVERTIDOS\11 Pista11 - Artista desconocido.wav

Nivel Pico 84.8 %
Velocidad de extracción 7.3 X
Calidad de Pista 100.0 %
Comprobación CRC C6086776
Copiar CRC C6086776
Extraida con precisión (confidencia 1) [5AAE4244] (AR v2)
Copia OK


Todas las pistas extraidas con precisión

Sin Errores

Final del Informe

–– CUETools DB Plugin V2.1.6

[CTDB TOCID: Lj36LtUgBgRUxESoJrbGsBFhaX8-] disk not present in database
Submit result: Lj36LtUgBgRUxESoJrbGsBFhaX8- has been uploaded


==== Log checksum 48055CC8196F688ED14D322FD737987AA65A5BA9684541734CA6FA270F90B94A ====

––––––––––––––––––––––––––––––

Exact Audio Copy V1.3 from 2. September 2016

Archivo Log de extracciones desde 31. Enero 2018, 7:22

Artista desconocido / Título desconocido

Usar unidad : HL-DT-STDVDRAM GH24NSC0 Adapter: 1 ID: 1

Modo de Lectura : : Seguro
Utilizar corriente precisa : Sí
Caché de audio por defecto : Sí
Utilizar los punteros C2 : No

Corrección de Desplazamiento de Lectura : : 6
Sobreleer tanto en Lead-In como en Lead-Out : No
Rellenar las muestras faltantes con silencios : Sí
Eliminar silencios inicial y final : No
Muestras nulas usadas en los calculos de CRC : Sí
Interfaz usada : Interfaz propio de Win32 para Windowns NT y 2000
Manejo de huecos : Anexada a la pista anterior

Formato de Salida utilizado : : Compresor definido por el Usuario
Velocidad de bits seleccionada : 896 kBit/s
Calidad : Alta
Añadir ID3 tag : Sí
linea de comandos del compresor : C:\Program Files (x86)\Exact Audio Copy\FLAC\FLAC.EXE
Opciones adicionales en línea de comandos : : -6 -V -T "ARTIST=%artist%" -T "TITLE=%title%" -T "ALBUM=%albumtitle%" -T "DATE=%year%" -T "TRACKNUMBER=%tracknr%" -T "GENRE=%genre%" -T "COMMENT=%comment%" -T "BAND=%albuminterpret%" -T "ALBUMARTIST=%albuminterpret%" -T "COMPOSER=%composer%" %haslyrics%–tag-from-file=LYRICS="%lyricsfile%"%haslyrics% -T "DISCNUMBER=%cdnumber%" -T "TOTALDISCS=%totalcds%" -T "TOTALTRACKS=%numtracks%" %hascover%–picture="%coverfile%"%hascover% %source% -o %dest%


TOC extraídos del CD

Pista | Inicio | Longitud | Inicio del sector | Fin del sector
–––––––––––––––––––––––––––––––––
1 | 0:00.00 | 4:23.33 | 0 | 19757
2 | 4:23.33 | 4:04.09 | 19758 | 38066
3 | 8:27.42 | 1:30.29 | 38067 | 44845
4 | 9:57.71 | 3:15.56 | 44846 | 59526
5 | 13:13.52 | 3:31.69 | 59527 | 75420
6 | 16:45.46 | 4:02.42 | 75421 | 93612
7 | 20:48.13 | 1:15.33 | 93613 | 99270
8 | 22:03.46 | 1:34.32 | 99271 | 106352
9 | 23:38.03 | 2:49.61 | 106353 | 119088
10 | 26:27.64 | 8:36.11 | 119089 | 157799
11 | 35:04.00 | 3:33.03 | 157800 | 173777


Pista 1

Nombre de Archivo F:\Users\Guillermo\Documents\EAC CONVERTIDOS\01 Pista01 - Artista desconocido.wav

Longitud Pre-gap 0:00:02.00

Nivel Pico 88.6 %
Velocidad de extracción 4.4 X
Calidad de Pista 100.0 %
Comprobación CRC C9D95A93
Copiar CRC C9D95A93
Extraida con precisión (confidencia 1) [547C458E] (AR v2)
Copia OK

Pista 2

Nombre de Archivo F:\Users\Guillermo\Documents\EAC CONVERTIDOS\02 Pista02 - Artista desconocido.wav

Nivel Pico 84.1 %
Velocidad de extracción 4.9 X
Calidad de Pista 100.0 %
Comprobación CRC 1ACF98B3
Copiar CRC 1ACF98B3
Extraida con precisión (confidencia 1) [FF110C68] (AR v2)
Copia OK

Pista 3

Nombre de Archivo F:\Users\Guillermo\Documents\EAC CONVERTIDOS\03 Pista03 - Artista desconocido.wav

Nivel Pico 70.3 %
Velocidad de extracción 4.2 X
Calidad de Pista 100.0 %
Comprobación CRC 4BE6E463
Copiar CRC 4BE6E463
Extraida con precisión (confidencia 1) [AB487FAE] (AR v2)
Copia OK

Pista 4

Nombre de Archivo F:\Users\Guillermo\Documents\EAC CONVERTIDOS\04 Pista04 - Artista desconocido.wav

Nivel Pico 83.4 %
Velocidad de extracción 5.3 X
Calidad de Pista 100.0 %
Comprobación CRC 7C52B73B
Copiar CRC 7C52B73B
Extraida con precisión (confidencia 1) [58ADBDA7] (AR v2)
Copia OK

Pista 5

Nombre de Archivo F:\Users\Guillermo\Documents\EAC CONVERTIDOS\05 Pista05 - Artista desconocido.wav

Nivel Pico 81.4 %
Velocidad de extracción 5.7 X
Calidad de Pista 100.0 %
Comprobación CRC 1C06A6CF
Copiar CRC 1C06A6CF
Extraida con precisión (confidencia 1) [E855EFE3] (AR v2)
Copia OK

Pista 6

Nombre de Archivo F:\Users\Guillermo\Documents\EAC CONVERTIDOS\06 Pista06 - Artista desconocido.wav

Nivel Pico 90.8 %
Velocidad de extracción 6.2 X
Calidad de Pista 100.0 %
Comprobación CRC BF542337
Copiar CRC BF542337
Extraida con precisión (confidencia 1) [EBCEEFA4] (AR v2)
Copia OK

Pista 7

Nombre de Archivo F:\Users\Guillermo\Documents\EAC CONVERTIDOS\07 Pista07 - Artista desconocido.wav

Nivel Pico 72.8 %
Velocidad de extracción 4.9 X
Calidad de Pista 100.0 %
Comprobación CRC 28B043F8
Copiar CRC 28B043F8
Extraida con precisión (confidencia 1) [01DA62DF] (AR v2)
Copia OK

Pista 8

Nombre de Archivo F:\Users\Guillermo\Documents\EAC CONVERTIDOS\08 Pista08 - Artista desconocido.wav

Nivel Pico 62.4 %
Velocidad de extracción 5.3 X
Calidad de Pista 100.0 %
Comprobación CRC D7C7F940
Copiar CRC D7C7F940
Extraida con precisión (confidencia 1) [B4769D06] (AR v2)
Copia OK

Pista 9

Nombre de Archivo F:\Users\Guillermo\Documents\EAC CONVERTIDOS\09 Pista09 - Artista desconocido.wav

Nivel Pico 92.5 %
Velocidad de extracción 6.3 X
Calidad de Pista 100.0 %
Comprobación CRC 8883F1F6
Copiar CRC 8883F1F6
Extraida con precisión (confidencia 1) [0252BE5C] (AR v2)
Copia OK

Pista 10

Nombre de Archivo F:\Users\Guillermo\Documents\EAC CONVERTIDOS\10 Pista10 - Artista desconocido.wav

Nivel Pico 99.8 %
Velocidad de extracción 7.7 X
Calidad de Pista 100.0 %
Comprobación CRC 01A5FDBF
Copiar CRC 01A5FDBF
Extraida con precisión (confidencia 1) [3F3C768B] (AR v2)
Copia OK

Pista 11

Nombre de Archivo F:\Users\Guillermo\Documents\EAC CONVERTIDOS\11 Pista11 - Artista desconocido.wav

Nivel Pico 84.8 %
Velocidad de extracción 7.3 X
Calidad de Pista 100.0 %
Comprobación CRC C6086776
Copiar CRC C6086776
Extraida con precisión (confidencia 1) [5AAE4244] (AR v2)
Copia OK


Todas las pistas extraidas con precisión

Sin Errores

Final del Informe

–– CUETools DB Plugin V2.1.6

[CTDB TOCID: Lj36LtUgBgRUxESoJrbGsBFhaX8-] disk not present in database
Submit result: Lj36LtUgBgRUxESoJrbGsBFhaX8- has been uploaded


==== Log checksum 48055CC8196F688ED14D322FD737987AA65A5BA9684541734CA6FA270F90B94A ====

[CUETools log; Date: 06.02.2018 10:39:24; Version: 2.1.5]
[CTDB TOCID: Lj36LtUgBgRUxESoJrbGsBFhaX8-] found.
Track | CTDB Status
1 | (1/1) Accurately ripped
2 | (1/1) Accurately ripped
3 | (1/1) Accurately ripped
4 | (1/1) Accurately ripped
5 | (1/1) Accurately ripped
6 | (1/1) Accurately ripped
7 | (1/1) Accurately ripped
8 | (1/1) Accurately ripped
9 | (1/1) Accurately ripped
10 | (1/1) Accurately ripped
11 | (1/1) Accurately ripped
[AccurateRip ID: 000f1183-0081baa5-8b090d0b] found.
Track [ CRC | V2 ] Status
01 [fbc32715|547c458e] (0+1/1) Accurately ripped
02 [dff82530|ff110c68] (0+1/1) Accurately ripped
03 [cdfad3df|ab487fae] (0+1/1) Accurately ripped
04 [db060b13|58adbda7] (0+1/1) Accurately ripped
05 [ac383d50|e855efe3] (0+1/1) Accurately ripped
06 [82448055|ebceefa4] (0+1/1) Accurately ripped
07 [5f259fe5|01da62df] (0+1/1) Accurately ripped
08 [5ee8757c|b4769d06] (0+1/1) Accurately ripped
09 [bffb0d41|0252be5c] (0+1/1) Accurately ripped
10 [ef10d017|3f3c768b] (0+1/1) Accurately ripped
11 [4a64dd22|5aae4244] (0+1/1) Accurately ripped

Track Peak [ CRC32 ] [W/O NULL]
– 99,8 [72C69014] [78B25FAE]
01 88,6 [C9D95A93] [6E763778]
02 84,1 [1ACF98B3] [8015E335]
03 70,3 [4BE6E463] [2B15417A]
04 83,4 [7C52B73B] [E35E449E]
05 81,4 [1C06A6CF] [C65FCDBE]
06 90,8 [BF542337] [63D6C5B5]
07 72,8 [28B043F8] [1C615665]
08 62,4 [D7C7F940] [2BCCC41E]
09 92,5 [8883F1F6] [FB523451]
10 99,8 [01A5FDBF] [CBDDFB80]
11 84,8 [C6086776] [47CCFB5F]

Performers:
Orphée - Nicolai Gedda
Euridice - Janine Micheau
L'Amour - Liliane Berton
Une Ombre heureuse - Liliane Berton
Chœurs du Conservatoire de Paris
Orchestra de la Société des Concerts du Conservatoire
Louis de Froment, conductor

Thanks to the Original ripper (unknown)!

Download: