Subcategories
Please register here if you want to download anything!

If domain in your address bar is different from the list below
PLEASE LEAVE THAT SITE IMMEDIATELY
❗IT'S A DANGEROUS FAKE❗



Spicy Magazines for Men! ;-)

Night Ranger - Live In Japan (1990)

Posted By: v3122
Night Ranger - Live In Japan (1990)

Night Ranger - Live In Japan (1990)
EAC | Flac(Image) + Cue + Log & MP3 CBR 320Kbps
MCA Records, MCAD-10024 | ~ 371 or 135 Mb | Scans(jpg) -> 15 Mb
Melodic Hard Rock / AOR

Here it is: the Spinal Tap-like, end-of-career live album recorded on that final Japanese tour. Everybody's done it, and Night Ranger certainly doesn't break the mold with this efficient greatest-hits set. By spanning their entire '80s career and containing virtually every major hit ("Sister Christian," "Man in Motion," "Don't tell me You Love Me"), the album proves that this much-maligned group's music has actually aged better than that of many of their peers. The sound is crystal-clear, the backing harmonies flawless, and the overall ambience about as "live"-sounding as a high-tech studio, but then that's the case with most live albums.

by Eduardo Rivadavia, allmusic
Night Ranger - Live In Japan (1990)


Night Ranger - Live In Japan (1990):

Night Ranger - Live In Japan (1990)

Tracklist:

1. Touch Of Madness
2. When You Close Your Eyes
3. Man In Motion
4. Don't Start Thinking (I'm Alone Tonight)
5. Let Him Run
6. Goodbye
7. Reason To Be
8. Four In The Morning
9. Sister Christian
10. Don't Tell Me You Love Me
11. Halfway To The Sun
12. (You Can Still) Rock In America

Exact Audio Copy V1.1 from 23. June 2015

EAC extraction logfile from 7. July 2017, 19:50

Night Ranger / Live In Japan

Used drive : ASUS DRW-24B1ST Adapter: 1 ID: 1

Read mode : Secure
Utilize accurate stream : Yes
Defeat audio cache : Yes
Make use of C2 pointers : No

Read offset correction : 6
Overread into Lead-In and Lead-Out : No
Fill up missing offset samples with silence : Yes
Delete leading and trailing silent blocks : No
Null samples used in CRC calculations : Yes
Used interface : Native Win32 interface for Win NT & 2000

Used output format : User Defined Encoder
Selected bitrate : 128 kBit/s
Quality : High
Add ID3 tag : No
Command line compressor : C:\Program Files (x86)\Exact Audio Copy\Flac\flac.exe
Additional command line options : -V -8 -T "Genre=%genre%" -T "Artist=%artist%" -T "Title=%title%" -T "Album=%albumtitle%" -T "Date=%year%" -T "Tracknumber=%tracknr%" -T "Comment=%comment%" %source%


TOC of the extracted CD

Track | Start | Length | Start sector | End sector
––––––––––––––––––––––––––––-
1 | 0:00.00 | 5:16.10 | 0 | 23709
2 | 5:16.10 | 4:34.57 | 23710 | 44316
3 | 9:50.67 | 4:13.40 | 44317 | 63331
4 | 14:04.32 | 5:02.53 | 63332 | 86034
5 | 19:07.10 | 3:19.30 | 86035 | 100989
6 | 22:26.40 | 2:55.37 | 100990 | 114151
7 | 25:22.02 | 4:16.28 | 114152 | 133379
8 | 29:38.30 | 3:48.47 | 133380 | 150526
9 | 33:27.02 | 5:17.00 | 150527 | 174301
10 | 38:44.02 | 6:46.50 | 174302 | 204801
11 | 45:30.52 | 5:27.03 | 204802 | 229329
12 | 50:57.55 | 4:55.25 | 229330 | 251479


Range status and errors

Selected range

Filename E:\Torrent\# MY\# Подготовка раздач\Night Ranger\1990 - Live In Japan (MCA Records, MCAD-10024, U.S.A.)\Night Ranger - Live In Japan.wav

Peak level 94.0 %
Extraction speed 5.6 X
Range quality 100.0 %
Test CRC E727D983
Copy CRC E727D983
Copy OK

No errors occurred


AccurateRip summary

Track 1 accurately ripped (confidence 1) [3B08F862] (AR v2)
Track 2 accurately ripped (confidence 1) [6DAE7929] (AR v2)
Track 3 accurately ripped (confidence 1) [252C7A54] (AR v2)
Track 4 accurately ripped (confidence 1) [B7392ED8] (AR v2)
Track 5 accurately ripped (confidence 1) [3A786C76] (AR v2)
Track 6 accurately ripped (confidence 1) [AC674FD4] (AR v2)
Track 7 accurately ripped (confidence 1) [DA31380F] (AR v2)
Track 8 accurately ripped (confidence 1) [63056687] (AR v2)
Track 9 accurately ripped (confidence 1) [BC60ADCD] (AR v2)
Track 10 accurately ripped (confidence 1) [E58A3F7E] (AR v2)
Track 11 accurately ripped (confidence 1) [3947CDC9] (AR v2)
Track 12 accurately ripped (confidence 1) [C05CC2FD] (AR v2)

All tracks accurately ripped

End of status report

–– CUETools DB Plugin V2.1.6

[CTDB TOCID: gY1biJmiBfjxKvtQX6spXS556cc-] found
Submit result: gY1biJmiBfjxKvtQX6spXS556cc- has been confirmed
Track | CTDB Status
1 | (4/4) Accurately ripped
2 | (4/4) Accurately ripped
3 | (4/4) Accurately ripped
4 | (4/4) Accurately ripped
5 | (4/4) Accurately ripped
6 | (4/4) Accurately ripped
7 | (4/4) Accurately ripped
8 | (4/4) Accurately ripped
9 | (4/4) Accurately ripped
10 | (4/4) Accurately ripped
11 | (4/4) Accurately ripped
12 | (4/4) Accurately ripped


==== Log checksum 0086B54E651CBD85E1259502E11D4EF720F9A5C4E75D86167D1ECE1278CCF9BF ====


[CUETools log; Date: 18.09.2017 13:42:35; Version: 2.1.5]
[CTDB TOCID: gY1biJmiBfjxKvtQX6spXS556cc-] found.
Track | CTDB Status
1 | (5/5) Accurately ripped
2 | (5/5) Accurately ripped
3 | (5/5) Accurately ripped
4 | (5/5) Accurately ripped
5 | (5/5) Accurately ripped
6 | (5/5) Accurately ripped
7 | (5/5) Accurately ripped
8 | (5/5) Accurately ripped
9 | (5/5) Accurately ripped
10 | (5/5) Accurately ripped
11 | (5/5) Accurately ripped
12 | (5/5) Accurately ripped
[AccurateRip ID: 00180da5-00e06bf8-a20d190c] found.
Track [ CRC | V2 ] Status
01 [5e10e14b|3b08f862] (0+2/2) Accurately ripped
02 [18f82cf1|6dae7929] (0+2/2) Accurately ripped
03 [26548402|252c7a54] (0+2/2) Accurately ripped
04 [7b2ef7cc|b7392ed8] (0+2/2) Accurately ripped
05 [48ab6fcc|3a786c76] (0+2/2) Accurately ripped
06 [5ebe374f|ac674fd4] (0+2/2) Accurately ripped
07 [bb29973e|da31380f] (0+2/2) Accurately ripped
08 [50654eb8|63056687] (0+2/2) Accurately ripped
09 [5dcceb88|bc60adcd] (0+2/2) Accurately ripped
10 [58d0abef|e58a3f7e] (0+2/2) Accurately ripped
11 [db488c4d|3947cdc9] (0+2/2) Accurately ripped
12 [68170930|c05cc2fd] (0+2/2) Accurately ripped
Offsetted by -10:
01 [de7b427a] (0/2) No match (V2 was not tested)
02 [dabcece0] (0/2) No match (V2 was not tested)
03 [a970ea24] (0/2) No match (V2 was not tested)
04 [78c1bacb] (0/2) No match (V2 was not tested)
05 [11fb1f8b] (0/2) No match (V2 was not tested)
06 [d0abea2b] (0/2) No match (V2 was not tested)
07 [e4603f29] (0/2) No match (V2 was not tested)
08 [8d681a86] (0/2) No match (V2 was not tested)
09 [f5b1d8f8] (0/2) No match (V2 was not tested)
10 [42ca4c78] (0/2) No match (V2 was not tested)
11 [75ef88f7] (0/2) No match (V2 was not tested)
12 [a0329024] (0/2) No match (V2 was not tested)

Track Peak [ CRC32 ] [W/O NULL] [ LOG ]
– 94,0 [E727D983] [DE6B0EB9] CRC32
01 80,8 [0B6C30A0] [972FE2B8]
02 74,9 [7F0DA16A] [DBB87ADF]
03 82,8 [9DF70A2C] [9238DE77]
04 69,3 [F8F46FA4] [40B099E6]
05 60,7 [C080B911] [04592647]
06 68,9 [64181AA3] [DF4D7F0F]
07 66,4 [9AB06E7C] [08E7A9FA]
08 61,1 [3F7F37C7] [ED31145B]
09 71,8 [2BA3E595] [B2D45C4E]
10 69,7 [D5496DF5] [77274665]
11 94,0 [F2D3102B] [392B6DD9]
12 73,9 [1331DFC4] [6B78A114]


Night Ranger - Live In Japan (1990)

All thanks go to Ginger Devil

Night Ranger in my Blog

Download Night Ranger - Live In Japan (1990):