Subcategories
Please register here if you want to download anything!

If domain in your address bar is different from the list below
PLEASE LEAVE THAT SITE IMMEDIATELY
❗IT'S A DANGEROUS FAKE❗



Spicy Magazines for Men! ;-)

Night Ranger - New York Time (1997) EP

Posted By: v3122
Night Ranger - New York Time (1997) EP

Night Ranger - New York Time (1997)
EAC | Flac(Image) + Cue + Log & MP3 CBR 320Kbps
Zero Corporation, XRCN-1299 | Japan | ~ 126 or 41 Mb | Scans(jpg) -> 25 Mb
Melodic Hard Rock / AOR

Night Ranger is an American rock band formed in San Francisco, California in the early 80's. A band that epitomized the mega-selling, big hair, soft metal sound, Night Ranger took a break at the end of that decade but reunited in 1996 and they continue to perform in various guises. Night Ranger had a string of best-selling albums with sales of more than 16 million copies fuelled by multiple hit singles—particularly their first hit, "Sister Christian".
The band started when Jack Blades (bass/lead vocals), Jeff Watson (guitarist/singer), Brad Gillis (guitarist/singer), and Kelly Keagy(drummer/lead singer) joined forces in San Francisco in the early ‘80s with keyboardist Alan Fitzgerald (Sammy Hagar, Montrose) to launch Night Ranger. The group drew the attention of legendary promoter Bill Graham and was soon appearing in concert with major artists such as the Doobie Brothers, Santana, Rick Springfield, and Judas Priest…

~ discogs
Night Ranger - New York Time (1997) EP


Night Ranger - New York Time (1997):

Night Ranger - New York Time (1997) EP

Tracklist:

1. New York Time
2. Walk In The Future
3. Don't Tell Me You Love Me '97
4. (You Can Still) Rock In America '97 (Karaoke version)

Exact Audio Copy V1.1 from 23. June 2015

EAC extraction logfile from 5. February 2017, 17:36

Night Ranger / New York Time (EP)

Used drive : ASUS DRW-24B1ST Adapter: 1 ID: 1

Read mode : Secure
Utilize accurate stream : Yes
Defeat audio cache : Yes
Make use of C2 pointers : No

Read offset correction : 6
Overread into Lead-In and Lead-Out : No
Fill up missing offset samples with silence : Yes
Delete leading and trailing silent blocks : No
Null samples used in CRC calculations : Yes
Used interface : Native Win32 interface for Win NT & 2000

Used output format : User Defined Encoder
Selected bitrate : 1024 kBit/s
Quality : High
Add ID3 tag : No
Command line compressor : C:\Program Files (x86)\Exact Audio Copy\Flac\flac.exe
Additional command line options : -V -8 -T "Date=%year%" -T "Genre=%genre%" %source%


TOC of the extracted CD

Track | Start | Length | Start sector | End sector
––––––––––––––––––––––––––––-
1 | 0:00.00 | 4:43.25 | 0 | 21249
2 | 4:43.25 | 4:01.35 | 21250 | 39359
3 | 8:44.60 | 4:32.72 | 39360 | 59831
4 | 13:17.57 | 4:15.20 | 59832 | 78976


Range status and errors

Selected range

Filename E:\Torrent\# MY\# Подготовка раздач\Night Ranger - Discography\1997 - New York Time (EP) (Zero Corp., XRCN-1299, Japan)\Night Ranger - New York Time (EP).wav

Peak level 100.0 %
Extraction speed 4.3 X
Range quality 100.0 %
Test CRC 0B24E408
Copy CRC 0B24E408
Copy OK

No errors occurred


AccurateRip summary

Track 1 accurately ripped (confidence 5) [EFD90320] (AR v2)
Track 2 accurately ripped (confidence 5) [8FC6106D] (AR v2)
Track 3 accurately ripped (confidence 5) [A1F059DF] (AR v2)
Track 4 accurately ripped (confidence 5) [ADD04A05] (AR v2)

All tracks accurately ripped

End of status report

–– CUETools DB Plugin V2.1.6

[CTDB TOCID: xKB4rS4qg8dgA3tHUfgZvnN6e6w-] found
Submit result: xKB4rS4qg8dgA3tHUfgZvnN6e6w- has been confirmed
Track | CTDB Status
1 | (2/2) Accurately ripped
2 | (2/2) Accurately ripped
3 | (2/2) Accurately ripped
4 | (2/2) Accurately ripped


==== Log checksum B048C1A990F6D3BC6138579BE3AE84B0A206894A9C656452D5D8314C0504AAE3 ====

foobar2000 1.2.9 / Dynamic Range Meter 1.1.1
log date: 2017-03-29 13:16:09

––––––––––––––––––––––––––––––––––––––––
Analyzed: Night Ranger / New York Time (EP)
––––––––––––––––––––––––––––––––––––––––

DR Peak RMS Duration Track
––––––––––––––––––––––––––––––––––––––––
DR9 0.00 dB -9.63 dB 4:43 01-New York Time
DR9 0.00 dB -9.94 dB 4:01 02-Walk In The Future
DR8 0.00 dB -9.08 dB 4:33 03-Don't Tell Me You Love Me '97
DR8 0.00 dB -9.05 dB 4:15 04-(You Can Still) Rock In America '97 (Karaoke version)
––––––––––––––––––––––––––––––––––––––––

Number of tracks: 4
Official DR value: DR8

Samplerate: 44100 Hz
Channels: 2
Bits per sample: 16
Bitrate: 972 kbps
Codec: FLAC

[CUETools log; Date: 27.03.2017 22:43:32; Version: 2.1.4]
[CTDB TOCID: xKB4rS4qg8dgA3tHUfgZvnN6e6w-] found.
Track | CTDB Status
1 | (3/3) Accurately ripped
2 | (3/3) Accurately ripped
3 | (3/3) Accurately ripped
4 | (3/3) Accurately ripped
[AccurateRip ID: 00030afb-000c20aa-37041d04] found.
Track [ CRC | V2 ] Status
01 [d76f7771|efd90320] (0+5/5) Accurately ripped
02 [b7a7dff0|8fc6106d] (0+5/5) Accurately ripped
03 [a4a8f199|a1f059df] (0+5/5) Accurately ripped
04 [2c38c2cf|add04a05] (0+5/5) Accurately ripped

Track Peak [ CRC32 ] [W/O NULL] [ LOG ]
– 100,0 [0B24E408] [9DFB8AF2] CRC32
01 100,0 [BFEF4D5F] [23CD9374]
02 100,0 [66041E57] [27CEA782]
03 100,0 [1AC4614F] [C95ABD5B]
04 100,0 [B067FD9B] [F509FC39]

Night Ranger - New York Time (1997) EP

All thanks go to Ginger Devil

Night Ranger in my Blog

Download Night Ranger - New York Time (1997):