Subcategories
Please register here if you want to download anything!

If domain in your address bar is different from the list below
PLEASE LEAVE THAT SITE IMMEDIATELY
❗IT'S A DANGEROUS FAKE❗



Spicy Magazines for Men! ;-)

Night Ranger - Rock In Japan (1997)

Posted By: v3122
Night Ranger - Rock In Japan (1997)

Night Ranger - Rock In Japan (1997)
EAC | Flac(Image) + Cue + Log & MP3 CBR 320Kbps
Zero Corp., XRCN-2004 | Japan | ~ 563 or 183 Mb | Scans(jpg) -> 53 Mb
Melodic Hard Rock / AOR

Japanese rock audiences always seemed to have a thing for melodic rock radio bands from the U.S. – Mr. Big, Ratt, and Cheap Trick reigned supreme in the land of the rising sun at various points. Another you could add to the list was Night Ranger. When the band came out of retirement and decided to fire up their engines once more, Japanese dates were set in support of their 1997 release, Neverland. A year later, Rock in Japan was issued, the group's second Japanese live set (preceded eight years earlier by Live in Japan). Despite the aforementioned break from the action, the Night Ranger boys sound as tight as ever, and stick closely to the original versions (no rap-metal or nu-metal makeovers here). Although a crafty tactic is used by the label – using '80s era photos of the band, despite the recording being from the late '90s – long time fans are sure to enjoy Rock in Japan. All the expected favorites are included – "Sister Christian," "Don't Tell Me You Love Me," and a piano version of "Sentimental Street" – as well as tracks off Neverland (the title track, "New York Time," etc.). Besides the clothing fashions sported on the aforementioned album cover, if there was any doubt that Night Ranger was an '80s band, it's confirmed once and for all by Rock in Japan which includes not one, but two unaccompanied guitar solos. A nod to Nigel Tufnel and David St. Hubbins, perhaps?

by Greg Prato, allmusic
Night Ranger - Rock In Japan (1997):

Night Ranger - Rock In Japan (1997)

Tracklist:

1. Neverland
2. Touch Of Madness
3. My Elusive Mind
4. Sing Me Away
5. Someday I Will
6. Brad Gillis Guitar Solo
7. Rumours In The Air
8. Jeff Watson Guitar Solo
9. Eddie's Comin' Out Tonight
10. Sentimental Street
11. Goodbye
12. Forever All Over Again
13. Slap Like Being Born
14. When You Close Your Eyes
15. New York Time
16. Don't Tell Me You Love Me '97
17. Sister Christian
18. (You Can Still) Rock In America '97

Exact Audio Copy V1.1 from 23. June 2015

EAC extraction logfile from 20. June 2017, 9:19

Night Ranger / Rock In Japan '97

Used drive : ASUS DRW-24B1ST Adapter: 1 ID: 1

Read mode : Secure
Utilize accurate stream : Yes
Defeat audio cache : Yes
Make use of C2 pointers : No

Read offset correction : 6
Overread into Lead-In and Lead-Out : No
Fill up missing offset samples with silence : Yes
Delete leading and trailing silent blocks : No
Null samples used in CRC calculations : Yes
Used interface : Native Win32 interface for Win NT & 2000

Used output format : User Defined Encoder
Selected bitrate : 128 kBit/s
Quality : High
Add ID3 tag : No
Command line compressor : C:\Program Files (x86)\Exact Audio Copy\Flac\flac.exe
Additional command line options : -V -8 -T "Genre=%genre%" -T "Artist=%artist%" -T "Title=%title%" -T "Album=%albumtitle%" -T "Date=%year%" -T "Tracknumber=%tracknr%" -T "Comment=%comment%" %source%


TOC of the extracted CD

Track | Start | Length | Start sector | End sector
––––––––––––––––––––––––––––-
1 | 0:00.00 | 4:09.57 | 0 | 18731
2 | 4:09.57 | 4:52.65 | 18732 | 40696
3 | 9:02.47 | 3:58.65 | 40697 | 58611
4 | 13:01.37 | 4:07.38 | 58612 | 77174
5 | 17:09.00 | 4:02.32 | 77175 | 95356
6 | 21:11.32 | 1:29.65 | 95357 | 102096
7 | 22:41.22 | 4:36.10 | 102097 | 122806
8 | 27:17.32 | 2:11.30 | 122807 | 132661
9 | 29:28.62 | 4:56.30 | 132662 | 154891
10 | 34:25.17 | 3:55.58 | 154892 | 172574
11 | 38:21.00 | 3:16.27 | 172575 | 187301
12 | 41:37.27 | 4:50.10 | 187302 | 209061
13 | 46:27.37 | 3:49.73 | 209062 | 226309
14 | 50:17.35 | 4:32.70 | 226310 | 246779
15 | 54:50.30 | 4:36.12 | 246780 | 267491
16 | 59:26.42 | 5:14.08 | 267492 | 291049
17 | 64:40.50 | 5:16.35 | 291050 | 314784
18 | 69:57.10 | 5:58.32 | 314785 | 341666


Range status and errors

Selected range

Filename E:\Torrent\# MY\# Подготовка раздач\Night Ranger\1997 - Rock In Japan '97 (Zero Corp., XRCN-2004, Japan)\Night Ranger - Rock In Japan '97.wav

Peak level 98.8 %
Extraction speed 6.5 X
Range quality 100.0 %
Test CRC D3AB3204
Copy CRC D3AB3204
Copy OK

No errors occurred


AccurateRip summary

Track 1 accurately ripped (confidence 5) [A1A02B8D] (AR v2)
Track 2 accurately ripped (confidence 5) [241DAF67] (AR v2)
Track 3 accurately ripped (confidence 5) [7E9301F3] (AR v2)
Track 4 accurately ripped (confidence 5) [7D208056] (AR v2)
Track 5 accurately ripped (confidence 5) [0093A4B9] (AR v2)
Track 6 accurately ripped (confidence 5) [F5DC41BC] (AR v2)
Track 7 accurately ripped (confidence 5) [6254D405] (AR v2)
Track 8 accurately ripped (confidence 5) [622F15B6] (AR v2)
Track 9 accurately ripped (confidence 5) [4D9FC5E1] (AR v2)
Track 10 accurately ripped (confidence 5) [E99EDC83] (AR v2)
Track 11 accurately ripped (confidence 5) [8FE2EA13] (AR v2)
Track 12 accurately ripped (confidence 5) [53373D06] (AR v2)
Track 13 accurately ripped (confidence 5) [219AFE9D] (AR v2)
Track 14 accurately ripped (confidence 5) [86EF5093] (AR v2)
Track 15 accurately ripped (confidence 5) [50C8E818] (AR v2)
Track 16 accurately ripped (confidence 5) [ED6F36F8] (AR v2)
Track 17 accurately ripped (confidence 5) [8C9A24C9] (AR v2)
Track 18 accurately ripped (confidence 5) [1A85CA7B] (AR v2)

All tracks accurately ripped

End of status report

–– CUETools DB Plugin V2.1.6

[CTDB TOCID: eey4yi8L8zYTocBMRXo_tc6d6Uk-] found
Submit result: eey4yi8L8zYTocBMRXo_tc6d6Uk- has been confirmed
Track | CTDB Status
1 | (10/10) Accurately ripped
2 | (10/10) Accurately ripped
3 | (10/10) Accurately ripped
4 | (10/10) Accurately ripped
5 | (10/10) Accurately ripped
6 | (10/10) Accurately ripped
7 | (10/10) Accurately ripped
8 | (10/10) Accurately ripped
9 | (10/10) Accurately ripped
10 | (10/10) Accurately ripped
11 | (10/10) Accurately ripped
12 | (10/10) Accurately ripped
13 | (10/10) Accurately ripped
14 | (10/10) Accurately ripped
15 | (10/10) Accurately ripped
16 | (10/10) Accurately ripped
17 | (10/10) Accurately ripped
18 | (10/10) Accurately ripped


==== Log checksum 5F570666C7502F65629D8E14C6AACE3B32D5069BD8074191C84212CE2142AB96 ====


[CUETools log; Date: 20.09.2017 20:48:27; Version: 2.1.5]
[AccurateRip ID: 002eb156-027041fa-1311cb12] found.
Track [ CRC | V2 ] Status
01 [02849c11|a1a02b8d] (0+6/6) Accurately ripped
02 [5ae8290c|241daf67] (0+6/6) Accurately ripped
03 [9ca6e287|7e9301f3] (0+6/6) Accurately ripped
04 [48e5ddda|7d208056] (0+6/6) Accurately ripped
05 [c517f61b|0093a4b9] (0+6/6) Accurately ripped
06 [3c3488d8|f5dc41bc] (0+6/6) Accurately ripped
07 [07dbe4c7|6254d405] (0+6/6) Accurately ripped
08 [0b91a483|622f15b6] (0+6/6) Accurately ripped
09 [d07d49e0|4d9fc5e1] (0+6/6) Accurately ripped
10 [32313a9e|e99edc83] (0+6/6) Accurately ripped
11 [fecd8dbd|8fe2ea13] (0+6/6) Accurately ripped
12 [6aac4b85|53373d06] (0+6/6) Accurately ripped
13 [15e962dd|219afe9d] (0+6/6) Accurately ripped
14 [8e67c1f0|86ef5093] (0+6/6) Accurately ripped
15 [7c2d87fd|50c8e818] (0+6/6) Accurately ripped
16 [f10feaf5|ed6f36f8] (0+6/6) Accurately ripped
17 [2d126a00|8c9a24c9] (0+6/6) Accurately ripped
18 [937851dd|1a85ca7b] (0+6/6) Accurately ripped

Track Peak [ CRC32 ] [W/O NULL] [ LOG ]
– 98,8 [D3AB3204] [77DD3FF1] CRC32
01 98,8 [6B3CA3FF] [258E0635]
02 98,8 [D1823CF5] [B9A6BC8F]
03 98,8 [FB8D61E8] [23C1BBB0]
04 98,8 [B92B5D2A] [501191F4]
05 98,8 [98ECB2ED] [B1A331E2]
06 98,8 [5D30FF2F] [E116636D]
07 98,8 [C0A1E3EC] [50663886]
08 98,8 [7679362F] [311B6005]
09 98,8 [DFEA2271] [633066EA]
10 98,8 [F2B3FB88] [EB4DB504]
11 98,8 [96790011] [2BDD7DDB]
12 98,8 [81CFAAB6] [9857BDAF]
13 98,8 [813A09EB] [E938B5B9]
14 98,8 [8FE0887E] [F486DC61]
15 98,8 [B96EB0A3] [EC9B8AF0]
16 98,8 [4249A672] [48D6873C]
17 98,8 [FD76DCC4] [0A98023B]
18 98,8 [827CC76E] [E18399F8]


Night Ranger - Rock In Japan (1997)

All thanks go to Ginger Devil

Night Ranger or Night Ranger in my Blog

Download Night Ranger - Rock In Japan (1997):