Subcategories
Please register here if you want to download anything!

If domain in your address bar is different from the list below
PLEASE LEAVE THAT SITE IMMEDIATELY
❗IT'S A DANGEROUS FAKE❗



Spicy Magazines for Men! ;-)

Night Ranger - Rockin' Shibuya 2007 (2008)

Posted By: v3122
Night Ranger - Rockin' Shibuya 2007 (2008)

Night Ranger - Rockin' Shibuya 2007 (2008)
EAC | Flac(Image) + Cue + Log & MP3 CBR 320Kbps
2CD | King Record, KICP 1279-80 | Japan | ~ 794 or 249 Mb | Scans(jpg) -> 45 Mb
Melodic Hard Rock / AOR

2008 two CD live release from the American Hard Rockers, recorded in June 2007 at the C.C. Lemon Hall in Shibuya, Tokyo Japan. Night Ranger has a string of best-selling albums that sold more than 16 million copies worldwide. The band's popularity was fuelled by an impressive string of instantly recognizable hits including 'Sister Christian', '(You Can Still) Rock In America', 'When You Close Your Eyes' and more. Harnessing the frenetic drive of Heavy Metal to hook-laden Rock songs, throwing in a stunning twin lead guitar team and melodic radio-friendly power ballads, they inspired new descriptive phrases such as Melodic Metal and Metal Power Pop…

~ amazon
Night Ranger - Rockin' Shibuya 2007 (2008):

Night Ranger - Rockin' Shibuya 2007 (2008)

Tracklist CD1:

1. This Boy Needs To Rock / Highway Star
2. Tell Your Vision
3. Sing Me Away
4. Touch Of Madness
5. Drama Queen
6. Rumors In The Air
7. Seven Wishes
8. The Secret Of My Success
9. There Is Life
10. Eddie's Comin' Out Tonight

Exact Audio Copy V1.1 from 23. June 2015

EAC extraction logfile from 19. June 2017, 22:16

Night Ranger / Rockin' Shibuya 2007

Used drive : ASUS DRW-24B1ST Adapter: 1 ID: 1

Read mode : Secure
Utilize accurate stream : Yes
Defeat audio cache : Yes
Make use of C2 pointers : No

Read offset correction : 6
Overread into Lead-In and Lead-Out : No
Fill up missing offset samples with silence : Yes
Delete leading and trailing silent blocks : No
Null samples used in CRC calculations : Yes
Used interface : Native Win32 interface for Win NT & 2000

Used output format : User Defined Encoder
Selected bitrate : 128 kBit/s
Quality : High
Add ID3 tag : No
Command line compressor : C:\Program Files (x86)\Exact Audio Copy\Flac\flac.exe
Additional command line options : -V -8 -T "Genre=%genre%" -T "Artist=%artist%" -T "Title=%title%" -T "Album=%albumtitle%" -T "Date=%year%" -T "Tracknumber=%tracknr%" -T "Comment=%comment%" %source%


TOC of the extracted CD

Track | Start | Length | Start sector | End sector
––––––––––––––––––––––––––––-
1 | 0:00.00 | 4:41.35 | 0 | 21109
2 | 4:41.35 | 4:59.64 | 21110 | 43598
3 | 9:41.24 | 4:17.40 | 43599 | 62913
4 | 13:58.64 | 5:36.65 | 62914 | 88178
5 | 19:35.54 | 4:24.36 | 88179 | 108014
6 | 24:00.15 | 4:36.10 | 108015 | 128724
7 | 28:36.25 | 4:51.27 | 128725 | 150576
8 | 33:27.52 | 4:33.12 | 150577 | 171063
9 | 38:00.64 | 6:44.31 | 171064 | 201394
10 | 44:45.20 | 5:37.34 | 201395 | 226703


Range status and errors

Selected range

Filename E:\Torrent\# MY\# Подготовка раздач\Night Ranger\2008 - Rockin' Shibuya 2007 (King Record, KICP 1279-80, Japan)\CD-1\Night Ranger - Rockin' Shibuya 2007 (CD-1).wav

Peak level 100.0 %
Extraction speed 5.3 X
Range quality 100.0 %
Test CRC 6583F3E5
Copy CRC 6583F3E5
Copy OK

No errors occurred


AccurateRip summary

Track 1 accurately ripped (confidence 2) [69F97FE2] (AR v2)
Track 2 accurately ripped (confidence 2) [F3AA0F45] (AR v2)
Track 3 accurately ripped (confidence 2) [592573BE] (AR v2)
Track 4 accurately ripped (confidence 2) [78AA30D5] (AR v2)
Track 5 accurately ripped (confidence 2) [EDF40858] (AR v2)
Track 6 accurately ripped (confidence 2) [8ED439A0] (AR v2)
Track 7 accurately ripped (confidence 2) [77FDA5F0] (AR v2)
Track 8 accurately ripped (confidence 2) [C45DFD1C] (AR v2)
Track 9 accurately ripped (confidence 2) [8C18ECF9] (AR v2)
Track 10 accurately ripped (confidence 2) [97844721] (AR v2)

All tracks accurately ripped

End of status report

–– CUETools DB Plugin V2.1.6

[CTDB TOCID: EVk1WsCaHb8l1ycSpFaS2Y3___s-] found
Submit result: already submitted
Track | CTDB Status
1 | (12/12) Accurately ripped
2 | (12/12) Accurately ripped
3 | (12/12) Accurately ripped
4 | (12/12) Accurately ripped
5 | (12/12) Accurately ripped
6 | (12/12) Accurately ripped
7 | (12/12) Accurately ripped
8 | (12/12) Accurately ripped
9 | (11/12) Accurately ripped
10 | (11/12) Accurately ripped


==== Log checksum FFE4947EDBC3F967CC9E5168B49C6BAFDF62DA217DE655E3340E886F06C52090 ====


[CUETools log; Date: 21.09.2017 17:53:47; Version: 2.1.5]
[CTDB TOCID: EVk1WsCaHb8l1ycSpFaS2Y3___s-] found.
Track | CTDB Status
1 | (13/13) Accurately ripped
2 | (13/13) Accurately ripped
3 | (13/13) Accurately ripped
4 | (13/13) Accurately ripped
5 | (13/13) Accurately ripped
6 | (13/13) Accurately ripped
7 | (13/13) Accurately ripped
8 | (13/13) Accurately ripped
9 | (12/13) Accurately ripped
10 | (12/13) Accurately ripped
[AccurateRip ID: 0012586a-0093803c-870bce0a] found.
Track [ CRC | V2 ] Status
01 [7a9a59f7|69f97fe2] (0+3/7) Accurately ripped
02 [16dfe8ae|f3aa0f45] (0+3/7) Accurately ripped
03 [6641c975|592573be] (0+3/7) Accurately ripped
04 [bfe8937c|78aa30d5] (0+3/7) Accurately ripped
05 [653f4575|edf40858] (0+3/7) Accurately ripped
06 [f630786f|8ed439a0] (0+3/7) Accurately ripped
07 [944716a9|77fda5f0] (0+3/7) Accurately ripped
08 [e9113300|c45dfd1c] (0+3/7) Accurately ripped
09 [cff36f1f|8c18ecf9] (0+3/7) Accurately ripped
10 [bb86b48d|97844721] (0+3/7) Accurately ripped
Offsetted by -757:
01 [dae05236] (2/7) Accurately ripped
02 [f5ae3482] (2/7) Accurately ripped
03 [5db8eb01] (2/7) Accurately ripped
04 [482a275b] (2/7) Accurately ripped
05 [19926bb3] (2/7) Accurately ripped
06 [8fcfb585] (2/7) Accurately ripped
07 [7b3e9e83] (2/7) Accurately ripped
08 [05b527e0] (2/7) Accurately ripped
09 [f587c8dc] (2/7) Accurately ripped
10 [5ade0216] (2/7) Accurately ripped

Track Peak [ CRC32 ] [W/O NULL] [ LOG ]
– 100,0 [6583F3E5] [B9545E7F] CRC32
01 100,0 [D72788CC] [63F552D2]
02 100,0 [448E706D] [76D87951]
03 100,0 [AEEE86BD] [233E9725]
04 100,0 [71ED2E1B] [5B19C2F8]
05 100,0 [215EDCDE] [76B4EDEC]
06 100,0 [4FFE280A] [584200C6]
07 100,0 [735CAA97] [5FAA6FDE]
08 100,0 [3EAA2ECD] [B13CECC8]
09 100,0 [3D77229F] [D48F1076]
10 100,0 [7B2478AB] [DE085C8F]


Night Ranger - Rockin' Shibuya 2007 (2008)

Tracklist CD2:

1. Sentimental Street
2. Forever All Over Again
3. Goodbye
4. Whatever Happened
5. Four In The Morning
6. When You Close Your Eyes
7. Don't Tell Me You Love Me
8. Sister Christian
9. You're Gonna Hear From Me
10. (You Can Still) Rock In America

Exact Audio Copy V1.1 from 23. June 2015

EAC extraction logfile from 19. June 2017, 22:51

Night Ranger / Rockin' Shibuya 2007

Used drive : ASUS DRW-24B1ST Adapter: 1 ID: 1

Read mode : Secure
Utilize accurate stream : Yes
Defeat audio cache : Yes
Make use of C2 pointers : No

Read offset correction : 6
Overread into Lead-In and Lead-Out : No
Fill up missing offset samples with silence : Yes
Delete leading and trailing silent blocks : No
Null samples used in CRC calculations : Yes
Used interface : Native Win32 interface for Win NT & 2000

Used output format : User Defined Encoder
Selected bitrate : 128 kBit/s
Quality : High
Add ID3 tag : No
Command line compressor : C:\Program Files (x86)\Exact Audio Copy\Flac\flac.exe
Additional command line options : -V -8 -T "Genre=%genre%" -T "Artist=%artist%" -T "Title=%title%" -T "Album=%albumtitle%" -T "Date=%year%" -T "Tracknumber=%tracknr%" -T "Comment=%comment%" %source%


TOC of the extracted CD

Track | Start | Length | Start sector | End sector
––––––––––––––––––––––––––––-
1 | 0:00.00 | 5:42.14 | 0 | 25663
2 | 5:42.14 | 5:06.58 | 25664 | 48671
3 | 10:48.72 | 5:09.12 | 48672 | 71858
4 | 15:58.09 | 5:04.50 | 71859 | 94708
5 | 21:02.59 | 3:48.72 | 94709 | 111880
6 | 24:51.56 | 4:43.46 | 111881 | 133151
7 | 29:35.27 | 6:21.59 | 133152 | 161785
8 | 35:57.11 | 6:15.45 | 161786 | 189955
9 | 42:12.56 | 4:25.19 | 189956 | 209849
10 | 46:38.00 | 6:28.18 | 209850 | 238967


Range status and errors

Selected range

Filename E:\Torrent\# MY\# Подготовка раздач\Night Ranger\2008 - Rockin' Shibuya 2007 (King Record, KICP 1279-80, Japan)\CD-2\Night Ranger - Rockin' Shibuya 2007 (CD-2).wav

Peak level 100.0 %
Extraction speed 2.9 X
Range quality 99.9 %
Test CRC 7D345BDB
Copy CRC 7D345BDB
Copy OK

No errors occurred


AccurateRip summary

Track 1 accurately ripped (confidence 2) [588B4A51] (AR v2)
Track 2 accurately ripped (confidence 2) [B2753BB1] (AR v2)
Track 3 accurately ripped (confidence 2) [7189CE02] (AR v2)
Track 4 accurately ripped (confidence 2) [D309EF0B] (AR v2)
Track 5 accurately ripped (confidence 2) [1D84783B] (AR v2)
Track 6 accurately ripped (confidence 2) [6C95C693] (AR v2)
Track 7 accurately ripped (confidence 2) [D56C11A5] (AR v2)
Track 8 accurately ripped (confidence 2) [FE9B05C4] (AR v2)
Track 9 accurately ripped (confidence 2) [8F20CA65] (AR v2)
Track 10 accurately ripped (confidence 2) [55D29C53] (AR v2)

All tracks accurately ripped

End of status report

–– CUETools DB Plugin V2.1.6

[CTDB TOCID: KlvpOHQv.exQ2XhksX4JQk0VA98-] found
Submit result: already submitted
Track | CTDB Status
1 | (12/12) Accurately ripped
2 | (12/12) Accurately ripped
3 | (12/12) Accurately ripped
4 | (12/12) Accurately ripped
5 | (12/12) Accurately ripped
6 | (12/12) Accurately ripped
7 | (12/12) Accurately ripped
8 | (11/12) Accurately ripped
9 | (11/12) Accurately ripped
10 | (11/12) Accurately ripped


==== Log checksum E4A11D4C10DA5703F59AA3B19386D7579E29A785D5C389DC9BEF74B51D2BA074 ====


[CUETools log; Date: 21.09.2017 17:54:12; Version: 2.1.5]
[CTDB TOCID: KlvpOHQv.exQ2XhksX4JQk0VA98-] found.
Track | CTDB Status
1 | (13/13) Accurately ripped
2 | (13/13) Accurately ripped
3 | (13/13) Accurately ripped
4 | (13/13) Accurately ripped
5 | (13/13) Accurately ripped
6 | (13/13) Accurately ripped
7 | (13/13) Accurately ripped
8 | (12/13) Accurately ripped
9 | (12/13) Accurately ripped
10 | (12/13) Accurately ripped
[AccurateRip ID: 0013a161-009d0dec-840c720a] found.
Track [ CRC | V2 ] Status
01 [76e0366d|588b4a51] (0+3/7) Accurately ripped
02 [9e157a7c|b2753bb1] (0+3/7) Accurately ripped
03 [09ff0d4d|7189ce02] (0+3/7) Accurately ripped
04 [fe783c66|d309ef0b] (0+3/7) Accurately ripped
05 [a2cfb2d3|1d84783b] (0+3/7) Accurately ripped
06 [4593c1f7|6c95c693] (0+3/7) Accurately ripped
07 [610de813|d56c11a5] (0+3/7) Accurately ripped
08 [d6f7f75b|fe9b05c4] (0+3/7) Accurately ripped
09 [637e061d|8f20ca65] (0+3/7) Accurately ripped
10 [abbbae17|55d29c53] (0+3/7) Accurately ripped
Offsetted by -757:
01 [ec9783ab] (2/7) Accurately ripped
02 [ab288be0] (2/7) Accurately ripped
03 [1edfd409] (2/7) Accurately ripped
04 [eb571d5d] (2/7) Accurately ripped
05 [c529804e] (2/7) Accurately ripped
06 [eeae7c5a] (2/7) Accurately ripped
07 [2bf39fcb] (2/7) Accurately ripped
08 [c705baed] (2/7) Accurately ripped
09 [2fc122b0] (2/7) Accurately ripped
10 [2079a20b] (2/7) Accurately ripped

Track Peak [ CRC32 ] [W/O NULL] [ LOG ]
– 100,0 [7D345BDB] [3E10BE2D] CRC32
01 100,0 [1D8297E1] [A2D2CD33]
02 100,0 [45EDC1D7] [DD8E8746]
03 100,0 [AD771803] [5261FB89]
04 100,0 [C47D109F] [89F7E015]
05 100,0 [F918644A] [968FE7AB]
06 100,0 [F60558D6] [99637300]
07 100,0 [5766C97F] [54428AB4]
08 100,0 [1D753DC0] [56466249]
09 100,0 [9C2E0E0B] [CCF45F85]
10 100,0 [896F36D9] [F2C2F804]


Night Ranger - Rockin' Shibuya 2007 (2008)

All thanks go to Ginger Devil

Night Ranger or Night Ranger in my Blog

Download Night Ranger - Rockin' Shibuya 2007 (2008):