Subcategories

Night Ranger - Seven (1998)

Posted By: v3122
Night Ranger - Seven (1998)

Night Ranger - Seven (1998)
EAC | Flac(Image) + Cue + Log & MP3 CBR 320Kbps
Zero Corporation, XRCN-2023 | Japan | ~ 392 or 128 Mb | Scans(jpg) -> 49 Mb
Melodic Hard Rock / AOR

Night Ranger, like many bands on CMC International, were simply playing for the fans in the '90s. They knew that they would never have a hit like "Sister Christian" ever again, but they wanted to continue making music, and there were enough fans out there to go to their concerts. Records or new songs, as it turned out, were a necessary byproduct of these concerts, and like the shows themselves, they were exercises in nostalgia since no one, outside of CMC artists, makes album-oriented rock like this anymore. Night Ranger's first two stabs at comeback records – Feeding off the Mojo and Neverland – were pretty much devoid of memorable material, but the third, Seven, wasn't bad at all. It doesn't rank with their best work, but there are a number of well-crafted power ballads and big, crunching hard rockers. There are also a handful of mediocre cuts, but Seven is the first record they have released in the '90s that comes close to capturing their past glories.

by Stephen Thomas Erlewine, allmusic
Night Ranger - Seven (1998)


Night Ranger - Seven (1998):

Night Ranger - Seven (1998)

Tracklist:

1. Sign Of The Times
2. Jane's Interlude
3. Panic In Jane
4. Don't Ask Me Why
5. Kong
6. Mother Mayhem
7. Soul Survivor
8. Sea Of Love
9. Crazy World
10. Peace Sign
11. When I Call On You
12. Revelation
13. Let Him Run (Bonus track)

Exact Audio Copy V1.1 from 23. June 2015

EAC extraction logfile from 30. January 2017, 19:16

Night Ranger / Seven

Used drive : ASUS DRW-24B1ST Adapter: 1 ID: 1

Read mode : Secure
Utilize accurate stream : Yes
Defeat audio cache : Yes
Make use of C2 pointers : No

Read offset correction : 6
Overread into Lead-In and Lead-Out : No
Fill up missing offset samples with silence : Yes
Delete leading and trailing silent blocks : No
Null samples used in CRC calculations : Yes
Used interface : Native Win32 interface for Win NT & 2000

Used output format : User Defined Encoder
Selected bitrate : 1024 kBit/s
Quality : High
Add ID3 tag : No
Command line compressor : C:\Program Files (x86)\Exact Audio Copy\Flac\flac.exe
Additional command line options : -V -8 -T "Date=%year%" -T "Genre=%genre%" %source%


TOC of the extracted CD

Track | Start | Length | Start sector | End sector
––––––––––––––––––––––––––––-
1 | 0:00.00 | 5:07.70 | 0 | 23094
2 | 5:07.70 | 0:26.50 | 23095 | 25094
3 | 5:34.45 | 4:40.72 | 25095 | 46166
4 | 10:15.42 | 4:41.53 | 46167 | 67294
5 | 14:57.20 | 5:32.30 | 67295 | 92224
6 | 20:29.50 | 4:57.05 | 92225 | 114504
7 | 25:26.55 | 3:52.67 | 114505 | 131971
8 | 29:19.47 | 4:34.53 | 131972 | 152574
9 | 33:54.25 | 3:59.50 | 152575 | 170549
10 | 37:54.00 | 4:07.10 | 170550 | 189084
11 | 42:01.10 | 4:02.62 | 189085 | 207296
12 | 46:03.72 | 4:35.53 | 207297 | 227974
13 | 50:39.50 | 3:33.55 | 227975 | 244004


Range status and errors

Selected range

Filename E:\Torrent\# MY\# Подготовка раздач\Night Ranger - Discography\1998 - Seven (Zero Corp., XRCN-2023, Japan)\Night Ranger - Seven.wav

Peak level 100.0 %
Extraction speed 5.5 X
Range quality 100.0 %
Test CRC 65C5E775
Copy CRC 65C5E775
Copy OK

No errors occurred


AccurateRip summary

Track 1 accurately ripped (confidence 11) [75134911] (AR v2)
Track 2 accurately ripped (confidence 11) [755585AF] (AR v2)
Track 3 accurately ripped (confidence 11) [F65B57F1] (AR v2)
Track 4 accurately ripped (confidence 11) [1DF69102] (AR v2)
Track 5 accurately ripped (confidence 11) [C52A4F53] (AR v2)
Track 6 accurately ripped (confidence 11) [819B7B3E] (AR v2)
Track 7 accurately ripped (confidence 11) [55111006] (AR v2)
Track 8 accurately ripped (confidence 11) [209D0C59] (AR v2)
Track 9 accurately ripped (confidence 11) [F029712E] (AR v2)
Track 10 accurately ripped (confidence 11) [32912063] (AR v2)
Track 11 accurately ripped (confidence 11) [7ACD4708] (AR v2)
Track 12 accurately ripped (confidence 11) [3A760111] (AR v2)
Track 13 accurately ripped (confidence 11) [A955C8DF] (AR v2)

All tracks accurately ripped

End of status report

–– CUETools DB Plugin V2.1.6

[CTDB TOCID: MZ36pWHD3TB1QZ5aBS2_EtB.6wM-] found
Submit result: MZ36pWHD3TB1QZ5aBS2_EtB.6wM- has been confirmed
Track | CTDB Status
1 | (18/18) Accurately ripped
2 | (18/18) Accurately ripped
3 | (18/18) Accurately ripped
4 | (18/18) Accurately ripped
5 | (18/18) Accurately ripped
6 | (18/18) Accurately ripped
7 | (18/18) Accurately ripped
8 | (18/18) Accurately ripped
9 | (18/18) Accurately ripped
10 | (18/18) Accurately ripped
11 | (18/18) Accurately ripped
12 | (18/18) Accurately ripped
13 | (17/18) Accurately ripped


==== Log checksum 6EBDDF6E8B44C5F3043445CCCE8164A7DBBF263E2D9E864BA510AFA3E908AECE ====

foobar2000 1.2.9 / Dynamic Range Meter 1.1.1
log date: 2017-03-31 18:41:03

––––––––––––––––––––––––––––––––––––––––
Analyzed: Night Ranger / Seven
––––––––––––––––––––––––––––––––––––––––

DR Peak RMS Duration Track
––––––––––––––––––––––––––––––––––––––––
DR8 -0.20 dB -9.17 dB 5:08 01-Sign Of The Times
DR8 -12.54 dB -24.07 dB 0:27 02-Jane's Interlude
DR8 0.00 dB -9.21 dB 4:41 03-Panic In Jane
DR9 0.00 dB -10.04 dB 4:42 04-Don't Ask Me Why
DR8 -0.50 dB -9.83 dB 5:32 05-Kong
DR8 -0.80 dB -10.63 dB 4:57 06-Mother Mayhem
DR9 -0.20 dB -10.04 dB 3:53 07-Soul Survivor
DR8 -0.50 dB -9.77 dB 4:35 08-Sea Of Love
DR9 0.00 dB -10.49 dB 4:00 09-Crazy World
DR8 -0.50 dB -9.78 dB 4:07 10-Peace Sign
DR9 -0.20 dB -12.14 dB 4:03 11-When I Call On You
DR8 -0.40 dB -9.10 dB 4:36 12-Revelation
DR12 -0.20 dB -14.89 dB 3:34 13-Let Him Run (Bonus track)
––––––––––––––––––––––––––––––––––––––––

Number of tracks: 13
Official DR value: DR9

Samplerate: 44100 Hz
Channels: 2
Bits per sample: 16
Bitrate: 982 kbps
Codec: FLAC

[CUETools log; Date: 31.03.2017 18:28:43; Version: 2.1.4]
[CTDB TOCID: MZ36pWHD3TB1QZ5aBS2_EtB.6wM-] found.
Track | CTDB Status
1 | (20/20) Accurately ripped
2 | (20/20) Accurately ripped
3 | (20/20) Accurately ripped
4 | (20/20) Accurately ripped
5 | (20/20) Accurately ripped
6 | (20/20) Accurately ripped
7 | (20/20) Accurately ripped
8 | (20/20) Accurately ripped
9 | (20/20) Accurately ripped
10 | (20/20) Accurately ripped
11 | (20/20) Accurately ripped
12 | (20/20) Accurately ripped
13 | (19/20) Accurately ripped
[AccurateRip ID: 0019d0c1-01049b9f-ac0cb50d] found.
Track [ CRC | V2 ] Status
01 [ab777294|75134911] (02+11/13) Accurately ripped
02 [2f362093|755585af] (02+11/13) Accurately ripped
03 [55636dad|f65b57f1] (02+11/13) Accurately ripped
04 [3980a5c6|1df69102] (02+11/13) Accurately ripped
05 [3f6f895f|c52a4f53] (02+11/13) Accurately ripped
06 [bcf3ab60|819b7b3e] (02+11/13) Accurately ripped
07 [c7afaba8|55111006] (02+11/13) Accurately ripped
08 [0d56d236|209d0c59] (02+11/13) Accurately ripped
09 [f0412d5c|f029712e] (02+11/13) Accurately ripped
10 [c3aa6278|32912063] (02+11/13) Accurately ripped
11 [b3f6e93e|7acd4708] (02+11/13) Accurately ripped
12 [47b8a52a|3a760111] (02+11/13) Accurately ripped
13 [8fd7ca3d|a955c8df] (02+11/13) Accurately ripped

Track Peak [ CRC32 ] [W/O NULL] [ LOG ]
– 99,9 [65C5E775] [93B50192] CRC32
01 97,7 [B9D9EBC5] [D133638C]
02 23,6 [753646FE] [9379702A]
03 99,9 [7F0A9E41] [B0983035]
04 99,9 [4C73E453] [B664E3D6]
05 94,4 [BEAA06E3] [E9446754]
06 91,2 [47EE298D] [1E334D61]
07 97,7 [9E564D26] [860E206B]
08 94,4 [E688652C] [FCF44122]
09 99,9 [E4B43B19] [DB3FD915]
10 94,4 [5F665A9D] [35761DF2]
11 97,7 [6B26D8A0] [F63348E3]
12 95,5 [7CDE7EDD] [2769AF11]
13 97,7 [FC1DA6FA] [4A4452BF]

Night Ranger - Seven (1998)

All thanks go to Ginger Devil

Night Ranger in my Blog

Download Night Ranger - Seven (1998):