Subcategories

Night Ranger - Somewhere In California (2011)

Posted By: v3122
Night Ranger - Somewhere In California (2011)

Night Ranger - Somewhere In California (2011)
EAC | Flac(Image) + Cue + Log & MP3 CBR 320Kbps
King Record, KICP 1560 | Japan | ~ 453 or 139 Mb | Scans(jpg) -> 49 Mb
Melodic Hard Rock / AOR

In the hipster climate of 2011, Night Ranger T-shirts were the only way to out-ironic your friend who showed up wearing Styx, something set in motion when the film Boogie Nights used “Sister Christian” and helped make the band representative of Rock at its most excessive and vacant. Night Ranger themselves did nearly as much damage in this time, splitting into two factions and legally wrangling over use of the band’s name. Then, after the usual re-recordings, live albums, and unplugged efforts, they released 2007’s Hole in the Sun, a misguided modern album that couldn’t even get a release date in America – where you still couldn’t rock, apparently – until a year later. Hardcore fans weathered it all somehow, but the reason it all needs to be said is that Somewhere in California is not only the back-to-basics effort that was much needed, it’s the return-to-form album packed with some extra blasts of relief and pride. Granted, the members of this energetic crew have poured their hearts into lesser material, but here, everything sounds genuine, leaving more room for fun as guitarists Brad Gillis (the vet) and Joel Hoekstra (the new guy on loan from Trans-Siberian Orchestra) work their way up and down the fretboards in that showy, over the top way that was once the band’s trademark. As far as material, there’s nothing on the level of “Sister Christian” or "(You Can Still) Rock in America," but there’s plenty of "Don't Tell Me You Love Me”-grade material, including the big blast of harmony “Bye Bye Baby (Not Tonight)” and the semi-autobiographical “Growin’ Up in California,” which follows the band from formation to success, leaving out the later bits about lawyers and Japan-only releases. One run through Somewhere in California and hook-loving, power ballad-embracing rockers will be glad that this is your father’s Night Ranger and feel that rocking in America is, once again, all right (all night).

by David Jeffries, allmusic
Night Ranger - Somewhere In California (2011)


Night Ranger - Somewhere In California (2011):

Night Ranger - Somewhere In California (2011)

Tracklist:

1. Growin' Up In California
2. Lay It On Me
3. Bye Bye Baby (Not Tonight)
4. Follow Your Heart
5. Time Of Our Lives
6. No Time To Lose Ya
7. Live For Today
8. It's Not Over
9. End Of The Day
10. Rock 'n' Roll Tonite
11. Say It With Love
12. L.A. No Name (Bonus track)

Exact Audio Copy V1.1 from 23. June 2015

EAC extraction logfile from 31. January 2017, 17:21

Night Ranger / Somewhere In California

Used drive : ASUS DRW-24B1ST Adapter: 1 ID: 1

Read mode : Secure
Utilize accurate stream : Yes
Defeat audio cache : Yes
Make use of C2 pointers : No

Read offset correction : 6
Overread into Lead-In and Lead-Out : No
Fill up missing offset samples with silence : Yes
Delete leading and trailing silent blocks : No
Null samples used in CRC calculations : Yes
Used interface : Native Win32 interface for Win NT & 2000

Used output format : User Defined Encoder
Selected bitrate : 1024 kBit/s
Quality : High
Add ID3 tag : No
Command line compressor : C:\Program Files (x86)\Exact Audio Copy\Flac\flac.exe
Additional command line options : -V -8 -T "Date=%year%" -T "Genre=%genre%" %source%


TOC of the extracted CD

Track | Start | Length | Start sector | End sector
––––––––––––––––––––––––––––-
1 | 0:00.00 | 4:25.52 | 0 | 19926
2 | 4:25.52 | 4:36.33 | 19927 | 40659
3 | 9:02.10 | 4:34.63 | 40660 | 61272
4 | 13:36.73 | 6:45.63 | 61273 | 91710
5 | 20:22.61 | 5:15.18 | 91711 | 115353
6 | 25:38.04 | 4:29.12 | 115354 | 135540
7 | 30:07.16 | 6:03.55 | 135541 | 162820
8 | 36:10.71 | 4:34.51 | 162821 | 183421
9 | 40:45.47 | 4:07.62 | 183422 | 202008
10 | 44:53.34 | 4:11.26 | 202009 | 220859
11 | 49:04.60 | 5:18.53 | 220860 | 244762
12 | 54:23.38 | 4:25.51 | 244763 | 264688


Range status and errors

Selected range

Filename E:\Torrent\# MY\# Подготовка раздач\Night Ranger - Discography\2011 - Somewhere In California (King Record Co., KICP 1560, Japan)\Night Ranger - Somewhere In California.wav

Peak level 97.6 %
Extraction speed 5.5 X
Range quality 99.9 %
Test CRC 8FA3736D
Copy CRC 8FA3736D
Copy OK

No errors occurred


AccurateRip summary

Track 1 not present in database
Track 2 not present in database
Track 3 not present in database
Track 4 not present in database
Track 5 not present in database
Track 6 not present in database
Track 7 not present in database
Track 8 not present in database
Track 9 not present in database
Track 10 not present in database
Track 11 not present in database
Track 12 not present in database

None of the tracks are present in the AccurateRip database

End of status report

–– CUETools DB Plugin V2.1.6

[CTDB TOCID: b14yrkuvxNHWBpfSyYnkzsZB2Ro-] found
Submit result: b14yrkuvxNHWBpfSyYnkzsZB2Ro- has been confirmed
Track | CTDB Status
1 | (12/12) Accurately ripped
2 | (12/12) Accurately ripped
3 | (12/12) Accurately ripped
4 | (12/12) Accurately ripped
5 | (12/12) Accurately ripped
6 | (12/12) Accurately ripped
7 | (12/12) Accurately ripped
8 | (12/12) Accurately ripped
9 | (12/12) Accurately ripped
10 | (12/12) Accurately ripped
11 | (12/12) Accurately ripped
12 | (12/12) Accurately ripped


==== Log checksum B8007CD31D4A4B8CD83949DD70ADE4766FDE1C380CB7E57ED2E602D3E90A74E2 ====

foobar2000 1.2.9 / Dynamic Range Meter 1.1.1
log date: 2017-04-07 14:17:25

––––––––––––––––––––––––––––––––––––––––
Analyzed: Night Ranger / Somewhere In California
––––––––––––––––––––––––––––––––––––––––

DR Peak RMS Duration Track
––––––––––––––––––––––––––––––––––––––––
DR5 -0.21 dB -6.08 dB 4:26 01-Growin' Up In California
DR5 -0.21 dB -6.65 dB 4:36 02-Lay It On Me
DR5 -0.21 dB -6.05 dB 4:35 03-Bye Bye Baby (Not Tonight)
DR5 -0.21 dB -6.27 dB 6:46 04-Follow Your Heart
DR4 -0.21 dB -6.74 dB 5:15 05-Time Of Our Lives
DR4 -0.21 dB -5.79 dB 4:29 06-No Time To Lose Ya
DR5 -0.21 dB -6.79 dB 6:04 07-Live For Today
DR5 -0.21 dB -5.82 dB 4:35 08-It's Not Over
DR4 -0.21 dB -6.46 dB 4:08 09-End Of The Day
DR5 -0.21 dB -6.16 dB 4:11 10-Rock 'n' Roll Tonite
DR5 -0.21 dB -6.82 dB 5:19 11-Say It With Love
DR12 -0.28 dB -14.61 dB 4:26 12-L.A. No Name (Bonus track)
––––––––––––––––––––––––––––––––––––––––

Number of tracks: 12
Official DR value: DR5

Samplerate: 44100 Hz
Channels: 2
Bits per sample: 16
Bitrate: 1046 kbps
Codec: FLAC

[CUETools log; Date: 07.04.2017 14:11:58; Version: 2.1.4]
[CTDB TOCID: b14yrkuvxNHWBpfSyYnkzsZB2Ro-] found.
Track | CTDB Status
1 | (14/14) Accurately ripped
2 | (14/14) Accurately ripped
3 | (14/14) Accurately ripped
4 | (14/14) Accurately ripped
5 | (14/14) Accurately ripped
6 | (14/14) Accurately ripped
7 | (14/14) Accurately ripped
8 | (14/14) Accurately ripped
9 | (14/14) Accurately ripped
10 | (14/14) Accurately ripped
11 | (14/14) Accurately ripped
12 | (14/14) Accurately ripped
[AccurateRip ID: 001a98b6-00f886be-ac0dc90c] found.
Track [ CRC | V2 ] Status
01 [cb4d270c|b018e96e] (0+7/7) Accurately ripped
02 [9bf6563b|36226fb1] (0+7/7) Accurately ripped
03 [e3788565|84ad9eb5] (0+7/7) Accurately ripped
04 [22153ae4|a6cb9618] (0+7/7) Accurately ripped
05 [7b6ec9e5|412c0fa4] (0+7/7) Accurately ripped
06 [f0fa89c7|2fa913a9] (0+7/7) Accurately ripped
07 [c9b4edfd|cb1b46d3] (0+7/7) Accurately ripped
08 [ca354951|cd563ccb] (0+7/7) Accurately ripped
09 [9f8c9c07|27836db1] (0+7/7) Accurately ripped
10 [dcb268d1|1d3314a3] (0+7/7) Accurately ripped
11 [315c5a9a|5201eeca] (0+7/7) Accurately ripped
12 [f7f539ed|a9e9b50f] (0+7/7) Accurately ripped

Track Peak [ CRC32 ] [W/O NULL] [ LOG ]
– 97,6 [8FA3736D] [3E02ABE9] CRC32
01 97,6 [A873FEC0] [0D82FCC8]
02 97,6 [C9D4407C] [A275E90B]
03 97,6 [A618AC06] [6D823210]
04 97,6 [101719BE] [1CEB8192]
05 97,6 [7DC69029] [3FE2CBFF]
06 97,6 [23AA4815] [F30ADD9A]
07 97,6 [EB1215D0] [794FF5D6]
08 97,6 [384B22A8] [2111BB24]
09 97,6 [B3A4507D] [20B75897]
10 97,6 [2F0F4495] [9C0B39D2]
11 97,6 [A87DB093] [02C2A69F]
12 96,8 [95259B49] [0487536B]

Night Ranger - Somewhere In California (2011)

All thanks go to Ginger Devil

Night Ranger in my Blog

Download Night Ranger - Somewhere In California (2011):