Subcategories
Please register here if you want to download anything!

If domain in your address bar is different from the list below
PLEASE LEAVE THAT SITE IMMEDIATELY
❗IT'S A DANGEROUS FAKE❗



Spicy Magazines for Men! ;-)

Night Ranger - Dawn Patrol (1982)

Posted By: v3122
Night Ranger - Dawn Patrol (1982)

Night Ranger - Dawn Patrol (1982)
EAC | Flac(Image) + Cue + Log & MP3 CBR 320Kbps
MCA, MVCM-18522 | Japan | ~ 269 or 96 Mb | Scans(jpg) -> 36 Mb
Melodic Hard Rock / AOR

Unlike many of their pop-metal contemporaries, Night Ranger's early work has aged quite well, and this excellent 1982 debut is a well-kept secret of the genre. Dripping with hooks and irresistible choruses, "Don't Tell Me You Love Me," "Sing Me Away," and "Young Girl in Love" are simply outstanding songs. Anyone doubting the band's ability to rock out need only listen to the vicious bursts of "Eddie's Comin' Out Tonight" and "Play Rough." And despite offering the mandatory power ballad in "Call My Name" (which is actually quite good), the band rarely allow the album's intensity level to lag.

by Eduardo Rivadavia, allmusic
Night Ranger - Dawn Patrol (1982)


Night Ranger - Dawn Patrol (1982):

Night Ranger - Dawn Patrol (1982)

Tracklist:

1. Don't Tell Me You Love Me
2. Sing Me Away
3. At Night She Sleeps
4. Call My Name
5. Eddie's Comin' Out Tonight
6. Can't Find Me A Thrill
7. Young Girl In Love
8. Play Rough
9. Penny
10. Night Ranger

Exact Audio Copy V1.1 from 23. June 2015

EAC extraction logfile from 18. February 2017, 23:33

Night Ranger / Dawn Patrol

Used drive : ASUS DRW-24B1ST Adapter: 1 ID: 1

Read mode : Secure
Utilize accurate stream : Yes
Defeat audio cache : Yes
Make use of C2 pointers : No

Read offset correction : 6
Overread into Lead-In and Lead-Out : No
Fill up missing offset samples with silence : Yes
Delete leading and trailing silent blocks : No
Null samples used in CRC calculations : Yes
Used interface : Native Win32 interface for Win NT & 2000

Used output format : User Defined Encoder
Selected bitrate : 1024 kBit/s
Quality : High
Add ID3 tag : No
Command line compressor : C:\Program Files (x86)\Exact Audio Copy\Flac\flac.exe
Additional command line options : -V -8 -T "Date=%year%" -T "Genre=%genre%" %source%


TOC of the extracted CD

Track | Start | Length | Start sector | End sector
––––––––––––––––––––––––––––-
1 | 0:00.37 | 4:22.43 | 37 | 19729
2 | 4:23.05 | 4:11.32 | 19730 | 38586
3 | 8:34.37 | 4:13.43 | 38587 | 57604
4 | 12:48.05 | 3:45.07 | 57605 | 74486
5 | 16:33.12 | 4:26.25 | 74487 | 94461
6 | 20:59.37 | 3:22.48 | 94462 | 109659
7 | 24:22.10 | 3:35.20 | 109660 | 125804
8 | 27:57.30 | 4:16.40 | 125805 | 145044
9 | 32:13.70 | 3:48.45 | 145045 | 162189
10 | 36:02.40 | 4:34.72 | 162190 | 182811


Range status and errors

Selected range

Filename E:\Torrent\# MY\Night Ranger - Discography\1982 - Dawn Patrol (MCA Records, MVCM-18522, Japan)\Night Ranger - Dawn Patrol.wav

Peak level 100.0 %
Extraction speed 5.1 X
Range quality 100.0 %
Test CRC 917C7813
Copy CRC 917C7813
Copy OK

No errors occurred


AccurateRip summary

Track 1 accurately ripped (confidence 4) [6B413150] (AR v2)
Track 2 accurately ripped (confidence 4) [C79EECD1] (AR v2)
Track 3 accurately ripped (confidence 4) [966022C8] (AR v2)
Track 4 accurately ripped (confidence 4) [3B690246] (AR v2)
Track 5 accurately ripped (confidence 4) [20A76609] (AR v2)
Track 6 accurately ripped (confidence 4) [BBA28996] (AR v2)
Track 7 accurately ripped (confidence 4) [BC987170] (AR v2)
Track 8 accurately ripped (confidence 4) [516FAD41] (AR v2)
Track 9 accurately ripped (confidence 4) [032E41AD] (AR v2)
Track 10 accurately ripped (confidence 4) [3885FFEF] (AR v2)

All tracks accurately ripped

End of status report

–– CUETools DB Plugin V2.1.6

[CTDB TOCID: 5fFtzS0CxVTq53EHLhOZBKOuHBA-] found
Submit result: 5fFtzS0CxVTq53EHLhOZBKOuHBA- has been confirmed
Track | CTDB Status
1 | (6/6) Accurately ripped
2 | (6/6) Accurately ripped
3 | (6/6) Accurately ripped
4 | (6/6) Accurately ripped
5 | (6/6) Accurately ripped
6 | (6/6) Accurately ripped
7 | (6/6) Accurately ripped
8 | (6/6) Accurately ripped
9 | (6/6) Accurately ripped
10 | (6/6) Accurately ripped


==== Log checksum DE3CCF34F2D5ECC9156F4B9461F8FC11C5CDAF34AF5F96CF027474A6BED7435E ====

foobar2000 1.2.9 / Dynamic Range Meter 1.1.1
log date: 2017-04-13 12:32:24

––––––––––––––––––––––––––––––––––––––––
Analyzed: Night Ranger / Dawn Patrol
––––––––––––––––––––––––––––––––––––––––

DR Peak RMS Duration Track
––––––––––––––––––––––––––––––––––––––––
DR12 0.00 dB -13.93 dB 4:23 01-Don't Tell Me You Love Me
DR12 0.00 dB -14.46 dB 4:11 02-Sing Me Away
DR13 0.00 dB -14.09 dB 4:14 03-At Night She Sleeps
DR12 0.00 dB -15.26 dB 3:45 04-Call My Name
DR12 0.00 dB -15.10 dB 4:26 05-Eddie's Comin' Out Tonight
DR12 0.00 dB -13.53 dB 3:23 06-Can't Find Me A Thrill
DR12 0.00 dB -13.79 dB 3:35 07-Young Girl In Love
DR13 0.00 dB -14.17 dB 4:17 08-Play Rough
DR12 0.00 dB -14.21 dB 3:49 09-Penny
DR12 -0.45 dB -15.02 dB 4:35 10-Night Ranger
––––––––––––––––––––––––––––––––––––––––

Number of tracks: 10
Official DR value: DR12

Samplerate: 44100 Hz
Channels: 2
Bits per sample: 16
Bitrate: 898 kbps
Codec: FLAC

[CUETools log; Date: 13.04.2017 12:34:17; Version: 2.1.4]
Pregap length 00:00:37.
[CTDB TOCID: 5fFtzS0CxVTq53EHLhOZBKOuHBA-] found.
Track | CTDB Status
1 | (7/7) Accurately ripped
2 | (7/7) Accurately ripped
3 | (7/7) Accurately ripped
4 | (7/7) Accurately ripped
5 | (7/7) Accurately ripped
6 | (7/7) Accurately ripped
7 | (7/7) Accurately ripped
8 | (7/7) Accurately ripped
9 | (7/7) Accurately ripped
10 | (7/7) Accurately ripped
[AccurateRip ID: 000f6af4-007aa33e-8f09850a] found.
Track [ CRC | V2 ] Status
01 [ec8d2adc|6b413150] (0+4/4) Accurately ripped
02 [6862a2dd|c79eecd1] (0+4/4) Accurately ripped
03 [997b9ec9|966022c8] (0+4/4) Accurately ripped
04 [55589941|3b690246] (0+4/4) Accurately ripped
05 [c12d3ad8|20a76609] (0+4/4) Accurately ripped
06 [8631f81a|bba28996] (0+4/4) Accurately ripped
07 [192bbccd|bc987170] (0+4/4) Accurately ripped
08 [83da4e6f|516fad41] (0+4/4) Accurately ripped
09 [a8316424|032e41ad] (0+4/4) Accurately ripped
10 [e7ae9b9f|3885ffef] (0+4/4) Accurately ripped
Offsetted by -1046:
01 [a122120f] (0/4) No match (V2 was not tested)
02 [8a6d4b33] (0/4) No match (V2 was not tested)
03 [befd80cf] (0/4) No match (V2 was not tested)
04 [facfd3df] (0/4) No match (V2 was not tested)
05 [ec2978a2] (0/4) No match (V2 was not tested)
06 [882cc29e] (0/4) No match (V2 was not tested)
07 [dd4a351d] (0/4) No match (V2 was not tested)
08 [d6150fa1] (0/4) No match (V2 was not tested)
09 [79f45854] (0/4) No match (V2 was not tested)
10 [85649e7a] (0/4) No match (V2 was not tested)

Track Peak [ CRC32 ] [W/O NULL] [ LOG ]
– 100,0 [917C7813] [81115CF0] CRC32
01 100,0 [3268AC38] [86D2BD51]
02 100,0 [E09F8B5E] [0AACF0E7]
03 100,0 [36CF5994] [33A85157]
04 100,0 [68D68FD8] [7F0CA464]
05 100,0 [46400340] [4E3A7023]
06 100,0 [3A81F6C0] [C2E3C177]
07 100,0 [6F99BDF1] [51CB8828]
08 100,0 [A966AFBD] [3DB3AECE]
09 100,0 [18338CA9] [05186836]
10 94,9 [2DB5D201] [FAF4B56F]

Night Ranger - Dawn Patrol (1982)

All thanks go to Ginger Devil

Night Ranger in my Blog

Download Night Ranger - Dawn Patrol (1982):