Subcategories

Nine Below Zero - Don't Point Your Finger (1981) [Reissue 2000]

Posted By: hill0
Nine Below Zero - Don't Point Your Finger (1981) [Reissue 2000]

Nine Below Zero - Don't Point Your Finger (1981) [Reissue 2000]
EAC Rip | FLAC (tracks & cue & log) | 253 MB | MP3 CBR 320 kbps | 90 MB | Artwork (PNG 300 dpi) | 47 MB | 39:34
Genre: Blues Rock | Country: UK | Label: Zed Records | ZCD 1003

One of the UK’s finest Rhythm & Blues Bands, Nine below Zero, formed in 1979 and named themselves after the famous Sonny Boy Williamson song. In 1980 they signed to A&M Records and released the seminal “Live at the Marquee” album. By the end of that year they had moved from selling out the Marquee to selling out the Hammersmith Odeon. In 1981 their first studio album “Don’t point your finger” was released and the band play alongside The Kinks & The Who. They also make appearances on the Old Grey Whistle Test and the South Bank show. In 1982 they appeared on “The Young Ones” with the track “Eleven + Eleven” before releasing arguably their finest album “Third Degree” which features such tracks as “Wipe away your Kiss” & “You can’t say yes and you can’t say no”. The album’s iconic image was taken by none other than David Bailey.In 1983 Dennis Greaves left to form The Truth and it is not until 1990 when Nine Below Zero got back together for a sell out 10th Anniversary Concert at the Town & Country Club. Since then the band have played alongside Chuck Berry, Brian May, Eric Clapton, Ray Davies, Bruce Willis, Jools Holland & Glenn Tilbrook.
Nine Below Zero - Don't Point Your Finger (1981) [Reissue 2000]


Tracklist:

1. One Way Street
2. Doghouse
3. Liquor Lover
4. Helen
5. Ain't Comin' Back
6. I Won't Lie
7. Treat Her Right
8. Three Times Enough
9. Sugar Mama
10. Don't Point Your Finger at the Guitar Man
11. Rockin' Robin
12. You Can't Please All the People All the Time

Exact Audio Copy V1.0 beta 4 from 7. December 2014

EAC extraction logfile from 21. February 2016, 0:31

Nine Below Zero / Don't Point Your Finger

Used drive : ATAPI iHAS124 C Adapter: 1 ID: 0

Read mode : Secure
Utilize accurate stream : Yes
Defeat audio cache : Yes
Make use of C2 pointers : No

Read offset correction : 6
Overread into Lead-In and Lead-Out : No
Fill up missing offset samples with silence : Yes
Delete leading and trailing silent blocks : No
Null samples used in CRC calculations : Yes
Used interface : Native Win32 interface for Win NT & 2000
Gap handling : Appended to previous track

Used output format : User Defined Encoder
Selected bitrate : 256 kBit/s
Quality : High
Add ID3 tag : No
Command line compressor : C:\Program Files\FLAC\flac.exe
Additional command line options : -8 -V -T "ARTIST=%artist%" -T "TITLE=%title%" -T "ALBUM=%albumtitle%" -T "DATE=%year%" -T "TRACKNUMBER=%tracknr%" -T "TOTALTRACKS=%numtracks%" -T "GENRE=%genre%" -T "ALBUMARTIST=%albumartist%" -T "ALBUM ARTIST=%albumartist%" -T "COMMENT=EAC Secure Mode, Test & Copy, AccurateRip, FLAC -8" %source%


TOC of the extracted CD

Track | Start | Length | Start sector | End sector
––––––––––––––––––––––––––––-
1 | 0:00.00 | 3:46.02 | 0 | 16951
2 | 3:46.02 | 2:22.42 | 16952 | 27643
3 | 6:08.44 | 2:54.06 | 27644 | 40699
4 | 9:02.50 | 3:46.58 | 40700 | 57707
5 | 12:49.33 | 2:54.71 | 57708 | 70828
6 | 15:44.29 | 3:42.35 | 70829 | 87513
7 | 19:26.64 | 2:25.21 | 87514 | 98409
8 | 21:52.10 | 2:01.00 | 98410 | 107484
9 | 23:53.10 | 5:08.43 | 107485 | 130627
10 | 29:01.53 | 2:45.19 | 130628 | 143021
11 | 31:46.72 | 2:25.54 | 143022 | 153950
12 | 34:12.51 | 5:21.06 | 153951 | 178031


Track 1

Filename D:\Temp\01 - One Way Street.wav

Pre-gap length 0:00:02.00

Peak level 99.8 %
Extraction speed 5.1 X
Track quality 100.0 %
Test CRC 8DCAC31A
Copy CRC 8DCAC31A
Accurately ripped (confidence 2) [05883105] (AR v1)
Copy OK

Track 2

Filename D:\Temp\02 - Doghouse.wav

Pre-gap length 0:00:02.04

Peak level 99.8 %
Extraction speed 5.1 X
Track quality 100.0 %
Test CRC 52DA50AF
Copy CRC 52DA50AF
Accurately ripped (confidence 2) [13001400] (AR v1)
Copy OK

Track 3

Filename D:\Temp\03 - Liquor Lover.wav

Pre-gap length 0:00:00.69

Peak level 99.8 %
Extraction speed 5.6 X
Track quality 100.0 %
Test CRC 993B0B55
Copy CRC 993B0B55
Accurately ripped (confidence 2) [4794687B] (AR v1)
Copy OK

Track 4

Filename D:\Temp\04 - Helen.wav

Pre-gap length 0:00:01.28

Peak level 99.8 %
Extraction speed 6.3 X
Track quality 100.0 %
Test CRC 4143BBE0
Copy CRC 4143BBE0
Accurately ripped (confidence 2) [BF066B7E] (AR v1)
Copy OK

Track 5

Filename D:\Temp\05 - Ain't Coming Back.wav

Pre-gap length 0:00:01.70

Peak level 99.8 %
Extraction speed 5.0 X
Track quality 99.9 %
Test CRC 6E654792
Copy CRC 6E654792
Accurately ripped (confidence 2) [A796D2F1] (AR v1)
Copy OK

Track 6

Filename D:\Temp\06 - I Won't Lie.wav

Pre-gap length 0:00:01.60

Peak level 99.8 %
Extraction speed 7.0 X
Track quality 100.0 %
Test CRC E4A1676E
Copy CRC E4A1676E
Accurately ripped (confidence 2) [4BC78F90] (AR v1)
Copy OK

Track 7

Filename D:\Temp\07 - Treat Her Right.wav

Pre-gap length 0:00:00.71

Peak level 99.8 %
Extraction speed 6.9 X
Track quality 100.0 %
Test CRC BCF33473
Copy CRC BCF33473
Accurately ripped (confidence 2) [61F94C20] (AR v1)
Copy OK

Track 8

Filename D:\Temp\08 - Three Times Enough.wav

Pre-gap length 0:00:01.40

Peak level 99.8 %
Extraction speed 6.7 X
Track quality 100.0 %
Test CRC 405482CE
Copy CRC 405482CE
Accurately ripped (confidence 2) [F57CE471] (AR v1)
Copy OK

Track 9

Filename D:\Temp\09 - Sugar Mama.wav

Pre-gap length 0:00:02.53

Peak level 99.8 %
Extraction speed 8.3 X
Track quality 100.0 %
Test CRC AB386F00
Copy CRC AB386F00
Accurately ripped (confidence 2) [6049D9D6] (AR v1)
Copy OK

Track 10

Filename D:\Temp\10 - Don't Point Your Finger at the Guitar Man.wav

Pre-gap length 0:00:01.18

Peak level 99.8 %
Extraction speed 7.9 X
Track quality 100.0 %
Test CRC 303914D6
Copy CRC 303914D6
Accurately ripped (confidence 2) [DD106D29] (AR v1)
Copy OK

Track 11

Filename D:\Temp\11 - Rockin' Robin.wav

Pre-gap length 0:00:01.06

Peak level 99.8 %
Extraction speed 5.9 X
Track quality 99.9 %
Test CRC 218C2165
Copy CRC 218C2165
Accurately ripped (confidence 2) [7DE1FBF3] (AR v1)
Copy OK

Track 12

Filename D:\Temp\12 - You Can't Please All the People All the Time.wav

Pre-gap length 0:00:02.63

Peak level 99.8 %
Extraction speed 9.2 X
Track quality 100.0 %
Test CRC D2D89F7E
Copy CRC D2D89F7E
Accurately ripped (confidence 2) [D0328726] (AR v1)
Copy OK


All tracks accurately ripped

No errors occurred

End of status report

–– CUETools DB Plugin V2.1.4

[CTDB TOCID: 3KrgWKkfpGtumbwoc7g_khaWfOI-] found
Submit result: 3KrgWKkfpGtumbwoc7g_khaWfOI- has been confirmed
Track | CTDB Status
1 | (2/5) Accurately ripped
2 | (2/5) Accurately ripped
3 | (2/5) Accurately ripped
4 | (2/5) Accurately ripped
5 | (2/5) Accurately ripped
6 | (2/5) Accurately ripped
7 | (2/5) Accurately ripped
8 | (2/5) Accurately ripped
9 | (2/5) Accurately ripped
10 | (2/5) Accurately ripped
11 | (2/5) Accurately ripped
12 | (2/5) Accurately ripped


==== Log checksum 226BF3BEEA26BE2D4D2A1624D6C88116122025138A194F6BDD7821427119C234 ====


Personnel

Bass – Peter Clark
Drums – Stix Burkey
Lead Vocals, Guitar – Dennis (The Menace) Greaves
Vocals, Harp – Mark (The Harp) Feltham

All thanks to original releaser

Nine Below Zero - Don't Point Your Finger (1981) [Reissue 2000]