Subcategories

Nino Nardini & The Pop Riviera Group - Rotonde Musique (1997)

Posted By: v3122
Nino Nardini & The Pop Riviera Group - Rotonde Musique (1997)

Nino Nardini & The Pop Riviera Group - Rotonde Musique (1997)
EAC | Flac(Image) + Cue + Log & MP3 CBR 320Kbps
Desco Records, RMCD No7.BMI | ~ 251 or 110 Mb | Scans(jpg) -> 17 Mb
Lounge, Pop Rock, Funk, Easy Listening

This a welcome reissue of Pike's hyper-rare album. Dave Pike plays the vibes over a terrific funk accompaniment.
The release features original tracks from Pike and guitarist Joop Scholten but the real charm is the unusual cover versions of "Spooky", Bacharach's "Do You Know the Way to San Jose" and James Brown's "Got the Feelin".

By Allan Clark, amazon


The previous review is actually not about this release - it's about 'Got The Feelin' by The Dave Pike Set. Nino is a seriously crazed Frenchman who produced some fantastically warped library funk in the '70s. This one is pretty tame in comparison with his more far out cuts (check 'Afro Spooky'), but some great roots funk instrumentals on it. Well worth having - 'Got The Feelin' is better though if you can get hold of it :)

By JC@etherbeat.com, amazon


This is a contemporary recording, has nothing to do with the "real" Nino Nardini and was not "Originally released on Rotonde Musique in 1971"…

~ discogs
Nino Nardini & The Pop Riviera Group - Rotonde Musique (1997):

Nino Nardini & The Pop Riviera Group - Rotonde Musique (1997)

Tracklist:

1. Soul Walk
2. Backgammon
3. Trampoline
4. Fun At Rachel's
5. Fast Delivery
6. Express Pour Portofino
7. Charger Attack
8. Frisco Hills
9. Latinova
10. Passport International
11. VIP 345
12. Pop Riviera

Exact Audio Copy V1.1 from 23. June 2015

Отчёт EAC об извлечении, выполненном 19. февраля 2016, 21:02

Nino Nardini / Nino Nardini And The Pop Riviera Group

Дисковод: hp CDDVDW SU-208CB Adapter: 0 ID: 0

Режим чтения : Достоверность
Использование точного потока : Да
Отключение кэша аудио : Да
Использование указателей C2 : Нет

Коррекция смещения при чтении : 6
Способность читать области Lead-in и Lead-out : Нет
Заполнение пропущенных сэмплов тишиной : Да
Удаление блоков с тишиной в начале и конце : Нет
При вычислениях CRC использовались нулевые сэмплы : Да
Интерфейс : Установленный внешний ASPI-интерфейс

Выходной формат : Пользовательский кодировщик
Выбранный битрейт : 1024 kBit/s
Качество : Высокий
Добавление ID3-тега : Нет
Утилита сжатия : C:\Program Files (x86)\Exact Audio Copy\Flac\flac.exe
Дополнительные параметры : -V -8 -T "Date=%year%" -T "Genre=%genre%" %source%


TOC извлечённого CD

Трек | Старт | Длительность | Начальный сектор | Конечный сектор
––––––––––––––––––––––––––––––––––-
1 | 0:00.00 | 4:31.25 | 0 | 20349
2 | 4:31.25 | 3:06.16 | 20350 | 34315
3 | 7:37.41 | 2:48.27 | 34316 | 46942
4 | 10:25.68 | 3:16.56 | 46943 | 61698
5 | 13:42.49 | 3:02.69 | 61699 | 75417
6 | 16:45.43 | 3:24.19 | 75418 | 90736
7 | 20:09.62 | 3:50.25 | 90737 | 108011
8 | 24:00.12 | 4:02.13 | 108012 | 126174
9 | 28:02.25 | 6:37.68 | 126175 | 156017
10 | 34:40.18 | 2:56.46 | 156018 | 169263
11 | 37:36.64 | 3:59.62 | 169264 | 187250
12 | 41:36.51 | 4:12.55 | 187251 | 206205


Характеристики диапазона извлечения и сообщения об ошибках

Выбранный диапазон

Имя файла C:\Users\Пользователь\Music\Nino Nardini And The Pop Riviera Group\Nino Nardini - Nino Nardini And The Pop Riviera Group.wav

Пиковый уровень 100.0 %
Скорость извлечения 3.5 X
Качество диапазона 100.0 %
CRC теста 796095C5
CRC копии 796095C5
Копирование… OK

Ошибок не произошло


AccurateRip: сводка

Трек 1 : извлечено точно (доверие 3) [01D22C39] (AR v2)
Трек 2 : извлечено точно (доверие 3) [6B7F1E16] (AR v2)
Трек 3 : извлечено точно (доверие 3) [12D76ADC] (AR v2)
Трек 4 : извлечено точно (доверие 3) [6DA5B007] (AR v2)
Трек 5 : извлечено точно (доверие 3) [0D4DA52D] (AR v2)
Трек 6 : извлечено точно (доверие 3) [D02E88F3] (AR v2)
Трек 7 : извлечено точно (доверие 3) [931B5188] (AR v2)
Трек 8 : извлечено точно (доверие 3) [58D60DB6] (AR v2)
Трек 9 : извлечено точно (доверие 3) [03FA8262] (AR v2)
Трек 10 : извлечено точно (доверие 3) [3CF7DD2D] (AR v2)
Трек 11 : извлечено точно (доверие 3) [C3F43369] (AR v2)
Трек 12 : извлечено точно (доверие 3) [F0731056] (AR v2)

Все треки извлечены точно

Конец отчёта

==== Контрольная сумма отчёта 9BB8D41AABF0DED6CF2ABBD850B04F2B121848553F00383CBC043B4BFADFCBB2 ====


[CUETools log; Date: 31.10.2017 17:23:12; Version: 2.1.5]
[AccurateRip ID: 00139155-00b847e4-9c0abd0c] found.
Track [ CRC | V2 ] Status
01 [5c91d950|01d22c39] (3+3/6) Accurately ripped
02 [c12f510d|6b7f1e16] (3+3/6) Accurately ripped
03 [94ff25b6|12d76adc] (3+3/6) Accurately ripped
04 [eb6e4a60|6da5b007] (3+3/6) Accurately ripped
05 [82a72019|0d4da52d] (3+3/6) Accurately ripped
06 [4b9a14e8|d02e88f3] (3+3/6) Accurately ripped
07 [c4c0565e|931b5188] (3+3/6) Accurately ripped
08 [fef8379c|58d60db6] (3+3/6) Accurately ripped
09 [f4c2705e|03fa8262] (3+3/6) Accurately ripped
10 [dca2ce59|3cf7dd2d] (3+3/6) Accurately ripped
11 [aeea1ae1|c3f43369] (3+3/6) Accurately ripped
12 [e05f563e|f0731056] (3+3/6) Accurately ripped

Track Peak [ CRC32 ] [W/O NULL] [ LOG ]
– 100,0 [796095C5] [31C0FA4C] CRC32
01 75,2 [8B518FDA] [649E3412]
02 63,7 [28F4E8D9] [EA991013]
03 71,3 [E175881F] [C7371A65]
04 84,7 [E2CD7509] [B92DEF18]
05 64,2 [3E83ACAF] [9E0A7296]
06 56,3 [99B114F9] [AC7DBA44]
07 61,0 [BE20959C] [3901A75E]
08 71,6 [EBAF5A0D] [DA837E25]
09 87,4 [2B227CC0] [D1790591]
10 95,8 [C5C07857] [E6F286ED]
11 71,9 [C7A08F1D] [31486B3D]
12 100,0 [5540CBC7] [9AF9A36E]


Nino Nardini & The Pop Riviera Group - Rotonde Musique (1997)

All thanks go to Копысов

Download Nino Nardini & The Pop Riviera Group - Rotonde Musique (1997):