Subcategories

Nino Rota - Greatest Film Hits (2012) 5CD Box Set [Re-Up]

Posted By: Designol
Nino Rota - Greatest Film Hits (2012) 5CD Box Set [Re-Up]

Nino Rota - Greatest Film Hits (2012) 5CD Box Set
EAC | FLAC | Image (Cue&Log) ~ 1.51 Gb (incl 5%) | Mp3 (CBR320) ~ 735 Mb (incl 5%) | Scans ~ 92 Mb
Genre: Soundtrack, Score | Label: Recording Arts AG | # 5X060 | Time: 05:09:55

The greatest film hits of Nino Rota. Including "The Godfather I-II-III", various Fellini films, "Romeo & Juliet", "Death on The Nile" and many others, performed by Solisti e Orchestre del Cinema Italiano. Nino Rota was an Italian composer, pianist, conductor and academic who is best known for his film scores, notably for the films of Federico Fellini and Luchino Visconti. He also composed the music for two of Franco Zeffirelli's Shakespeare films, and for the first two films of Francis Ford Coppola's Godfather trilogy, receiving the Academy Award for Best Original Score for The Godfather Part II (1974).

Like many fine concert music composers, such as Serge Prokofiev, Toru Takemitsu, and Bernard Herrmann, Rota created a unique film soundtrack style for which he became known worldwide.

Rota was born into a musical family: one of his grandfathers was the pianist-composer Giovanni Rinaldi (1840-1895), and he studied the piano, on which he was to become known as a gifted improviser, with his mother. He also studied solfège and began to compose at the early age of eight. His oratorio L'infanzia di S. Giovanni Battista (The Infancy of Saint John the Baptist) for soloists, chorus, and orchestra was performed in Milan and Lille in 1923, when he was only 12.

Rota entered the Milan Conservatory in 1923 and wrote his (unperformed) first opera Il principe porcaro in 1925, basing his original libretto on Hans Christian Andersen's tale. About this time he established a lifelong friendship with Igor Stravinsky. He studied privately with Pizzetti and Casella, and received his diploma at the Accademia di S. Cecilia in Rome in 1930. In the U.S., he studied at the Curtis Institute in Philadelphia from 1931-32, and received an arts degree at Milan University (1937). During this time he composed several minor chamber works.

He became a teacher of harmony, solfège, and composition at the Taranto music school (1937-1938) and the Bari Conservatory (1939-1950) where he became director (in 1950).

Rota's first film score was for Renato Castellani's Zazà in 1944. He then went on to create music for many classic films by Luchino Visconti (Rocco and his Brothers), Franco Zeffirelli (The Taming of the Shrew and Romeo and Juliet), Mario Monicelli, H. Cass (The Glass Mountain), Francis Ford Coppola (The Godfather, which received an Oscar for best score), King Vidor (War and Peace), René Clément (Plein soleil), Edward Dmytrik, C. Borghesio, M. Soldati (Le miserie del signor Travat), L. Zampa (Anni facili), M. Monicelli (La grande guerra), S.F. Bondarchuk (Waterloo), and Eduardo de Filippo (Napoli milionairia). His 80 scores for Federico Fellini extended from The White Sheik (1952) to The Orchestra Rehearsal (1979). He also composed the music for many theater productions by Visconti, Zeffirelli, and de Filippo. These film scores have a distinctive "Rota" sound made from clear, directly expressive melodies and rhythms, unusual progressions of tonal chords, and often an earthy humor.

Of Rota's 10 operas, the exciting Il capello di paglia di Firenze (1946) and the philosophical allegory La visita meravigliosa (1970, The Marvelous Visitation) were the most successful. Of his five choral works, the Mysterium (1962) and La vita di Maria (1970) are considered especially fine in compositional technique. He also composed five ballets, including Amor di poeta (1978) for Maurice Bejart, many chamber and piano works, several symphonies, and other orchestral works including the brilliant Harp Concerto (1948). In February 1995, the Nino Rota Foundation was established at Fondazione Cini in Venice.

Biography by "Blue" Gene Tyranny, Allmusic.com

Nino Rota - Greatest Film Hits (2012) 5CD Box Set [Re-Up]





Nino Rota - Greatest Film Hits (2012) 5CD Box Set [Re-Up]


Tracklist CD1:

The Godfather I-II:

01. The Godfather I: Main title; the Godfather waltz (03:09)
02. The Godfather I: I have but one heart (03:01)
03. The Godfather I: The pick-up (02:10)
04. The Godfather I: Connie's wedding (01:38)
05. The Godfather I: The halls of fear (02:16)
06. The Godfather I: Sicilian pastorale (01:35)
07. The Godfather I: Love theme from 'The Godfather' (02:46)
08. The Godfather I: The Godfather waltz (03:43)
09. The Godfather I: Apollonia (01:25)
10. The Godfather I: The new godfather (02:04)
11. The Godfather I: The baptism (01:55)
12. The Godfather I: The Godfather; finale (04:01)
13. The Godfather II: Main title; the immigrant (02:50)
14. The Godfather II: A new carpet (02:03)
15. The Godfather II: Kay (02:45)
16. The Godfather II: Every time I look in your eyes; after the party (02:38)
17. The Godfather II: Vito and Abbondando (02:39)
18. The Godfather II: Senza Mama-Ciuri Ciuri-Napule ve salute (02:37)
19. The Godfather II: The Godfather at home (02:39)
20. The Godfather II: Remember Vito Andolini (02:54)
21. The Godfather II: Michael comes home (02:20)
22. The Godfather II: Marcia stile italiano (01:55)
23. The Godfather II: Ninna nanna a Michele (02:25)
24. The Godfather II: The brothers mourn (03:23)
25. The Godfather II: Murder of Don Fanucci; marcia religiosa (04:24)
26. The Godfather II: Murder of Don Fanucci; marcia festa (01:40)
27. The Godfather II: The Godfather II; end title (04:13)


Exact Audio Copy V1.0 beta 3 from 29. August 2011

EAC extraction logfile from 16. March 2013, 11:28

Nino Rota / Greatest Film Hits [Disc 1]

Used drive : SAMSUNG DVD-ROM SD-616E Adapter: 3 ID: 0

Read mode : Secure
Utilize accurate stream : Yes
Defeat audio cache : Yes
Make use of C2 pointers : No

Read offset correction : 12
Overread into Lead-In and Lead-Out : No
Fill up missing offset samples with silence : Yes
Delete leading and trailing silent blocks : No
Null samples used in CRC calculations : Yes
Used interface : Native Win32 interface for Win NT & 2000

Used output format : User Defined Encoder
Selected bitrate : 768 kBit/s
Quality : High
Add ID3 tag : No
Command line compressor : C:\Program Files\Exact Audio Copy\FLAC\FLAC.EXE
Additional command line options : -6 -V -T "ARTIST=%artist%" -T "TITLE=%title%" -T "ALBUM=%albumtitle%" -T "DATE=%year%" -T "TRACKNUMBER=%tracknr%" -T "GENRE=%genre%" -T "COMMENT=%comment%" -T "BAND=%albuminterpret%" -T "ALBUMARTIST=%albuminterpret%" -T "COMPOSER=%composer%" %haslyrics%–tag-from-file=LYRICS="%lyricsfile%"%haslyrics% -T "DISCNUMBER=%cdnumber%" -T "TOTALDISCS=%totalcds%" -T "TOTALTRACKS=%numtracks%" %hascover%–picture="%coverfile%"%hascover% %source% -o %dest%


TOC of the extracted CD

Track | Start | Length | Start sector | End sector
––––––––––––––––––––––––––––-
1 | 0:00.00 | 3:09.33 | 0 | 14207
2 | 3:09.33 | 3:01.15 | 14208 | 27797
3 | 6:10.48 | 2:10.23 | 27798 | 37570
4 | 8:20.71 | 1:38.18 | 37571 | 44938
5 | 9:59.14 | 2:16.53 | 44939 | 55191
6 | 12:15.67 | 1:35.04 | 55192 | 62320
7 | 13:50.71 | 2:46.60 | 62321 | 74830
8 | 16:37.56 | 3:43.43 | 74831 | 91598
9 | 20:21.24 | 1:25.64 | 91599 | 98037
10 | 21:47.13 | 2:04.39 | 98038 | 107376
11 | 23:51.52 | 1:55.37 | 107377 | 116038
12 | 25:47.14 | 4:01.54 | 116039 | 134167
13 | 29:48.68 | 2:50.31 | 134168 | 146948
14 | 32:39.24 | 2:03.03 | 146949 | 156176
15 | 34:42.27 | 2:45.36 | 156177 | 168587
16 | 37:27.63 | 2:38.48 | 168588 | 180485
17 | 40:06.36 | 2:39.34 | 180486 | 192444
18 | 42:45.70 | 2:37.16 | 192445 | 204235
19 | 45:23.11 | 2:39.07 | 204236 | 216167
20 | 48:02.18 | 2:54.46 | 216168 | 229263
21 | 50:56.64 | 2:20.50 | 229264 | 239813
22 | 53:17.39 | 1:55.37 | 239814 | 248475
23 | 55:13.01 | 2:25.24 | 248476 | 259374
24 | 57:38.25 | 3:23.51 | 259375 | 274650
25 | 61:02.01 | 4:24.06 | 274651 | 294456
26 | 65:26.07 | 1:40.28 | 294457 | 301984
27 | 67:06.35 | 4:13.68 | 301985 | 321027


Range status and errors

Selected range

Filename C:\Documents and Settings\Borya\Desktop\nirot\Nino Rota - Greatest Film Hits [Disc 1].wav

Peak level 63.1 %
Extraction speed 3.3 X
Range quality 100.0 %
Copy CRC F9EEDF58
Copy OK

No errors occurred


AccurateRip summary

Track 1 not present in database
Track 2 not present in database
Track 3 not present in database
Track 4 not present in database
Track 5 not present in database
Track 6 not present in database
Track 7 not present in database
Track 8 not present in database
Track 9 not present in database
Track 10 not present in database
Track 11 not present in database
Track 12 not present in database
Track 13 not present in database
Track 14 not present in database
Track 15 not present in database
Track 16 not present in database
Track 17 not present in database
Track 18 not present in database
Track 19 not present in database
Track 20 not present in database
Track 21 not present in database
Track 22 not present in database
Track 23 not present in database
Track 24 not present in database
Track 25 not present in database
Track 26 not present in database
Track 27 not present in database

None of the tracks are present in the AccurateRip database

End of status report

==== Log checksum B0DA446345C0800F644AEC705D6222E6B6B5B2FFC451F32DD244730746BC6014 ====

foobar2000 1.2 / Dynamic Range Meter 1.1.1
log date: 2013-04-21 20:17:25

––––––––––––––––––––––––––––––––––––––––
Analyzed: Nino Rota / Greatest Film Hits [Disc 1]
––––––––––––––––––––––––––––––––––––––––

DR Peak RMS Duration Track
––––––––––––––––––––––––––––––––––––––––
DR10 -7.95 dB -23.46 dB 3:09 01-The Godfather I: Main title; the Godfather waltz
DR11 -4.00 dB -17.01 dB 3:01 02-The Godfather I: I have but one heart
DR7 -4.00 dB -13.58 dB 2:10 03-The Godfather I: The pick-up
DR13 -4.00 dB -19.17 dB 1:38 04-The Godfather I: Connie's wedding
DR10 -4.00 dB -17.54 dB 2:17 05-The Godfather I: The halls of fear
DR9 -4.00 dB -16.83 dB 1:35 06-The Godfather I: Sicilian pastorale
DR9 -4.00 dB -16.02 dB 2:47 07-The Godfather I: Love theme from 'The Godfather'
DR7 -4.00 dB -13.12 dB 3:44 08-The Godfather I: The Godfather waltz
DR11 -6.99 dB -21.70 dB 1:26 09-The Godfather I: Apollonia
DR7 -4.00 dB -15.10 dB 2:05 10-The Godfather I: The new godfather
DR10 -5.45 dB -19.63 dB 1:55 11-The Godfather I: The baptism
DR9 -4.00 dB -17.57 dB 4:02 12-The Godfather I: The Godfather; finale
DR10 -4.00 dB -18.96 dB 2:50 13-The Godfather II: Main title; the immigrant
DR7 -4.00 dB -14.09 dB 2:03 14-The Godfather II: A new carpet
DR10 -4.00 dB -18.39 dB 2:45 15-The Godfather II: Kay
DR10 -4.00 dB -16.68 dB 2:39 16-The Godfather II: Every time I look in your eyes; after the party
DR10 -8.75 dB -22.97 dB 2:39 17-The Godfather II: Vito and Abbondando
DR9 -4.00 dB -15.45 dB 2:37 18-The Godfather II: Senza Mama-Ciuri Ciuri-Napule ve salute
DR11 -4.00 dB -18.18 dB 2:39 19-The Godfather II: The Godfather at home
DR10 -6.76 dB -22.34 dB 2:55 20-The Godfather II: Remember Vito Andolini
DR10 -9.53 dB -23.15 dB 2:21 21-The Godfather II: Michael comes home
DR11 -4.21 dB -17.29 dB 1:55 22-The Godfather II: Marcia stile italiano
DR12 -4.00 dB -21.00 dB 2:25 23-The Godfather II: Ninna nanna a Michele
DR10 -4.00 dB -18.71 dB 3:24 24-The Godfather II: The brothers mourn
DR9 -4.00 dB -16.58 dB 4:24 25-The Godfather II: Murder of Don Fanucci; marcia religiosa
DR9 -4.00 dB -14.95 dB 1:40 26-The Godfather II: Murder of Don Fanucci; marcia festa
DR11 -4.00 dB -19.44 dB 4:14 27-The Godfather II: The Godfather II; end title
––––––––––––––––––––––––––––––––––––––––

Number of tracks: 27
Official DR value: DR10

Samplerate: 44100 Hz
Channels: 2
Bits per sample: 16
Bitrate: 634 kbps
Codec: FLAC
================================================================================


Tracklist CD2:

The Godfather III:

01. The Godfather III: Main title (00:44)
02. The Godfather III: Godfather waltz (01:12)
03. The Godfather III: Marcia religiosa (02:50)
04. The Godfather III: Michael's letter (01:14)
05. The Godfather III: The immigrant-Love theme of The Godfather III (02:29)
06. The Godfather III: Godfather waltz (01:27)
07. The Godfather III: To each his own (03:22)
08. The Godfather III: Vincent's theme (01:49)
09. The Godfather III: Altobello (02:10)
10. The Godfather III: The Godfather III; intermezzo (03:22)
11. The Godfather III: Va pensiero (02:11)
12. The Godfather III: Tarantella (03:14)
13. The Godfather III: Mazurka alla siciliana (02:49)
14. The Godfather III: Promise me you'll remember (05:14)
15. The Godfather III: Preludio (from 'Cavalleria Rusticana') (06:11)
16. The Godfather III: A casa amiche (from 'Cavalleria Rusticana') (02:01)
17. The Godfather III: Preghiera (from 'Cavalleria Rusticana') (05:31)
18. The Godfather III: Finale (from 'Cavalleria Rusticana') (08:15)
19. The Godfather III: Coda; The Godfather III (02:02)


Exact Audio Copy V1.0 beta 3 from 29. August 2011

EAC extraction logfile from 16. March 2013, 12:55

Nino Rota / Greatest Film Hits [Disc 2]

Used drive : SAMSUNG DVD-ROM SD-616E Adapter: 3 ID: 0

Read mode : Secure
Utilize accurate stream : Yes
Defeat audio cache : Yes
Make use of C2 pointers : No

Read offset correction : 12
Overread into Lead-In and Lead-Out : No
Fill up missing offset samples with silence : Yes
Delete leading and trailing silent blocks : No
Null samples used in CRC calculations : Yes
Used interface : Native Win32 interface for Win NT & 2000

Used output format : User Defined Encoder
Selected bitrate : 768 kBit/s
Quality : High
Add ID3 tag : No
Command line compressor : C:\Program Files\Exact Audio Copy\FLAC\FLAC.EXE
Additional command line options : -6 -V -T "ARTIST=%artist%" -T "TITLE=%title%" -T "ALBUM=%albumtitle%" -T "DATE=%year%" -T "TRACKNUMBER=%tracknr%" -T "GENRE=%genre%" -T "COMMENT=%comment%" -T "BAND=%albuminterpret%" -T "ALBUMARTIST=%albuminterpret%" -T "COMPOSER=%composer%" %haslyrics%–tag-from-file=LYRICS="%lyricsfile%"%haslyrics% -T "DISCNUMBER=%cdnumber%" -T "TOTALDISCS=%totalcds%" -T "TOTALTRACKS=%numtracks%" %hascover%–picture="%coverfile%"%hascover% %source% -o %dest%


TOC of the extracted CD

Track | Start | Length | Start sector | End sector
––––––––––––––––––––––––––––-
1 | 0:00.00 | 0:44.27 | 0 | 3326
2 | 0:44.27 | 1:12.16 | 3327 | 8742
3 | 1:56.43 | 2:50.05 | 8743 | 21497
4 | 4:46.48 | 1:14.08 | 21498 | 27055
5 | 6:00.56 | 2:29.34 | 27056 | 38264
6 | 8:30.15 | 1:27.23 | 38265 | 44812
7 | 9:57.38 | 3:22.39 | 44813 | 60001
8 | 13:20.02 | 1:49.27 | 60002 | 68203
9 | 15:09.29 | 2:10.62 | 68204 | 78015
10 | 17:20.16 | 3:22.01 | 78016 | 93166
11 | 20:42.17 | 2:11.28 | 93167 | 103019
12 | 22:53.45 | 3:14.62 | 103020 | 117631
13 | 26:08.32 | 2:49.25 | 117632 | 130331
14 | 28:57.57 | 5:14.35 | 130332 | 153916
15 | 34:12.17 | 6:11.06 | 153917 | 181747
16 | 40:23.23 | 2:01.66 | 181748 | 190888
17 | 42:25.14 | 5:31.58 | 190889 | 215771
18 | 47:56.72 | 8:15.17 | 215772 | 252913
19 | 56:12.14 | 2:02.46 | 252914 | 262109


Range status and errors

Selected range

Filename C:\Documents and Settings\Borya\Desktop\nirot\CD2\Nino Rota - Greatest Film Hits [Disc 2].wav

Peak level 63.1 %
Extraction speed 3.2 X
Range quality 100.0 %
Copy CRC 496D9BC8
Copy OK

No errors occurred


AccurateRip summary

Track 1 not present in database
Track 2 not present in database
Track 3 not present in database
Track 4 not present in database
Track 5 not present in database
Track 6 not present in database
Track 7 not present in database
Track 8 not present in database
Track 9 not present in database
Track 10 not present in database
Track 11 not present in database
Track 12 not present in database
Track 13 not present in database
Track 14 not present in database
Track 15 not present in database
Track 16 not present in database
Track 17 not present in database
Track 18 not present in database
Track 19 not present in database

None of the tracks are present in the AccurateRip database

End of status report

==== Log checksum 26EE8B6D66ACC787856995E021D59BC6324B11E1BDA6A9B38E7377F0D7AB2B1A ====

foobar2000 1.2 / Dynamic Range Meter 1.1.1
log date: 2013-04-21 20:17:39

––––––––––––––––––––––––––––––––––––––––
Analyzed: Nino Rota / Greatest Film Hits [Disc 2]
––––––––––––––––––––––––––––––––––––––––

DR Peak RMS Duration Track
––––––––––––––––––––––––––––––––––––––––
DR9 -6.73 dB -21.87 dB 0:44 01-The Godfather III: Main title
DR10 -6.88 dB -20.87 dB 1:12 02-The Godfather III: Godfather waltz
DR10 -4.00 dB -15.79 dB 2:50 03-The Godfather III: Marcia religiosa
DR10 -4.00 dB -18.55 dB 1:14 04-The Godfather III: Michael's letter
DR12 -4.00 dB -19.35 dB 2:29 05-The Godfather III: The immigrant-Love theme of The Godfather III
DR10 -4.00 dB -15.68 dB 1:27 06-The Godfather III: Godfather waltz
DR11 -4.00 dB -18.29 dB 3:23 07-The Godfather III: To each his own
DR10 -4.00 dB -18.32 dB 1:49 08-The Godfather III: Vincent's theme
DR9 -4.00 dB -15.88 dB 2:11 09-The Godfather III: Altobello
DR8 -4.00 dB -15.22 dB 3:22 10-The Godfather III: The Godfather III; intermezzo
DR10 -4.00 dB -17.69 dB 2:11 11-The Godfather III: Va pensiero
DR11 -4.00 dB -18.86 dB 3:15 12-The Godfather III: Tarantella
DR10 -4.40 dB -17.29 dB 2:49 13-The Godfather III: Mazurka alla siciliana
DR11 -4.00 dB -16.97 dB 5:14 14-The Godfather III: Promise me you'll remember
DR9 -4.00 dB -18.84 dB 6:11 15-The Godfather III: Preludio (from 'Cavalleria Rusticana')
DR10 -4.41 dB -17.93 dB 2:02 16-The Godfather III: A casa amiche (from 'Cavalleria Rusticana')
DR10 -5.43 dB -20.44 dB 5:32 17-The Godfather III: Preghiera (from 'Cavalleria Rusticana')
DR13 -4.31 dB -22.50 dB 8:15 18-The Godfather III: Finale (from 'Cavalleria Rusticana')
DR8 -4.00 dB -16.00 dB 2:03 19-The Godfather III: Coda; The Godfather III
––––––––––––––––––––––––––––––––––––––––

Number of tracks: 19
Official DR value: DR10

Samplerate: 44100 Hz
Channels: 2
Bits per sample: 16
Bitrate: 564 kbps
Codec: FLAC
================================================================================


Tracklist CD3:

The Federico Fellini Movies:

01. Lo sceicco bianco (02:36)
02. I vitelloni (02:14)
03. La strada (03:32)
04. Il bidone (03:00)
05. Le notti di Cabiria (04:42)
06. La dolce vita (06:29)
07. La dolce vita: Finale (03:04)
08. Boccaccio '70 (02:05)
09. 8 1-2 (04:31)
10. Carlotta's galop from 8 1-2 (02:34)
11. Giulietta degli spiriti (04:06)
12. Il charleston di Giulietta (01:31)
13. Tre passi nel delirio (04:12)
14. Fellini Satyricon (02:07)
15. I clowns (05:33)
16. Roma (04:04)
17. Amarcord (06:17)
18. La gradisca e il principe (02:29)
19. Il Casanova di Federico Fellini (06:49)
20. Prova d'orchestra (04:01)
21. Fellini's waltz (03:24)


Exact Audio Copy V1.0 beta 3 from 29. August 2011

EAC extraction logfile from 16. March 2013, 15:13

Nino Rota / Greatest Movie Hits [Disc 3]

Used drive : SAMSUNG DVD-ROM SD-616E Adapter: 3 ID: 0

Read mode : Secure
Utilize accurate stream : Yes
Defeat audio cache : Yes
Make use of C2 pointers : No

Read offset correction : 12
Overread into Lead-In and Lead-Out : No
Fill up missing offset samples with silence : Yes
Delete leading and trailing silent blocks : No
Null samples used in CRC calculations : Yes
Used interface : Native Win32 interface for Win NT & 2000

Used output format : User Defined Encoder
Selected bitrate : 768 kBit/s
Quality : High
Add ID3 tag : No
Command line compressor : C:\Program Files\Exact Audio Copy\FLAC\FLAC.EXE
Additional command line options : -6 -V -T "ARTIST=%artist%" -T "TITLE=%title%" -T "ALBUM=%albumtitle%" -T "DATE=%year%" -T "TRACKNUMBER=%tracknr%" -T "GENRE=%genre%" -T "COMMENT=%comment%" -T "BAND=%albuminterpret%" -T "ALBUMARTIST=%albuminterpret%" -T "COMPOSER=%composer%" %haslyrics%–tag-from-file=LYRICS="%lyricsfile%"%haslyrics% -T "DISCNUMBER=%cdnumber%" -T "TOTALDISCS=%totalcds%" -T "TOTALTRACKS=%numtracks%" %hascover%–picture="%coverfile%"%hascover% %source% -o %dest%


TOC of the extracted CD

Track | Start | Length | Start sector | End sector
––––––––––––––––––––––––––––-
1 | 0:00.00 | 2:36.18 | 0 | 11717
2 | 2:36.18 | 2:14.51 | 11718 | 21818
3 | 4:50.69 | 3:32.38 | 21819 | 37756
4 | 8:23.32 | 3:00.38 | 37757 | 51294
5 | 11:23.70 | 4:42.07 | 51295 | 72451
6 | 16:06.02 | 6:29.53 | 72452 | 101679
7 | 22:35.55 | 3:04.14 | 101680 | 115493
8 | 25:39.69 | 2:05.36 | 115494 | 124904
9 | 27:45.30 | 4:30.72 | 124905 | 145226
10 | 32:16.27 | 2:34.46 | 145227 | 156822
11 | 34:50.73 | 4:06.41 | 156823 | 175313
12 | 38:57.39 | 1:31.37 | 175314 | 182175
13 | 40:29.01 | 4:12.54 | 182176 | 201129
14 | 44:41.55 | 2:07.12 | 201130 | 210666
15 | 46:48.67 | 5:33.12 | 210667 | 235653
16 | 52:22.04 | 4:04.10 | 235654 | 253963
17 | 56:26.14 | 6:17.23 | 253964 | 282261
18 | 62:43.37 | 2:29.51 | 282262 | 293487
19 | 65:13.13 | 6:49.48 | 293488 | 324210
20 | 72:02.61 | 4:01.15 | 324211 | 342300
21 | 76:04.01 | 3:24.14 | 342301 | 357614


Range status and errors

Selected range

Filename C:\Documents and Settings\Borya\Desktop\nirot\CD3\Nino Rota - Greatest Movie Hits [Disc 3].wav

Peak level 70.7 %
Extraction speed 3.6 X
Range quality 99.9 %
Copy CRC B97AE738
Copy OK

No errors occurred


AccurateRip summary

Track 1 not present in database
Track 2 not present in database
Track 3 not present in database
Track 4 not present in database
Track 5 not present in database
Track 6 not present in database
Track 7 not present in database
Track 8 not present in database
Track 9 not present in database
Track 10 not present in database
Track 11 not present in database
Track 12 not present in database
Track 13 not present in database
Track 14 not present in database
Track 15 not present in database
Track 16 not present in database
Track 17 not present in database
Track 18 not present in database
Track 19 not present in database
Track 20 not present in database
Track 21 not present in database

None of the tracks are present in the AccurateRip database

End of status report

==== Log checksum F68541F34EE96635CBB70118AA35534778C362EC4AEDDDFEFD4E54BE8706C940 ====

foobar2000 1.2 / Dynamic Range Meter 1.1.1
log date: 2013-04-21 20:18:00

––––––––––––––––––––––––––––––––––––––––
Analyzed: Nino Rota / Greatest Movie Hits [Disc 3]
––––––––––––––––––––––––––––––––––––––––

DR Peak RMS Duration Track
––––––––––––––––––––––––––––––––––––––––
DR7 -3.00 dB -13.76 dB 2:36 01-Lo sceicco bianco
DR10 -3.00 dB -16.11 dB 2:15 02-I vitelloni
DR9 -3.00 dB -17.24 dB 3:33 03-La strada
DR8 -3.00 dB -14.75 dB 3:01 04-Il bidone
DR10 -3.00 dB -16.75 dB 4:42 05-Le notti di Cabiria
DR10 -3.00 dB -16.68 dB 6:30 06-La dolce vita
DR10 -3.00 dB -15.29 dB 3:04 07-La dolce vita: Finale
DR8 -3.00 dB -12.57 dB 2:05 08-Boccaccio '70
DR8 -3.00 dB -15.56 dB 4:31 09-8 1-2
DR7 -3.00 dB -11.95 dB 2:35 10-Carlotta's galop from 8 1-2
DR9 -3.00 dB -15.60 dB 4:07 11-Giulietta degli spiriti
DR7 -3.00 dB -11.95 dB 1:31 12-Il charleston di Giulietta
DR10 -3.00 dB -15.70 dB 4:13 13-Tre passi nel delirio
DR9 -3.00 dB -16.34 dB 2:07 14-Fellini Satyricon
DR8 -3.00 dB -14.08 dB 5:33 15-I clowns
DR7 -3.00 dB -14.47 dB 4:04 16-Roma
DR11 -3.00 dB -17.58 dB 6:17 17-Amarcord
DR8 -3.00 dB -13.55 dB 2:30 18-La gradisca e il principe
DR8 -3.00 dB -15.42 dB 6:50 19-Il Casanova di Federico Fellini
DR8 -3.00 dB -15.24 dB 4:01 20-Prova d'orchestra
DR10 -3.00 dB -17.05 dB 3:24 21-Fellini's waltz
––––––––––––––––––––––––––––––––––––––––

Number of tracks: 21
Official DR value: DR9

Samplerate: 44100 Hz
Channels: 2
Bits per sample: 16
Bitrate: 695 kbps
Codec: FLAC
================================================================================


Tracklist CD4:

Other Film Music 1933-1956:

01. Treno popolare (05:43)
02. La freccia nel fianco (01:34)
03. Roma cittа libera (02:09)
04. Pirates of Capri (01:47)
05. Fuga in Francia (03:41)
06. The glass mountain (04:38)
07. Napoli milionaria (06:02)
08. Obsession: The hidden room (01:12)
09. Filumena Marturano (01:03)
10. Totт e i re di Roma (01:25)
11. Anna (01:53)
12. L'ennemi public n.1 (02:05)
13. Le boulanger de Valorgue (00:44)
14. La grande speranza (01:19)
15. Un eroe dei nostri tempi (01:27)
16. War and Peace Pt. I (06:35)
17. War and Peace Pt. II (05:07)


Exact Audio Copy V1.0 beta 3 from 29. August 2011

EAC extraction logfile from 16. March 2013, 16:55

Nino Rota / Greatest Film Hits [Disc 4]

Used drive : SAMSUNG DVD-ROM SD-616E Adapter: 3 ID: 0

Read mode : Secure
Utilize accurate stream : Yes
Defeat audio cache : Yes
Make use of C2 pointers : No

Read offset correction : 12
Overread into Lead-In and Lead-Out : No
Fill up missing offset samples with silence : Yes
Delete leading and trailing silent blocks : No
Null samples used in CRC calculations : Yes
Used interface : Native Win32 interface for Win NT & 2000

Used output format : User Defined Encoder
Selected bitrate : 768 kBit/s
Quality : High
Add ID3 tag : No
Command line compressor : C:\Program Files\Exact Audio Copy\FLAC\FLAC.EXE
Additional command line options : -6 -V -T "ARTIST=%artist%" -T "TITLE=%title%" -T "ALBUM=%albumtitle%" -T "DATE=%year%" -T "TRACKNUMBER=%tracknr%" -T "GENRE=%genre%" -T "COMMENT=%comment%" -T "BAND=%albuminterpret%" -T "ALBUMARTIST=%albuminterpret%" -T "COMPOSER=%composer%" %haslyrics%–tag-from-file=LYRICS="%lyricsfile%"%haslyrics% -T "DISCNUMBER=%cdnumber%" -T "TOTALDISCS=%totalcds%" -T "TOTALTRACKS=%numtracks%" %hascover%–picture="%coverfile%"%hascover% %source% -o %dest%


TOC of the extracted CD

Track | Start | Length | Start sector | End sector
––––––––––––––––––––––––––––-
1 | 0:00.00 | 5:43.57 | 0 | 25781
2 | 5:43.57 | 1:34.45 | 25782 | 32876
3 | 7:18.27 | 2:09.35 | 32877 | 42586
4 | 9:27.62 | 1:47.56 | 42587 | 50667
5 | 11:15.43 | 3:41.39 | 50668 | 67281
6 | 14:57.07 | 4:38.51 | 67282 | 88182
7 | 19:35.58 | 6:02.04 | 88183 | 115336
8 | 25:37.62 | 1:12.30 | 115337 | 120766
9 | 26:50.17 | 1:03.67 | 120767 | 125558
10 | 27:54.09 | 1:25.37 | 125559 | 131970
11 | 29:19.46 | 1:53.62 | 131971 | 140507
12 | 31:13.33 | 2:05.53 | 140508 | 149935
13 | 33:19.11 | 0:44.62 | 149936 | 153297
14 | 34:03.73 | 1:18.71 | 153298 | 159218
15 | 35:22.69 | 1:27.38 | 159219 | 165781
16 | 36:50.32 | 6:35.49 | 165782 | 195455
17 | 43:26.06 | 5:07.07 | 195456 | 218487


Range status and errors

Selected range

Filename C:\Documents and Settings\Borya\Desktop\nirot\CD4\Nino Rota - Greatest Film Hits [Disc 4].wav

Peak level 70.7 %
Extraction speed 3.0 X
Range quality 100.0 %
Copy CRC EC6DA599
Copy OK

No errors occurred


AccurateRip summary

Track 1 not present in database
Track 2 not present in database
Track 3 not present in database
Track 4 not present in database
Track 5 not present in database
Track 6 not present in database
Track 7 not present in database
Track 8 not present in database
Track 9 not present in database
Track 10 not present in database
Track 11 not present in database
Track 12 not present in database
Track 13 not present in database
Track 14 not present in database
Track 15 not present in database
Track 16 not present in database
Track 17 not present in database

None of the tracks are present in the AccurateRip database

End of status report

==== Log checksum 4A1621BDADFB9C1C50C30764E1B3CAE7557C5FA576426785EC8F40A5971C4E10 ====

foobar2000 1.2 / Dynamic Range Meter 1.1.1
log date: 2013-04-21 20:18:13

––––––––––––––––––––––––––––––––––––––––
Analyzed: Nino Rota / Greatest Film Hits [Disc 4]
––––––––––––––––––––––––––––––––––––––––

DR Peak RMS Duration Track
––––––––––––––––––––––––––––––––––––––––
DR8 -4.00 dB -16.25 dB 5:44 01-Treno popolare
DR5 -4.00 dB -11.12 dB 1:35 02-La freccia nel fianco
DR11 -4.78 dB -19.83 dB 2:09 03-Roma cittа libera
DR6 -3.00 dB -12.26 dB 1:48 04-Pirates of Capri
DR6 -4.00 dB -14.03 dB 3:42 05-Fuga in Francia
DR8 -4.00 dB -15.66 dB 4:39 06-The glass mountain
DR8 -4.00 dB -17.27 dB 6:02 07-Napoli milionaria
DR9 -3.00 dB -16.67 dB 1:12 08-Obsession: The hidden room
DR6 -4.00 dB -12.89 dB 1:04 09-Filumena Marturano
DR8 -4.00 dB -16.09 dB 1:25 10-Totт e i re di Roma
DR9 -3.00 dB -16.36 dB 1:54 11-Anna
DR10 -3.00 dB -14.34 dB 2:06 12-L'ennemi public n.1
DR8 -3.00 dB -14.73 dB 0:45 13-Le boulanger de Valorgue
DR8 -3.00 dB -13.40 dB 1:19 14-La grande speranza
DR6 -4.00 dB -12.19 dB 1:28 15-Un eroe dei nostri tempi
DR7 -4.00 dB -16.63 dB 6:36 16-War and Peace Pt. I
DR6 -3.00 dB -13.72 dB 5:07 17-War and Peace Pt. II
––––––––––––––––––––––––––––––––––––––––

Number of tracks: 17
Official DR value: DR8

Samplerate: 44100 Hz
Channels: 2
Bits per sample: 16
Bitrate: 671 kbps
Codec: FLAC
================================================================================


Tracklist CD5:

Other Film Music 1957-1979:

01. Le notti bianche (02:50)
02. Fortunella: Buongiorno Fortunella (02:06)
03. La grande guerra (03:02)
04. Rocco e i suoi fratelli (04:50)
05. Rocco e i suoi fratelli: Addio a Nadia (02:21)
06. I due nemici (02:17)
07. Boccaccio '70 (04:56)
08. The reluctant saint (01:45)
09. Il gattopardo (06:00)
10. The taming of the shrew (04:05)
11. Romeo and Juliet: Love theme (02:45)
12. Waterloo: Waterloo battle (02:22)
13. Sunste, sunrise (02:53)
14. Film d'amore e d'anarchia (02:34)
15. Death on the Nile (02:48)
16. Amor di poeta (Opera) (01:19)
17. Hurricane (03:10)


Exact Audio Copy V1.0 beta 3 from 29. August 2011

EAC extraction logfile from 16. March 2013, 17:20

Nino Rota / Greatest Film Hits [Disc 5]

Used drive : SAMSUNG DVD-ROM SD-616E Adapter: 3 ID: 0

Read mode : Secure
Utilize accurate stream : Yes
Defeat audio cache : Yes
Make use of C2 pointers : No

Read offset correction : 12
Overread into Lead-In and Lead-Out : No
Fill up missing offset samples with silence : Yes
Delete leading and trailing silent blocks : No
Null samples used in CRC calculations : Yes
Used interface : Native Win32 interface for Win NT & 2000

Used output format : Internal WAV Routines
Sample format : 44.100 Hz; 16 Bit; Stereo


TOC of the extracted CD

Track | Start | Length | Start sector | End sector
––––––––––––––––––––––––––––-
1 | 0:00.00 | 2:50.19 | 0 | 12768
2 | 2:50.19 | 2:06.38 | 12769 | 22256
3 | 4:56.57 | 3:02.59 | 22257 | 35965
4 | 7:59.41 | 4:50.46 | 35966 | 57761
5 | 12:50.12 | 2:21.38 | 57762 | 68374
6 | 15:11.50 | 2:17.42 | 68375 | 78691
7 | 17:29.17 | 4:56.38 | 78692 | 100929
8 | 22:25.55 | 1:45.04 | 100930 | 108808
9 | 24:10.59 | 6:00.00 | 108809 | 135808
10 | 30:10.59 | 4:05.52 | 135809 | 154235
11 | 34:16.36 | 2:45.37 | 154236 | 166647
12 | 37:01.73 | 2:22.67 | 166648 | 177364
13 | 39:24.65 | 2:53.48 | 177365 | 190387
14 | 42:18.38 | 2:34.27 | 190388 | 201964
15 | 44:52.65 | 2:48.23 | 201965 | 214587
16 | 47:41.13 | 1:19.17 | 214588 | 220529
17 | 49:00.30 | 3:10.29 | 220530 | 234808


Range status and errors

Selected range

Filename C:\Documents and Settings\Borya\Desktop\nirot\CD5\Nino Rota - Greatest Film Hits [Disc 5].wav

Peak level 70.7 %
Extraction speed 4.9 X
Range quality 99.9 %
Copy CRC 1B8B8E49
Copy OK

No errors occurred


AccurateRip summary

Track 1 not present in database
Track 2 not present in database
Track 3 not present in database
Track 4 not present in database
Track 5 not present in database
Track 6 not present in database
Track 7 not present in database
Track 8 not present in database
Track 9 not present in database
Track 10 not present in database
Track 11 not present in database
Track 12 not present in database
Track 13 not present in database
Track 14 not present in database
Track 15 not present in database
Track 16 not present in database
Track 17 not present in database

None of the tracks are present in the AccurateRip database

End of status report

==== Log checksum F4031F16C5049DB4270E4CEB2C862C181AD55CB5B3FCDFABD402B5DC09B6C896 ====

––––––––––––––––––––––––––––––

Exact Audio Copy V1.0 beta 3 from 29. August 2011

EAC extraction logfile from 16. March 2013, 17:40

Nino Rota / Greatest Film Hits [Disc 5]

Used drive : SAMSUNG DVD-ROM SD-616E Adapter: 3 ID: 0

Read mode : Secure
Utilize accurate stream : Yes
Defeat audio cache : Yes
Make use of C2 pointers : No

Read offset correction : 12
Overread into Lead-In and Lead-Out : No
Fill up missing offset samples with silence : Yes
Delete leading and trailing silent blocks : No
Null samples used in CRC calculations : Yes
Used interface : Native Win32 interface for Win NT & 2000

Used output format : User Defined Encoder
Selected bitrate : 768 kBit/s
Quality : High
Add ID3 tag : No
Command line compressor : C:\Program Files\Exact Audio Copy\FLAC\FLAC.EXE
Additional command line options : -6 -V -T "ARTIST=%artist%" -T "TITLE=%title%" -T "ALBUM=%albumtitle%" -T "DATE=%year%" -T "TRACKNUMBER=%tracknr%" -T "GENRE=%genre%" -T "COMMENT=%comment%" -T "BAND=%albuminterpret%" -T "ALBUMARTIST=%albuminterpret%" -T "COMPOSER=%composer%" %haslyrics%–tag-from-file=LYRICS="%lyricsfile%"%haslyrics% -T "DISCNUMBER=%cdnumber%" -T "TOTALDISCS=%totalcds%" -T "TOTALTRACKS=%numtracks%" %hascover%–picture="%coverfile%"%hascover% %source% -o %dest%


TOC of the extracted CD

Track | Start | Length | Start sector | End sector
––––––––––––––––––––––––––––-
1 | 0:00.00 | 2:50.19 | 0 | 12768
2 | 2:50.19 | 2:06.38 | 12769 | 22256
3 | 4:56.57 | 3:02.59 | 22257 | 35965
4 | 7:59.41 | 4:50.46 | 35966 | 57761
5 | 12:50.12 | 2:21.38 | 57762 | 68374
6 | 15:11.50 | 2:17.42 | 68375 | 78691
7 | 17:29.17 | 4:56.38 | 78692 | 100929
8 | 22:25.55 | 1:45.04 | 100930 | 108808
9 | 24:10.59 | 6:00.00 | 108809 | 135808
10 | 30:10.59 | 4:05.52 | 135809 | 154235
11 | 34:16.36 | 2:45.37 | 154236 | 166647
12 | 37:01.73 | 2:22.67 | 166648 | 177364
13 | 39:24.65 | 2:53.48 | 177365 | 190387
14 | 42:18.38 | 2:34.27 | 190388 | 201964
15 | 44:52.65 | 2:48.23 | 201965 | 214587
16 | 47:41.13 | 1:19.17 | 214588 | 220529
17 | 49:00.30 | 3:10.29 | 220530 | 234808


Range status and errors

Selected range

Filename C:\Documents and Settings\Borya\Desktop\nirot\CD5\Nino Rota - Greatest Film Hits [Disc 5].wav

Peak level 70.7 %
Extraction speed 3.1 X
Range quality 99.9 %
Copy CRC 1B8B8E49
Copy OK

No errors occurred


AccurateRip summary

Track 1 not present in database
Track 2 not present in database
Track 3 not present in database
Track 4 not present in database
Track 5 not present in database
Track 6 not present in database
Track 7 not present in database
Track 8 not present in database
Track 9 not present in database
Track 10 not present in database
Track 11 not present in database
Track 12 not present in database
Track 13 not present in database
Track 14 not present in database
Track 15 not present in database
Track 16 not present in database
Track 17 not present in database

None of the tracks are present in the AccurateRip database

End of status report

==== Log checksum 8E21DC3072E4B957DCD86527C936C02A81E4E963CEB099EE08DFF533C9CDE4A6 ====

foobar2000 1.2 / Dynamic Range Meter 1.1.1
log date: 2013-04-21 20:18:27

––––––––––––––––––––––––––––––––––––––––
Analyzed: Nino Rota / Greatest Film Hits [Disc 5]
––––––––––––––––––––––––––––––––––––––––

DR Peak RMS Duration Track
––––––––––––––––––––––––––––––––––––––––
DR9 -4.00 dB -15.99 dB 2:50 01-Le notti bianche
DR9 -4.00 dB -18.23 dB 2:07 02-Fortunella: Buongiorno Fortunella
DR7 -4.00 dB -14.87 dB 3:03 03-La grande guerra
DR10 -4.00 dB -17.91 dB 4:51 04-Rocco e i suoi fratelli
DR8 -3.00 dB -15.32 dB 2:22 05-Rocco e i suoi fratelli: Addio a Nadia
DR8 -3.00 dB -13.26 dB 2:18 06-I due nemici
DR12 -4.00 dB -18.99 dB 4:57 07-Boccaccio '70
DR9 -3.00 dB -15.69 dB 1:45 08-The reluctant saint
DR8 -4.00 dB -15.27 dB 6:00 09-Il gattopardo
DR8 -4.00 dB -16.29 dB 4:06 10-The taming of the shrew
DR7 -4.00 dB -15.03 dB 2:45 11-Romeo and Juliet: Love theme
DR10 -3.00 dB -16.72 dB 2:23 12-Waterloo: Waterloo battle
DR7 -4.00 dB -15.64 dB 2:54 13-Sunste, sunrise
DR9 -4.00 dB -15.44 dB 2:34 14-Film d'amore e d'anarchia
DR5 -4.00 dB -12.85 dB 2:48 15-Death on the Nile
DR13 -13.96 dB -28.85 dB 1:19 16-Amor di poeta (Opera)
DR9 -3.00 dB -15.56 dB 3:10 17-Hurricane
––––––––––––––––––––––––––––––––––––––––

Number of tracks: 17
Official DR value: DR9

Samplerate: 44100 Hz
Channels: 2
Bits per sample: 16
Bitrate: 672 kbps
Codec: FLAC
================================================================================

Nino Rota - Greatest Film Hits (2012) 5CD Box Set [Re-Up]

All thanks to original releaser - Boris1

More interesting music in My Blog