Subcategories

Nitty Gritty Dirt Band - Unbroken! Live (2003)

Posted By: uff
Nitty Gritty Dirt Band - Unbroken! Live (2003)

Nitty Gritty Dirt Band - Unbroken! Live (2003)
Country | 2cd | EAC Rip | Flac + Cue + Log | covers
Delta, 4717374 | rec: 1984 | 770Mb

As a 30+ year super-fan and admirer of the NGDB, a live show from this specific era was a welcomed find. The sound quality is generally good, capturing the on-stage sound authentically, technical flaws and all, keeping the crowd noise to a minimum. The repertoire is a full representation of what the band was playing at the time and a majority of their well-known songs are present. But unfortunately so are a few duds and truly lame attempts (considering what they were known for, live)at humor. Pooh Corners (more on this later, you'll love it!), Bojangles, Face On The Cutting Room Floor, Rave On, Shelly's Blues, Rocky Top and many others are all first rate and faithful. A parody sub-titled Help Me Make It Through The Yard, a few throw-away stanzas of Surfin' USA and the closing song, a truly sloppy and frankly insulting sped-up version of Will The Circle demean the entire program. And no one cares about having the audience sing-a-long or fill in the chorus on big hits. They sing, you pay to hear them sing - its that simple. Sit down and shut up. There is a section of a medley that opens with Del Shannon's Runaway that could have really gone somewhere. Jeff Hanna's voice was (might still be) perfect to pull it off but it segues into the next song way too early. And believe it or not, a version of The Weight (usually best left only to people named Levon Helm and Rick Danko)actually hints at what a studio version, with proper vocal and instrument balance and professional mixing could have been. A very pleasant surprise. The worst for last: the CD booklet is a travesty and the proof reader should be beaten with a pillowcase full of door-knobs. Many of the songwriting credits, including those for very well-known songs are so far wrong, I have no idea where they got them from. One of their biggest hits is listed on the booklet and inlay as 'Poo' Corners. Make sure to wear boots when crossing there. Winnie (and Kenny Loggins) should sue. If the poo doesn't fit, you must acquit! For the price, this import is definitely worth the price to long-time fans, flaws and all. For those new to the NGDB, Uncle Charlie, Stars and Stripes Forever and the first Circle title will get you started. What are you waiting for? ~Amazon

Track listing
cd1:
01. Cosmic Cowboy (3:55)
02. The Moon Just Turned Blue (2:30)
03. Dance Little Jean (3:35)
04. Let's Make Some Magic (3:13)
05. Shot Full of Love (3:26)
06. American Dream (3:51)
07. Ripplin' Waters (9:17)
08. Teardrops in My eyes (2:26)
09. Rocky Top (2:19)
10. Mr. Bojangles (4:11)
11. Medley (14:31)

cd2:
01. Heartaches And Heartaches (3:13)
02. Joshua (3:13)
03. Help Me Make It Through The Yard (1:57)
04. Way Downtown (4:25)
05. Bowlegs (3:35)
06. Randy Lynn Rag (2:29)
07. Face On The Factory Floor (3:08)
08. Long Hard Road (Sharecropper's Dream) (3:25)
09. Medley (Shelly's Blues, All I Have To Do Is Dream) (3:06)
10. House At Pooh Corner (2:34)
11. Diggy Liggy Lo (3:43)
12. Jamaica Lady (1:39)
13. High Horse (3:00)
14. Medley (Surfin' USA, Don't You Get Sand In It) (3:48)
15. Medley (Bayou Jubilee, Battle Of New Orleans) (7:05)


Exact Audio Copy V0.99 prebeta 4 from 23. January 2008

EAC extraction logfile from 5. November 2008, 23:34

Nitty Gritty Dirt Band / Unbroken! Live Cd1

Used drive : PLEXTOR CD-R PREMIUM2 Adapter: 1 ID: 1

Read mode : Secure
Utilize accurate stream : Yes
Defeat audio cache : Yes
Make use of C2 pointers : No

Read offset correction : 30
Overread into Lead-In and Lead-Out : No
Fill up missing offset samples with silence : Yes
Delete leading and trailing silent blocks : No
Null samples used in CRC calculations : Yes
Used interface : Installed external ASPI interface
Gap handling : Appended to previous track

Used output format : User Defined Encoder
Selected bitrate : 32 kBit/s
Quality : High
Add ID3 tag : No
Command line compressor : C:\Programmi\FLAC\flac.exe
Additional command line options : -8 -V -T "ARTIST=%a" -T "TITLE=%t" -T "ALBUM=%g" -T "DATE=%y" -T "TRACKNUMBER=%n" -T "GENRE=%m" -T "COMMENT=EAC FLAC -8" %s


TOC of the extracted CD

Track | Start | Length | Start sector | End sector
––––––––––––––––––––––––––––-
1 | 0:00.00 | 3:55.02 | 0 | 17626
2 | 3:55.02 | 2:30.70 | 17627 | 28946
3 | 6:25.72 | 3:35.25 | 28947 | 45096
4 | 10:01.22 | 3:13.45 | 45097 | 59616
5 | 13:14.67 | 3:26.66 | 59617 | 75132
6 | 16:41.58 | 3:51.48 | 75133 | 92505
7 | 20:33.31 | 9:17.30 | 92506 | 134310
8 | 29:50.61 | 2:26.50 | 134311 | 145310
9 | 32:17.36 | 2:19.18 | 145311 | 155753
10 | 34:36.54 | 4:11.05 | 155754 | 174583
11 | 38:47.59 | 14:31.06 | 174584 | 239914


Track 1

Filename C:\My Rip\01 - Cosmic Cowboy.wav

Pre-gap length 0:00:02.00

Peak level 100.0 %
Track quality 100.0 %
Test CRC 9354920E
Copy CRC 9354920E
Track not present in AccurateRip database
Copy OK

Track 2

Filename C:\My Rip\02 - The Moon Just Turned Blue.wav

Peak level 100.0 %
Track quality 100.0 %
Test CRC E178FAE9
Copy CRC E178FAE9
Track not present in AccurateRip database
Copy OK

Track 3

Filename C:\My Rip\03 - Dance Little Jean.wav

Peak level 100.0 %
Track quality 100.0 %
Test CRC 980B218C
Copy CRC 980B218C
Track not present in AccurateRip database
Copy OK

Track 4

Filename C:\My Rip\04 - Let's Make Some Magic.wav

Peak level 100.0 %
Track quality 99.9 %
Test CRC 37A50AD3
Copy CRC 37A50AD3
Track not present in AccurateRip database
Copy OK

Track 5

Filename C:\My Rip\05 - Shot Full of Love.wav

Peak level 100.0 %
Track quality 99.9 %
Test CRC CFCC6CA0
Copy CRC CFCC6CA0
Track not present in AccurateRip database
Copy OK

Track 6

Filename C:\My Rip\06 - American Dream.wav

Peak level 100.0 %
Track quality 100.0 %
Test CRC 6F4D2CB8
Copy CRC 6F4D2CB8
Track not present in AccurateRip database
Copy OK

Track 7

Filename C:\My Rip\07 - Ripplin' Waters.wav

Peak level 100.0 %
Track quality 100.0 %
Test CRC B78C4CEA
Copy CRC B78C4CEA
Track not present in AccurateRip database
Copy OK

Track 8

Filename C:\My Rip\08 - Teardrops in My eyes.wav

Peak level 100.0 %
Track quality 100.0 %
Test CRC 3545C5E8
Copy CRC 3545C5E8
Track not present in AccurateRip database
Copy OK

Track 9

Filename C:\My Rip\09 - Rocky Top.wav

Peak level 100.0 %
Track quality 100.0 %
Test CRC BF02F71C
Copy CRC BF02F71C
Track not present in AccurateRip database
Copy OK

Track 10

Filename C:\My Rip\10 - Mr. Bojangles.wav

Peak level 100.0 %
Track quality 100.0 %
Test CRC C9D9C218
Copy CRC C9D9C218
Track not present in AccurateRip database
Copy OK

Track 11

Filename C:\My Rip\11 - Medley.wav

Peak level 100.0 %
Track quality 100.0 %
Test CRC E3D3A699
Copy CRC E3D3A699
Track not present in AccurateRip database
Copy OK


None of the tracks are present in the AccurateRip database

No errors occurred

End of status report

–––––––––––––––––––––––––––

Exact Audio Copy V0.99 prebeta 4 from 23. January 2008

EAC extraction logfile from 5. November 2008, 23:59

Nitty Gritty Dirt Band / Unbroken! Live Cd2

Used drive : PLEXTOR CD-R PREMIUM2 Adapter: 1 ID: 1

Read mode : Secure
Utilize accurate stream : Yes
Defeat audio cache : Yes
Make use of C2 pointers : No

Read offset correction : 30
Overread into Lead-In and Lead-Out : No
Fill up missing offset samples with silence : Yes
Delete leading and trailing silent blocks : No
Null samples used in CRC calculations : Yes
Used interface : Installed external ASPI interface
Gap handling : Appended to previous track

Used output format : User Defined Encoder
Selected bitrate : 32 kBit/s
Quality : High
Add ID3 tag : No
Command line compressor : C:\Programmi\FLAC\flac.exe
Additional command line options : -8 -V -T "ARTIST=%a" -T "TITLE=%t" -T "ALBUM=%g" -T "DATE=%y" -T "TRACKNUMBER=%n" -T "GENRE=%m" -T "COMMENT=EAC FLAC -8" %s


TOC of the extracted CD

Track | Start | Length | Start sector | End sector
––––––––––––––––––––––––––––-
1 | 0:00.00 | 3:13.45 | 0 | 14519
2 | 3:13.45 | 3:13.58 | 14520 | 29052
3 | 6:27.28 | 1:57.17 | 29053 | 37844
4 | 8:24.45 | 4:25.40 | 37845 | 57759
5 | 12:50.10 | 3:35.37 | 57760 | 73921
6 | 16:25.47 | 2:29.14 | 73922 | 85110
7 | 18:54.61 | 3:08.27 | 85111 | 99237
8 | 22:03.13 | 3:25.57 | 99238 | 114669
9 | 25:28.70 | 3:06.62 | 114670 | 128681
10 | 28:35.57 | 2:34.26 | 128682 | 140257
11 | 31:10.08 | 3:43.09 | 140258 | 156991
12 | 34:53.17 | 1:39.10 | 156992 | 164426
13 | 36:32.27 | 3:00.15 | 164427 | 177941
14 | 39:32.42 | 3:48.27 | 177942 | 195068
15 | 43:20.69 | 7:05.71 | 195069 | 227014


Track 1

Filename C:\My Rip\01 - Heartaches And Heartaches.wav

Pre-gap length 0:00:02.00

Peak level 100.0 %
Track quality 99.9 %
Test CRC 8C7A93BF
Copy CRC 8C7A93BF
Track not present in AccurateRip database
Copy OK

Track 2

Filename C:\My Rip\02 - Joshua.wav

Peak level 100.0 %
Track quality 100.0 %
Test CRC 043539C9
Copy CRC 043539C9
Track not present in AccurateRip database
Copy OK

Track 3

Filename C:\My Rip\03 - Help Me Make It Through The Yard.wav

Peak level 100.0 %
Track quality 99.9 %
Test CRC 954E28D9
Copy CRC 954E28D9
Track not present in AccurateRip database
Copy OK

Track 4

Filename C:\My Rip\04 - Way Downtown.wav

Peak level 99.8 %
Track quality 100.0 %
Test CRC 0540FDA6
Copy CRC 0540FDA6
Track not present in AccurateRip database
Copy OK

Track 5

Filename C:\My Rip\05 - Bowlegs.wav

Peak level 99.6 %
Track quality 99.9 %
Test CRC 938EAA87
Copy CRC 938EAA87
Track not present in AccurateRip database
Copy OK

Track 6

Filename C:\My Rip\06 - Randy Lynn Rag.wav

Peak level 100.0 %
Track quality 100.0 %
Test CRC E29E04D7
Copy CRC E29E04D7
Track not present in AccurateRip database
Copy OK

Track 7

Filename C:\My Rip\07 - Face On The Factory Floor.wav

Peak level 99.7 %
Track quality 100.0 %
Test CRC D9A1F314
Copy CRC D9A1F314
Track not present in AccurateRip database
Copy OK

Track 8

Filename C:\My Rip\08 - Long Hard Road (Sharecropper's Dream).wav

Peak level 99.6 %
Track quality 100.0 %
Test CRC 38A2914D
Copy CRC 38A2914D
Track not present in AccurateRip database
Copy OK

Track 9

Filename C:\My Rip\09 - Medley (Shelly's Blues, All I Have To Do Is Dream).wav

Peak level 99.7 %
Track quality 100.0 %
Test CRC AF0D9F80
Copy CRC AF0D9F80
Track not present in AccurateRip database
Copy OK

Track 10

Filename C:\My Rip\10 - House At Pooh Corner.wav

Peak level 99.9 %
Track quality 100.0 %
Test CRC A317DC7B
Copy CRC A317DC7B
Track not present in AccurateRip database
Copy OK

Track 11

Filename C:\My Rip\11 - Diggy Liggy Lo.wav

Peak level 99.6 %
Track quality 100.0 %
Test CRC C06C00B2
Copy CRC C06C00B2
Track not present in AccurateRip database
Copy OK

Track 12

Filename C:\My Rip\12 - Jamaica Lady.wav

Peak level 100.0 %
Track quality 100.0 %
Test CRC A0C33115
Copy CRC A0C33115
Track not present in AccurateRip database
Copy OK

Track 13

Filename C:\My Rip\13 - High Horse.wav

Peak level 99.7 %
Track quality 100.0 %
Test CRC DE1AE0AB
Copy CRC DE1AE0AB
Track not present in AccurateRip database
Copy OK

Track 14

Filename C:\My Rip\14 - Medley (Surfin' USA, Don't You Get Sand In It).wav

Peak level 99.7 %
Track quality 100.0 %
Test CRC 18B9C2DA
Copy CRC 18B9C2DA
Track not present in AccurateRip database
Copy OK

Track 15

Filename C:\My Rip\15 - Medley (Bayou Jubilee, Battle Of New Orleans).wav

Peak level 100.0 %
Track quality 100.0 %
Test CRC CA214032
Copy CRC CA214032
Track not present in AccurateRip database
Copy OK


None of the tracks are present in the AccurateRip database

No errors occurred

End of status report



[CUETools log; Date: 2017. 09. 10. 17:29:04; Version: 2.1.6]
[CTDB TOCID: hV0vgwYPLfy5w04Rhi7QPMNF5Wo-] disk not present in database.
[AccurateRip ID: 0011d5a2-009f45fc-980c7e0b] found.
Track [ CRC | V2 ] Status
01 [1d31e777|3d9af2db] (3+2/5) Accurately ripped
02 [0edebe16|b9f2dbfe] (3+2/5) Accurately ripped
03 [1389fdaa|af77ef54] (3+2/5) Accurately ripped
04 [15e755a6|17e9cc7e] (3+2/5) Accurately ripped
05 [183f19cc|2acb486c] (3+2/5) Accurately ripped
06 [bf3f8dba|b00fd258] (3+2/5) Accurately ripped
07 [58b03adb|05148ca2] (3+2/5) Accurately ripped
08 [00d20bbc|5fd62bb4] (3+2/5) Accurately ripped
09 [28a53b37|29c107b6] (3+2/5) Accurately ripped
10 [d80fd504|ab2876cf] (3+2/5) Accurately ripped
11 [643bbb54|84e63af7] (3+2/5) Accurately ripped

Track Peak [ CRC32 ] [W/O NULL] [ LOG ]
– 100,0 [BC4668F3] [81053EAD]
01 100,0 [9354920E] [B4D455E1] CRC32
02 100,0 [E178FAE9] [DCB2393D] CRC32
03 100,0 [980B218C] [D5A73B54] CRC32
04 100,0 [37A50AD3] [5B5BFE7D] CRC32
05 100,0 [CFCC6CA0] [7C8DA6BD] CRC32
06 100,0 [6F4D2CB8] [5DFBEB7D] CRC32
07 100,0 [B78C4CEA] [3AB1AC89] CRC32
08 100,0 [3545C5E8] [B8FE1F2A] CRC32
09 100,0 [BF02F71C] [6BE58943] CRC32
10 100,0 [C9D9C218] [AFF08A10] CRC32
11 100,0 [E3D3A699] [1EAB9839] CRC32
–-
[CUETools log; Date: 2017. 09. 10. 17:30:00; Version: 2.1.6]
[CTDB TOCID: QQFEtpAsSUpsAETEnFAp4WypDRM-] disk not present in database.
[AccurateRip ID: 0019fa68-0126d557-d30bd20f] found.
Track [ CRC | V2 ] Status
01 [b37b06e1|91b78f30] (3+2/5) Accurately ripped
02 [46557fa9|a1aca18d] (3+2/5) Accurately ripped
03 [99b44c36|cca7e2ad] (3+2/5) Accurately ripped
04 [d28c8525|6de6c109] (3+2/5) Accurately ripped
05 [82888cf7|36bf1ba0] (3+2/5) Accurately ripped
06 [b3a2ab58|28bb4d16] (3+2/5) Accurately ripped
07 [e19d7fde|0b7b437a] (3+2/5) Accurately ripped
08 [b8ec69a3|8992601c] (3+2/5) Accurately ripped
09 [1a1e5caf|3d97195a] (3+2/5) Accurately ripped
10 [ebf380ef|6a126816] (3+2/5) Accurately ripped
11 [bcb801f1|49b61575] (3+2/5) Accurately ripped
12 [cc8da07e|98feea89] (3+2/5) Accurately ripped
13 [5c46ef9c|fb11efa3] (3+2/5) Accurately ripped
14 [ccecc8a5|55c273cf] (3+2/5) Accurately ripped
15 [23060bff|7641261b] (3+2/5) Accurately ripped

Track Peak [ CRC32 ] [W/O NULL] [ LOG ]
– 100,0 [DBDD4054] [CC2FFC9F]
01 100,0 [8C7A93BF] [728EC29A] CRC32
02 100,0 [043539C9] [8CC8B457] CRC32
03 100,0 [954E28D9] [25F1CDB2] CRC32
04 99,8 [0540FDA6] [2EB480F7] CRC32
05 99,6 [938EAA87] [CB0A2BA2] CRC32
06 100,0 [E29E04D7] [06F2F22A] CRC32
07 99,7 [D9A1F314] [45F268F6] CRC32
08 99,6 [38A2914D] [D2785A93] CRC32
09 99,7 [AF0D9F80] [7E977182] CRC32
10 99,9 [A317DC7B] [3B7067A7] CRC32
11 99,6 [C06C00B2] [8ADC940D] CRC32
12 100,0 [A0C33115] [02C9A700] CRC32
13 99,7 [DE1AE0AB] [24D2CFE5] CRC32
14 99,7 [18B9C2DA] [05F07F58] CRC32
15 100,0 [CA214032] [7257C567] CRC32


Original uploader unknown