Subcategories

Nona Hendryx - The Heat (1985) [2011, Remastered & Expanded Edition]

Posted By: BlondStyle
Nona Hendryx - The Heat (1985) [2011, Remastered & Expanded Edition]

Nona Hendryx - The Heat (1985) [2011, Remastered & Expanded Edition]
R&B, Soul/Funk, Pop/Rock | EAC Rip | FLAC, Img+CUE + LOG + Full Scans-600dpi (JPEG) | 67:11 Min | 534,27 Mb
Label: Funkytowngrooves / RCA Records (USA) | Released: 2011, July

After 's breakup in early 1977, , , and took very different paths as solo artists. became a middle of the road urban/adult contemporary superstar, recorded the occasional R&B album with little commercial success, and favored rock-minded albums that came the closest to 's free-spirited wildness. 's solo career started out on a hard rock note with her self-titled debut album of 1977, but she took a more new wave-influenced turn in the '80s, and 1985's brings together rock and synth funk with memorable results. is quite a contrast to the solo albums that was offering in the mid-'80s; and both had crossover appeal, but while was going after a combination of urban and adult contemporary fans, was going after a combination of pop/rock, new wave/ and urban fans. , for all its funkiness, proved to be too rock-minded for R&B stations; regardless, has a lot of fun on infectious offerings such as and wrote or co-wrote everything on this album, including which should not be confused with the song that both and dance-pop singer recorded in the mid-'80s. The producers on include , , and the late , who co-led with in the late '70s and early '80s. , like , broadened his horizons considerably as a producer in the '80s; many of the albums worked on after 's breakup didn't sound anything like , and that is certainly true of (which is a long way from 's influential disco-funk). Originally released on LP by RCA, was reissued as a 67-minute CD by Funky Town Grooves in 2011. And the Brooklyn-based label added three bonus tracks, including an extended version of and a club mix of is an exciting document of Hendryx in the mid-'80s.

Nona Hendryx - The Heat (1985) [2011, Remastered & Expanded Edition]


Nona Hendryx - The Heat (1985) [2011, Remastered & Expanded Edition]


Release of the album: 1985 [LP RCA, Cat.# [url="http://www.discogs.com/Nona-Hendryx-The-Heat/release/3446116"]AFL1-5465, USA]
Release of this CD: 2011, July [CD Funkytowngrooves (USA), Cat.# [url="http://www.discogs.com/Nona-Hendryx-The-Heat-Expanded-Edition/release/3087640"]FTG-255 / EAN: 0886979321328]
℗ 2011 Sony Music Entertainment, This compilation © 2011 Funkytowngrooves USA
Distributed by Funkytowngrooves USA.
Manufactured by Sony Music Entertainment

Note: Remastered from the Original Master Tapes with 3 Bonus Tracks

Producers:
Arthur Baker (tracks: 1, 4, 5, 7 to 10),
Bernard Edwards (tracks: 1 to 3, 6, 8, 11),
Jason Corsaro (tracks: 1 to 3, 5, 8 to 10)
Photography By [Cover] – Brian Hagawara

Backing Vocals – B.J. Nelson (tracks: 2, 4, 5, 9, 10), Curtis King (tracks: 1 to 3, 8), Fonzi Thornton (tracks: 1, 2, 8), Tina B (tracks: 2, 4, 5, 9, 10)


Tracklist:

01. Revolutionary Dance (06:27)
(Nona Hendryx)
02. A Girl Like That (05:11)
(Ellie Greenwich, Jeff Kent, Nona Hendryx)
03. The Heat (Part I) (04:47)
(Nona Hendryx)
04. I Need Love (07:31)
(Jean Beauvoir, Nona Hendryx)
05. If Looks Could Kill (D.O.A.) (04:25)
(Nona Hendryx)
06. Rock This House (04:09)
(Nona Hendryx)
07. The Heat (Part II) (04:40)
(Arthur Baker, Nona Hendryx)
08. Time (07:02)
(Nona Hendryx, Raymond Jones, Ronnie Drayton)

Bonus Tracks:

09. I Need Love (Extended Version) (07:58)
(Jean Beauvoir, Nona Hendryx)
10. If Looks Could Kill (D.O.A.) (Killer Club Mix) (08:04)
(Nona Hendryx)
11. Moving Violations (12" Version) (06:57)
(Bruce Roberts)

Exact Audio Copy V1.0 beta 3 from 29. August 2011

EAC extraction logfile from 28. February 2012, 19:27

Nona Hendryx / The Heat (Expanded Edition)

Used drive : ATAPI DVD DW 8X16X8X16 Adapter: 0 ID: 2

Read mode : Secure
Utilize accurate stream : Yes
Defeat audio cache : Yes
Make use of C2 pointers : No

Read offset correction : 618
Overread into Lead-In and Lead-Out : No
Fill up missing offset samples with silence : Yes
Delete leading and trailing silent blocks : No
Null samples used in CRC calculations : Yes
Used interface : Native Win32 interface for Win NT & 2000

Used output format : Internal WAV Routines
Sample format : 44.100 Hz; 16 Bit; Stereo


TOC of the extracted CD

Track | Start | Length | Start sector | End sector
––––––––––––––––––––––––––––-
1 | 0:00.00 | 6:27.74 | 0 | 29098
2 | 6:27.74 | 5:11.61 | 29099 | 52484
3 | 11:39.60 | 4:47.48 | 52485 | 74057
4 | 16:27.33 | 7:31.47 | 74058 | 107929
5 | 23:59.05 | 4:25.26 | 107930 | 127830
6 | 28:24.31 | 4:09.29 | 127831 | 146534
7 | 32:33.60 | 4:40.50 | 146535 | 167584
8 | 37:14.35 | 7:02.46 | 167585 | 199280
9 | 44:17.06 | 7:58.14 | 199281 | 235144
10 | 52:15.20 | 8:04.27 | 235145 | 271471
11 | 60:19.47 | 6:57.13 | 271472 | 302759


Range status and errors

Selected range

Filename C:\BlondStyle\The Heat (Expanded Edition).wav

Peak level 100.0 %
Extraction speed 9.3 X
Range quality 99.9 %
Test CRC 565680A2
Copy CRC 565680A2
Copy OK

No errors occurred


AccurateRip summary

Track 1 not present in database
Track 2 not present in database
Track 3 not present in database
Track 4 not present in database
Track 5 not present in database
Track 6 not present in database
Track 7 not present in database
Track 8 not present in database
Track 9 not present in database
Track 10 not present in database
Track 11 not present in database

None of the tracks are present in the AccurateRip database

End of status report

==== Log checksum 72106718A68C18AE1832776F7943BB5CD6B950ECF97372DC9107C3D1107708B3 ====

–––––––––––––––––––––––-
Statistics for: The Heat (Expanded Edition).wav
Number of Samples: 178022880
–––––––––––––––––––––––-

left right

Peak value: over –- over
Avg RMS: -13.50 dB –- -13.39 dB
DR channel: 11.86 dB –- 11.44 dB
–––––––––––––––––––––––-

Official DR value: DR12
===============================================


password: BlondStyle

Uploadable