Subcategories

Now That's What I Call Reggae (2012)

Posted By: JET 1
Now That's What I Call Reggae (2012)

Now That's What I Call Reggae (2012)
EAC Rip | FLAC (Tracks) +CUE, LOG | 1.5GB | Covers Included
Reggae | Label: EMI / Universal | Catalog Number: 5339244

With over 10 number 1s and packed full of chart anthems from Bob Marley to Shaggy, UB40 to Chaka Demus, this 3 disc set is the ultimate reggae collection and the perfect summer party, BBQ and lazy day accompaniment.

Exact Audio Copy V1.0 beta 3 from 29. August 2011

EAC extraction logfile from 11. May 2015, 18:11

Various / Now Reggae

Used drive : GENERIC CDRCB05 Adapter: 4 ID: 0

Read mode : Secure
Utilize accurate stream : Yes
Defeat audio cache : Yes
Make use of C2 pointers : No

Read offset correction : 102
Overread into Lead-In and Lead-Out : No
Fill up missing offset samples with silence : Yes
Delete leading and trailing silent blocks : No
Null samples used in CRC calculations : Yes
Used interface : Native Win32 interface for Win NT & 2000
Gap handling : Not detected, thus appended to previous track

Used output format : User Defined Encoder
Selected bitrate : 1024 kBit/s
Quality : High
Add ID3 tag : No
Command line compressor : C:\Program Files\FLAC\flac.exe
Additional command line options : -8 -V -T "ARTIST=%artist%" -T "TITLE=%title%" -T "ALBUM=%albumtitle%" -T "DATE=%year%" -T "TRACKNUMBER=%tracknr%" -T "GENRE=%genre%" -T "PERFORMER=%albuminterpret%" -T "COMPOSER=%composer%" %haslyrics%–tag-from-file=LYRICS="%lyricsfile%"%haslyrics% -T "ALBUMARTIST=%albumartist%" -T "DISCNUMBER=%cdnumber%" -T "TOTALDISCS=%totalcds%" -T "TOTALTRACKS=%numtracks%" -T "COMMENT=%comment%" %source% -o %dest%


TOC of the extracted CD

Track | Start | Length | Start sector | End sector
––––––––––––––––––––––––––––-
1 | 0:00.00 | 3:49.54 | 0 | 17228
2 | 3:49.54 | 2:58.53 | 17229 | 30631
3 | 6:48.32 | 3:20.04 | 30632 | 45635
4 | 10:08.36 | 3:57.16 | 45636 | 63426
5 | 14:05.52 | 2:55.04 | 63427 | 76555
6 | 17:00.56 | 3:51.72 | 76556 | 93952
7 | 20:52.53 | 2:08.57 | 93953 | 103609
8 | 23:01.35 | 3:50.32 | 103610 | 120891
9 | 26:51.67 | 3:45.58 | 120892 | 137824
10 | 30:37.50 | 3:43.18 | 137825 | 154567
11 | 34:20.68 | 3:37.00 | 154568 | 170842
12 | 37:57.68 | 3:46.18 | 170843 | 187810
13 | 41:44.11 | 3:31.23 | 187811 | 203658
14 | 45:15.34 | 2:45.27 | 203659 | 216060
15 | 48:00.61 | 4:03.35 | 216061 | 234320
16 | 52:04.21 | 5:02.05 | 234321 | 256975
17 | 57:06.26 | 2:44.38 | 256976 | 269313
18 | 59:50.64 | 3:23.43 | 269314 | 284581
19 | 63:14.32 | 2:37.07 | 284582 | 296363
20 | 65:51.39 | 3:36.03 | 296364 | 312566


Track 1

Filename H:\0\………………00\post\Now That's What I Call Reggae (2012)\cd1\01 - Shaggy feat Ricardo Rikrok Ducent - It Wasn't Me.wav

Peak level 81.4 %
Extraction speed 1.3 X
Track quality 99.9 %
Test CRC 90F6100F
Copy CRC 90F6100F
Accurately ripped (confidence 9) [776C1E1E] (AR v2)
Copy OK

Track 2

Filename H:\0\………………00\post\Now That's What I Call Reggae (2012)\cd1\02 - UB40 - Red Red Wine.wav

Peak level 84.1 %
Extraction speed 1.5 X
Track quality 100.0 %
Test CRC 9605A1E6
Copy CRC 9605A1E6
Accurately ripped (confidence 10) [E60E209C] (AR v2)
Copy OK

Track 3

Filename H:\0\………………00\post\Now That's What I Call Reggae (2012)\cd1\03 - Aswad - Don't Turn Around.wav

Peak level 100.0 %
Extraction speed 1.6 X
Track quality 100.0 %
Test CRC E38FA0D0
Copy CRC E38FA0D0
Accurately ripped (confidence 10) [4D422347] (AR v2)
Copy OK

Track 4

Filename H:\0\………………00\post\Now That's What I Call Reggae (2012)\cd1\04 - Chaka Demus & Pliers feat Jack Radics & The Taxi Gang - Twist & Shout.wav

Peak level 100.0 %
Extraction speed 1.8 X
Track quality 100.0 %
Test CRC 23529756
Copy CRC 23529756
Accurately ripped (confidence 10) [F671D23D] (AR v2)
Copy OK

Track 5

Filename H:\0\………………00\post\Now That's What I Call Reggae (2012)\cd1\05 - Kevin Lyttle - Turn Me On.wav

Peak level 98.1 %
Extraction speed 1.8 X
Track quality 100.0 %
Test CRC 6F320665
Copy CRC 6F320665
Accurately ripped (confidence 10) [E8C0412E] (AR v2)
Copy OK

Track 6

Filename H:\0\………………00\post\Now That's What I Call Reggae (2012)\cd1\06 - Althea & Donna - Uptown Top Ranking.wav

Peak level 74.1 %
Extraction speed 1.9 X
Track quality 100.0 %
Test CRC 613E2E71
Copy CRC 613E2E71
Accurately ripped (confidence 10) [2E8B4D88] (AR v2)
Copy OK

Track 7

Filename H:\0\………………00\post\Now That's What I Call Reggae (2012)\cd1\07 - Bob Marley & The Wailers - Sun Is Shining.wav

Peak level 86.5 %
Extraction speed 1.8 X
Track quality 100.0 %
Test CRC 305800A5
Copy CRC 305800A5
Accurately ripped (confidence 10) [75C74BB5] (AR v2)
Copy OK

Track 8

Filename H:\0\………………00\post\Now That's What I Call Reggae (2012)\cd1\08 - Pato Banton & The Reggae Revolution with Ali & Robin Campbell - Baby Got Back.wav

Peak level 88.3 %
Extraction speed 1.8 X
Track quality 99.9 %
Test CRC B32B496A
Copy CRC B32B496A
Accurately ripped (confidence 10) [C4CAE777] (AR v2)
Copy OK

Track 9

Filename H:\0\………………00\post\Now That's What I Call Reggae (2012)\cd1\09 - Inner Circle - Sweat (A La La La La Song).wav

Peak level 100.0 %
Extraction speed 1.9 X
Track quality 99.9 %
Test CRC A443D6A3
Copy CRC A443D6A3
Accurately ripped (confidence 10) [6E56FD7D] (AR v2)
Copy OK

Track 10

Filename H:\0\………………00\post\Now That's What I Call Reggae (2012)\cd1\10 - Eddy Grant - Gimme Hope Jo'Anna.wav

Peak level 100.0 %
Extraction speed 2.2 X
Track quality 100.0 %
Test CRC EF61B6B5
Copy CRC EF61B6B5
Accurately ripped (confidence 10) [BA46A527] (AR v2)
Copy OK

Track 11

Filename H:\0\………………00\post\Now That's What I Call Reggae (2012)\cd1\11 - Peter Andre - Mysterious Girl.wav

Peak level 81.2 %
Extraction speed 2.3 X
Track quality 100.0 %
Test CRC 0EAE16AA
Copy CRC 0EAE16AA
Accurately ripped (confidence 10) [44578768] (AR v2)
Copy OK

Track 12

Filename H:\0\………………00\post\Now That's What I Call Reggae (2012)\cd1\12 - Ken Boothe - Everything I Own.wav

Peak level 100.0 %
Extraction speed 2.4 X
Track quality 100.0 %
Test CRC B92AFFD3
Copy CRC B92AFFD3
Accurately ripped (confidence 10) [314353C8] (AR v2)
Copy OK

Track 13

Filename H:\0\………………00\post\Now That's What I Call Reggae (2012)\cd1\13 - Maxi Priest - Wild World.wav

Peak level 98.9 %
Extraction speed 2.5 X
Track quality 100.0 %
Test CRC 43016DF8
Copy CRC 43016DF8
Accurately ripped (confidence 10) [A6C39EE3] (AR v2)
Copy OK

Track 14

Filename H:\0\………………00\post\Now That's What I Call Reggae (2012)\cd1\14 - Gyptian - Hold You.wav

Peak level 72.4 %
Extraction speed 2.0 X
Track quality 99.9 %
Test CRC F27E394D
Copy CRC F27E394D
Accurately ripped (confidence 9) [043608AE] (AR v2)
Copy OK

Track 15

Filename H:\0\………………00\post\Now That's What I Call Reggae (2012)\cd1\15 - Black Slate - Amigo.wav

Peak level 100.0 %
Extraction speed 2.6 X
Track quality 100.0 %
Test CRC F3ECD354
Copy CRC F3ECD354
Accurately ripped (confidence 10) [40D2320D] (AR v2)
Copy OK

Track 16

Filename H:\0\………………00\post\Now That's What I Call Reggae (2012)\cd1\16 - The Police - Walking On The Moon.wav

Peak level 100.0 %
Extraction speed 2.8 X
Track quality 100.0 %
Test CRC 58BBBA73
Copy CRC 58BBBA73
Accurately ripped (confidence 10) [3F49DC00] (AR v2)
Copy OK

Track 17

Filename H:\0\………………00\post\Now That's What I Call Reggae (2012)\cd1\17 - Dave and Ansel Collins - Double Barrel.wav

Peak level 72.4 %
Extraction speed 2.6 X
Track quality 100.0 %
Test CRC CF25CA68
Copy CRC CF25CA68
Accurately ripped (confidence 10) [5CF84050] (AR v2)
Copy OK

Track 18

Filename H:\0\………………00\post\Now That's What I Call Reggae (2012)\cd1\18 - Musical Youth - Pass The Dutchie.wav

Peak level 100.0 %
Extraction speed 2.7 X
Track quality 100.0 %
Test CRC C7CEC925
Copy CRC C7CEC925
Accurately ripped (confidence 10) [130B1512] (AR v2)
Copy OK

Track 19

Filename H:\0\………………00\post\Now That's What I Call Reggae (2012)\cd1\19 - Desmond Dekker - You Can Get It If You Really Want.wav

Peak level 99.8 %
Extraction speed 2.7 X
Track quality 100.0 %
Test CRC 763DEEFD
Copy CRC 763DEEFD
Accurately ripped (confidence 10) [F7587CD2] (AR v2)
Copy OK

Track 20

Filename H:\0\………………00\post\Now That's What I Call Reggae (2012)\cd1\20 - Steel Pulse - Ku Klux Klan.wav

Peak level 83.3 %
Extraction speed 2.9 X
Track quality 100.0 %
Test CRC E784B8B8
Copy CRC E784B8B8
Accurately ripped (confidence 10) [760B50EE] (AR v2)
Copy OK


All tracks accurately ripped

No errors occurred

End of status report

==== Log checksum 3965F9BACA2DCFD9A416618BFDB844211D28C4F9902C20B977D453695DA9B7A4 ====


Exact Audio Copy V1.0 beta 3 from 29. August 2011

EAC extraction logfile from 11. May 2015, 22:05

Various / Now Reggae

Used drive : GENERIC CDRCB05 Adapter: 4 ID: 0

Read mode : Secure
Utilize accurate stream : Yes
Defeat audio cache : Yes
Make use of C2 pointers : No

Read offset correction : 102
Overread into Lead-In and Lead-Out : No
Fill up missing offset samples with silence : Yes
Delete leading and trailing silent blocks : No
Null samples used in CRC calculations : Yes
Used interface : Native Win32 interface for Win NT & 2000
Gap handling : Appended to previous track

Used output format : User Defined Encoder
Selected bitrate : 1024 kBit/s
Quality : High
Add ID3 tag : No
Command line compressor : C:\Program Files\FLAC\flac.exe
Additional command line options : -8 -V -T "ARTIST=%artist%" -T "TITLE=%title%" -T "ALBUM=%albumtitle%" -T "DATE=%year%" -T "TRACKNUMBER=%tracknr%" -T "GENRE=%genre%" -T "PERFORMER=%albuminterpret%" -T "COMPOSER=%composer%" %haslyrics%–tag-from-file=LYRICS="%lyricsfile%"%haslyrics% -T "ALBUMARTIST=%albumartist%" -T "DISCNUMBER=%cdnumber%" -T "TOTALDISCS=%totalcds%" -T "TOTALTRACKS=%numtracks%" -T "COMMENT=%comment%" %source% -o %dest%


TOC of the extracted CD

Track | Start | Length | Start sector | End sector
––––––––––––––––––––––––––––-
1 | 0:00.00 | 3:13.04 | 0 | 14478
2 | 3:13.04 | 4:22.36 | 14479 | 34164
3 | 7:35.40 | 5:37.13 | 34165 | 59452
4 | 13:12.53 | 4:48.58 | 59453 | 81110
5 | 18:01.36 | 4:01.50 | 81111 | 99235
6 | 22:03.11 | 2:47.67 | 99236 | 111827
7 | 24:51.03 | 3:24.20 | 111828 | 127147
8 | 28:15.23 | 4:27.60 | 127148 | 147232
9 | 32:43.08 | 4:35.74 | 147233 | 167931
10 | 37:19.07 | 3:56.53 | 167932 | 185684
11 | 41:15.60 | 3:39.56 | 185685 | 202165
12 | 44:55.41 | 3:13.66 | 202166 | 216706
13 | 48:09.32 | 3:23.12 | 216707 | 231943
14 | 51:32.44 | 2:52.13 | 231944 | 244856
15 | 54:24.57 | 3:07.64 | 244857 | 258945
16 | 57:32.46 | 3:33.36 | 258946 | 274956
17 | 61:06.07 | 4:10.36 | 274957 | 293742
18 | 65:16.43 | 3:41.45 | 293743 | 310362
19 | 68:58.13 | 3:05.17 | 310363 | 324254
20 | 72:03.30 | 6:39.42 | 324255 | 354221


Track 1

Filename H:\0\………………00\post\Now That's What I Call Reggae (2012)\cd2\01 - C.J. Lewis - Sweets For My Sweet.wav

Pre-gap length 0:00:02.00

Peak level 85.6 %
Extraction speed 2.3 X
Track quality 100.0 %
Test CRC A7C5EC7D
Copy CRC A7C5EC7D
Accurately ripped (confidence 8) [EF77B4CA] (AR v2)
Copy OK

Track 2

Filename H:\0\………………00\post\Now That's What I Call Reggae (2012)\cd2\02 - Big Mountain - Baby, I Love Your Way.wav

Pre-gap length 0:00:00.43

Peak level 85.1 %
Extraction speed 2.6 X
Track quality 100.0 %
Test CRC F6C401AD
Copy CRC F6C401AD
Accurately ripped (confidence 8) [B5BBCF53] (AR v2)
Copy OK

Track 3

Filename H:\0\………………00\post\Now That's What I Call Reggae (2012)\cd2\03 - Shabba Ranks - Mr. Loverman.wav

Pre-gap length 0:00:00.43

Peak level 82.2 %
Extraction speed 2.9 X
Track quality 100.0 %
Test CRC 3B12680E
Copy CRC 3B12680E
Accurately ripped (confidence 8) [282D1114] (AR v2)
Copy OK

Track 4

Filename H:\0\………………00\post\Now That's What I Call Reggae (2012)\cd2\04 - Bobby McFerrin - Don't Worry, Be Happy.wav

Pre-gap length 0:00:00.43

Peak level 74.9 %
Extraction speed 3.1 X
Track quality 100.0 %
Test CRC 7F4374BD
Copy CRC 7F4374BD
Accurately ripped (confidence 8) [2E4EF6B4] (AR v2)
Copy OK

Track 5

Filename H:\0\………………00\post\Now That's What I Call Reggae (2012)\cd2\05 - Maxi Priest - Close To You.wav

Pre-gap length 0:00:00.43

Peak level 100.0 %
Extraction speed 2.8 X
Track quality 99.9 %
Test CRC 4501B68E
Copy CRC 4501B68E
Accurately ripped (confidence 8) [DC037E4B] (AR v2)
Copy OK

Track 6

Filename H:\0\………………00\post\Now That's What I Call Reggae (2012)\cd2\06 - Desmond Dekker - Israelites.wav

Pre-gap length 0:00:00.43

Peak level 99.0 %
Extraction speed 3.2 X
Track quality 100.0 %
Test CRC 110884D1
Copy CRC 110884D1
Accurately ripped (confidence 8) [36D17E6F] (AR v2)
Copy OK

Track 7

Filename H:\0\………………00\post\Now That's What I Call Reggae (2012)\cd2\07 - UB40 - (I Can't Help) Falling In Love With You.wav

Pre-gap length 0:00:00.43

Peak level 73.8 %
Extraction speed 3.4 X
Track quality 100.0 %
Test CRC 3AC07197
Copy CRC 3AC07197
Accurately ripped (confidence 8) [95B68D2F] (AR v2)
Copy OK

Track 8

Filename H:\0\………………00\post\Now That's What I Call Reggae (2012)\cd2\08 - Shinehead - Jamaican In New York.wav

Pre-gap length 0:00:00.43

Peak level 100.0 %
Extraction speed 3.6 X
Track quality 100.0 %
Test CRC 985B092D
Copy CRC 985B092D
Accurately ripped (confidence 8) [E175A550] (AR v2)
Copy OK

Track 9

Filename H:\0\………………00\post\Now That's What I Call Reggae (2012)\cd2\09 - Dawn Penn - You Don't Love Me (No, No, No).wav

Pre-gap length 0:00:00.43

Peak level 94.6 %
Extraction speed 3.8 X
Track quality 100.0 %
Test CRC 2DE66571
Copy CRC 2DE66571
Accurately ripped (confidence 8) [67CDB31C] (AR v2)
Copy OK

Track 10

Filename H:\0\………………00\post\Now That's What I Call Reggae (2012)\cd2\10 - Janet Kay - Silly Games.wav

Pre-gap length 0:00:00.43

Peak level 100.0 %
Extraction speed 3.4 X
Track quality 99.9 %
Test CRC 1A727CAA
Copy CRC 1A727CAA
Accurately ripped (confidence 8) [D7B81C7A] (AR v2)
Copy OK

Track 11

Filename H:\0\………………00\post\Now That's What I Call Reggae (2012)\cd2\11 - Junior Murvin - Police & Thieves.wav

Pre-gap length 0:00:00.43

Peak level 100.0 %
Extraction speed 3.5 X
Track quality 99.9 %
Test CRC 6C10AC46
Copy CRC 6C10AC46
Accurately ripped (confidence 8) [F244E4C9] (AR v2)
Copy OK

Track 12

Filename H:\0\………………00\post\Now That's What I Call Reggae (2012)\cd2\12 - Brian & Tony Gold Red Dragon - Compliments On Your Kiss.wav

Pre-gap length 0:00:00.43

Peak level 76.7 %
Extraction speed 3.5 X
Track quality 99.9 %
Test CRC 30C889F1
Copy CRC 30C889F1
Accurately ripped (confidence 8) [A0AE0CCA] (AR v2)
Copy OK

Track 13

Filename H:\0\………………00\post\Now That's What I Call Reggae (2012)\cd2\13 - Barry Biggs - Sideshow.wav

Pre-gap length 0:00:00.43

Peak level 87.3 %
Extraction speed 3.6 X
Track quality 99.9 %
Test CRC 5973A640
Copy CRC 5973A640
Accurately ripped (confidence 8) [E828F443] (AR v2)
Copy OK

Track 14

Filename H:\0\………………00\post\Now That's What I Call Reggae (2012)\cd2\14 - Harry J Allstars - Liquidator.wav

Pre-gap length 0:00:00.43

Peak level 63.1 %
Extraction speed 4.2 X
Track quality 100.0 %
Test CRC 537B2D9B
Copy CRC 537B2D9B
Accurately ripped (confidence 8) [81BC6466] (AR v2)
Copy OK

Track 15

Filename H:\0\………………00\post\Now That's What I Call Reggae (2012)\cd2\15 - John Holt - Help Me Make It Through The Night.wav

Pre-gap length 0:00:00.43

Peak level 75.8 %
Extraction speed 4.2 X
Track quality 100.0 %
Test CRC 80905710
Copy CRC 80905710
Accurately ripped (confidence 8) [DD3E9A64] (AR v2)
Copy OK

Track 16

Filename H:\0\………………00\post\Now That's What I Call Reggae (2012)\cd2\16 - Sugar Minott - Good Thing Going (We've Got A Good Thing Going).wav

Pre-gap length 0:00:00.43

Peak level 96.6 %
Extraction speed 3.8 X
Track quality 99.9 %
Test CRC 58AB64A8
Copy CRC 58AB64A8
Accurately ripped (confidence 8) [D10AD16A] (AR v2)
Copy OK

Track 17

Filename H:\0\………………00\post\Now That's What I Call Reggae (2012)\cd2\17 - Ini Kamoze - Here Comes The Hotstepper.wav

Pre-gap length 0:00:00.43

Peak level 99.9 %
Extraction speed 4.6 X
Track quality 100.0 %
Test CRC 2105C7A7
Copy CRC 2105C7A7
Accurately ripped (confidence 8) [D5D7B3F0] (AR v2)
Copy OK

Track 18

Filename H:\0\………………00\post\Now That's What I Call Reggae (2012)\cd2\18 - Diana King - Shy Guy.wav

Pre-gap length 0:00:00.43

Peak level 99.9 %
Extraction speed 4.6 X
Track quality 100.0 %
Test CRC BFE0690D
Copy CRC BFE0690D
Accurately ripped (confidence 8) [FA256F88] (AR v2)
Copy OK

Track 19

Filename H:\0\………………00\post\Now That's What I Call Reggae (2012)\cd2\19 - Susan Cadogan - Hurt So Good.wav

Pre-gap length 0:00:00.43

Peak level 95.5 %
Extraction speed 4.0 X
Track quality 99.9 %
Test CRC 3F53CFBD
Copy CRC 3F53CFBD
Accurately ripped (confidence 8) [058C7467] (AR v2)
Copy OK

Track 20

Filename H:\0\………………00\post\Now That's What I Call Reggae (2012)\cd2\20 - Wayne Wade - Lady.wav

Pre-gap length 0:00:00.43

Peak level 63.8 %
Extraction speed 5.3 X
Track quality 100.0 %
Test CRC 9E577531
Copy CRC 9E577531
Accurately ripped (confidence 8) [A3C29881] (AR v2)
Copy OK


All tracks accurately ripped

No errors occurred

End of status report

==== Log checksum B54C1F7CC79144E498979648DEDC58F20836649F9037EC2C7D42FB9C5BC983C7 ====


Exact Audio Copy V1.0 beta 3 from 29. August 2011

EAC extraction logfile from 12. May 2015, 12:10

Various / Now Reggae

Used drive : GENERIC CDRCB05 Adapter: 4 ID: 0

Read mode : Secure
Utilize accurate stream : Yes
Defeat audio cache : Yes
Make use of C2 pointers : No

Read offset correction : 102
Overread into Lead-In and Lead-Out : No
Fill up missing offset samples with silence : Yes
Delete leading and trailing silent blocks : No
Null samples used in CRC calculations : Yes
Used interface : Native Win32 interface for Win NT & 2000
Gap handling : Appended to previous track

Used output format : User Defined Encoder
Selected bitrate : 1024 kBit/s
Quality : High
Add ID3 tag : No
Command line compressor : C:\Program Files\FLAC\flac.exe
Additional command line options : -8 -V -T "ARTIST=%artist%" -T "TITLE=%title%" -T "ALBUM=%albumtitle%" -T "DATE=%year%" -T "TRACKNUMBER=%tracknr%" -T "GENRE=%genre%" -T "PERFORMER=%albuminterpret%" -T "COMPOSER=%composer%" %haslyrics%–tag-from-file=LYRICS="%lyricsfile%"%haslyrics% -T "ALBUMARTIST=%albumartist%" -T "DISCNUMBER=%cdnumber%" -T "TOTALDISCS=%totalcds%" -T "TOTALTRACKS=%numtracks%" -T "COMMENT=%comment%" %source% -o %dest%


TOC of the extracted CD

Track | Start | Length | Start sector | End sector
––––––––––––––––––––––––––––-
1 | 0:00.00 | 4:03.21 | 0 | 18245
2 | 4:03.21 | 4:06.62 | 18246 | 36757
3 | 8:10.08 | 3:46.60 | 36758 | 53767
4 | 11:56.68 | 4:35.07 | 53768 | 74399
5 | 16:32.00 | 3:38.22 | 74400 | 90771
6 | 20:10.22 | 2:47.11 | 90772 | 103307
7 | 22:57.33 | 4:06.71 | 103308 | 121828
8 | 27:04.29 | 3:04.15 | 121829 | 135643
9 | 30:08.44 | 4:04.58 | 135644 | 154001
10 | 34:13.27 | 3:01.42 | 154002 | 167618
11 | 37:14.69 | 3:38.26 | 167619 | 183994
12 | 40:53.20 | 3:08.01 | 183995 | 198095
13 | 44:01.21 | 3:06.59 | 198096 | 212104
14 | 47:08.05 | 2:35.72 | 212105 | 223801
15 | 49:44.02 | 3:59.28 | 223802 | 241754
16 | 53:43.30 | 3:01.22 | 241755 | 255351
17 | 56:44.52 | 3:12.34 | 255352 | 269785
18 | 59:57.11 | 3:45.40 | 269786 | 286700
19 | 63:42.51 | 2:55.26 | 286701 | 299851
20 | 66:38.02 | 2:19.02 | 299852 | 310278


Track 1

Filename H:\0\………………00\post\Now That's What I Call Reggae (2012)\cd3\01 - Sean Kingston feat Jonathan Rotem - Beautiful Girls.wav

Pre-gap length 0:00:02.00

Peak level 87.0 %
Extraction speed 1.4 X
Track quality 100.0 %
Test CRC 8957D893
Copy CRC 8957D893
Accurately ripped (confidence 8) [43A5C92F] (AR v2)
Copy OK

Track 2

Filename H:\0\………………00\post\Now That's What I Call Reggae (2012)\cd3\02 - Shaggy - Boombastic.wav

Pre-gap length 0:00:00.16

Peak level 86.5 %
Extraction speed 1.6 X
Track quality 100.0 %
Test CRC 485F1BAD
Copy CRC 485F1BAD
Accurately ripped (confidence 8) [3ED469A4] (AR v2)
Copy OK

Track 3

Filename H:\0\………………00\post\Now That's What I Call Reggae (2012)\cd3\03 - Apache Indian - Boom Shack-A-Lak.wav

Pre-gap length 0:00:00.16

Peak level 97.9 %
Extraction speed 1.7 X
Track quality 100.0 %
Test CRC AC7617F9
Copy CRC AC7617F9
Accurately ripped (confidence 7) [8AF1F587] (AR v2)
Copy OK

Track 4

Filename H:\0\………………00\post\Now That's What I Call Reggae (2012)\cd3\04 - Grace Jones feat Bounty Killer - My Jamaican Guy.wav

Pre-gap length 0:00:00.16

Peak level 97.7 %
Extraction speed 1.8 X
Track quality 100.0 %
Test CRC 0025DE78
Copy CRC 0025DE78
Accurately ripped (confidence 8) [C659BD22] (AR v2)
Copy OK

Track 5

Filename H:\0\………………00\post\Now That's What I Call Reggae (2012)\cd3\05 - Aswad - Shine.wav

Pre-gap length 0:00:00.16

Peak level 81.3 %
Extraction speed 1.9 X
Track quality 100.0 %
Test CRC 44BB8F48
Copy CRC 44BB8F48
Accurately ripped (confidence 8) [49FD5FAE] (AR v2)
Copy OK

Track 6

Filename H:\0\………………00\post\Now That's What I Call Reggae (2012)\cd3\06 - Johnny Nash - I Can See Clearly Now.wav

Pre-gap length 0:00:00.16

Peak level 94.4 %
Extraction speed 1.9 X
Track quality 100.0 %
Test CRC BBA1ACE4
Copy CRC BBA1ACE4
Accurately ripped (confidence 7) [48363932] (AR v2)
Copy OK

Track 7

Filename H:\0\………………00\post\Now That's What I Call Reggae (2012)\cd3\07 - Gregory Isaacs - Night Nurse.wav

Pre-gap length 0:00:00.16

Peak level 100.0 %
Extraction speed 2.1 X
Track quality 100.0 %
Test CRC 17B1E784
Copy CRC 17B1E784
Accurately ripped (confidence 8) [7FA8CE98] (AR v2)
Copy OK

Track 8

Filename H:\0\………………00\post\Now That's What I Call Reggae (2012)\cd3\08 - Sophia George - Girlie Girlie.wav

Pre-gap length 0:00:00.16

Peak level 67.7 %
Extraction speed 2.1 X
Track quality 100.0 %
Test CRC A9852B97
Copy CRC A9852B97
Accurately ripped (confidence 8) [F70A1D82] (AR v2)
Copy OK

Track 9

Filename H:\0\………………00\post\Now That's What I Call Reggae (2012)\cd3\09 - Chaka Demus & Pliers - Tease Me.wav

Pre-gap length 0:00:00.16

Peak level 89.3 %
Extraction speed 2.3 X
Track quality 100.0 %
Test CRC 2B2243A2
Copy CRC 2B2243A2
Accurately ripped (confidence 7) [EBD9D90F] (AR v2)
Copy OK

Track 10

Filename H:\0\………………00\post\Now That's What I Call Reggae (2012)\cd3\10 - Blue Lagoon - Break My Stride.wav

Pre-gap length 0:00:00.16

Peak level 99.4 %
Extraction speed 1.9 X
Track quality 99.9 %
Test CRC D6186FC7
Copy CRC D6186FC7
Accurately ripped (confidence 8) [DFB7A162] (AR v2)
Copy OK

Track 11

Filename H:\0\………………00\post\Now That's What I Call Reggae (2012)\cd3\11 - Eddy Grant - I Don't Wanna Dance.wav

Pre-gap length 0:00:00.16

Peak level 98.6 %
Extraction speed 2.4 X
Track quality 100.0 %
Test CRC 7EF430B9
Copy CRC 7EF430B9
Accurately ripped (confidence 8) [391CB59A] (AR v2)
Copy OK

Track 12

Filename H:\0\………………00\post\Now That's What I Call Reggae (2012)\cd3\12 - Bob & Marcia - Young, Gifted And Black.wav

Pre-gap length 0:00:00.16

Peak level 98.7 %
Extraction speed 2.4 X
Track quality 100.0 %
Test CRC 791020EE
Copy CRC 791020EE
Accurately ripped (confidence 8) [62DA4EB6] (AR v2)
Copy OK

Track 13

Filename H:\0\………………00\post\Now That's What I Call Reggae (2012)\cd3\13 - The Pioneers - Let Your Yeah Be Yeah.wav

Pre-gap length 0:00:00.16

Peak level 96.6 %
Extraction speed 2.4 X
Track quality 100.0 %
Test CRC C0D18F0D
Copy CRC C0D18F0D
Accurately ripped (confidence 8) [2314B258] (AR v2)
Copy OK

Track 14

Filename H:\0\………………00\post\Now That's What I Call Reggae (2012)\cd3\14 - Dandy Livingstone - Suzanne Beware Of The Devil.wav

Pre-gap length 0:00:00.16

Peak level 95.3 %
Extraction speed 2.4 X
Track quality 100.0 %
Test CRC 09EB107B
Copy CRC 09EB107B
Accurately ripped (confidence 8) [EF3D7C19] (AR v2)
Copy OK

Track 15

Filename H:\0\………………00\post\Now That's What I Call Reggae (2012)\cd3\15 - Boris Gardiner - I Want To Wake Up With You.wav

Pre-gap length 0:00:00.16

Peak level 63.8 %
Extraction speed 2.3 X
Track quality 99.9 %
Test CRC 6A386A4B
Copy CRC 6A386A4B
Accurately ripped (confidence 8) [B9CC4741] (AR v2)
Copy OK

Track 16

Filename H:\0\………………00\post\Now That's What I Call Reggae (2012)\cd3\16 - Johnny Nash - Stir It Up.wav

Pre-gap length 0:00:00.16

Peak level 100.0 %
Extraction speed 2.5 X
Track quality 100.0 %
Test CRC 60132A74
Copy CRC 60132A74
Accurately ripped (confidence 8) [42BF36FE] (AR v2)
Copy OK

Track 17

Filename H:\0\………………00\post\Now That's What I Call Reggae (2012)\cd3\17 - Jimmy Cliff - Wonderful World, Beautiful People.wav

Pre-gap length 0:00:00.16

Peak level 93.3 %
Extraction speed 2.4 X
Track quality 100.0 %
Test CRC E850EE7A
Copy CRC E850EE7A
Accurately ripped (confidence 8) [2DCC2A3F] (AR v2)
Copy OK

Track 18

Filename H:\0\………………00\post\Now That's What I Call Reggae (2012)\cd3\18 - Chaka Demus & Pliers - She Don't Let Nobody.wav

Pre-gap length 0:00:00.16

Peak level 100.0 %
Extraction speed 2.6 X
Track quality 100.0 %
Test CRC 2441C4B0
Copy CRC 2441C4B0
Accurately ripped (confidence 6) [A4314489] (AR v2)
Copy OK

Track 19

Filename H:\0\………………00\post\Now That's What I Call Reggae (2012)\cd3\19 - Greyhound - Black And White.wav

Pre-gap length 0:00:00.16

Peak level 86.5 %
Extraction speed 2.6 X
Track quality 100.0 %
Test CRC 62598EDE
Copy CRC 62598EDE
Accurately ripped (confidence 7) [71F4C84E] (AR v2)
Copy OK

Track 20

Filename H:\0\………………00\post\Now That's What I Call Reggae (2012)\cd3\20 - Nicky Thomas - Love Of The Common People.wav

Pre-gap length 0:00:00.16

Peak level 88.1 %
Extraction speed 2.5 X
Track quality 100.0 %
Test CRC C6BB48C2
Copy CRC C6BB48C2
Accurately ripped (confidence 8) [0F294757] (AR v2)
Copy OK


All tracks accurately ripped

No errors occurred

End of status report

==== Log checksum F6A52C37A8FF8D41CECFA11FEAD2B8563C33253CA4D89C0EBD69CA4461EA8B27 ====


Tracklist:
Disc: 1
1. Shaggy Feat. Ricardo 'RikRok' Ducent - It Wasn't Me
2. UB40 - Red Red Wine
3. Aswad - Don't Turn Around
4. Chaka Demus & Pliers Feat. Jack Radics and The Taxi Gang - Twist & Shout
5. Kevin Lyttle - Turn Me On
6. Althea & Donna - Uptown Top Ranking
7. Bob Marley & The Wailers - Sun is Shining
8. Pato Banton and The Reggae Revolution with Ali & Robin Campbell - Baby Come Back
9. Inner Circle - Sweat (A La La La La Song)
10. Eddy Grant - Give Me Hope Jo'anna
11. Peter Andre - Mysterious Girl
12. Ken Boothe - Everything I Own
13. Maxi Priest - Wild World
14. Gyptian - Hold You
15. Black Slate - Amigo
16. Police - Walking on the Moon
17. Dave & Ansel Collins - Double Barrel
18. Musical Youth - Pass The Dutchie
19. Desmond Dekker - You Can Get It If you Really Want It
20. Steel Pulse - Ku Klux Klan
Disc: 2
1. C.J. Lewis - Sweets For My Sweet
2. Big Mountain - Baby, I Love Your Way
3. Shabba Ranks - Mr. Loverman
4. Bobby McFerrin - Don't Worry Be Happy
5. Maxi Priest - Close To You
6. Desmond Dekker - Israelites
7. UB40 - I Can't Help Falling In Love With You
8. Shinehead - Jamaican In New York
9. Dawn Penn - You Dont Love Me (No No No)
10. Janet Kay - Silly Games
11. Junior Murvin - Police & Thieves
12. Brain & Tony Gold, Red Dragon - Compliments On Your Kiss
13. Barry Biggs - Sideshow
14. Harry J Allstars - Liquidator
15. John Holt - Help Me Make It Through the Night
16. Sugar Minott - Good Thing Going (We've Got A Good Thing Going)
17. Ini Kamoze - Here Comes the Hotstepper
18. Diana King - Shy Guy
19. Susan Cadogan - Hurt So Good
20. Wayne Wade - Lady
Disc: 3
1. Sean Kingston Feat. Jonathan Rotem - Beautiful Girls
2. Shaggy - Mr Boombastic
3. Apache Indian - Boom Shack
4. Grace Jones Feat. Bounty Killer - My Jamaican Guy
5. Aswad - Shine
6. Johnny Nash - I Can See Clearly Now
7. Gregory Isaacs - Night Nurse
8. Sophie George - Girlie Girlie
9. Chaka Demus & Pliers - Tease Me
10. Blue Lagoon - Break My Stride
11. Eddy Grant - I Don't Wanna Dance
12. Bob & Marcia - Young Gifted & Black
13. The Pioneers - Let Your Yeah Be Yeah
14. Dandy Livingston Suzanne - Beware Of The Devil
15. Boris Gardiner - I Want To Wake Up With You
16. Johnny Nash - Stir It Up
17. Jimmy Cliff - Wonderful World, Beautiful People
18. Chaka Demus & Pliers - So Dont Let Nobody
19. Greyhound - Black & White
20. Nicky Thomas - Love of the Common People

Now That's What I Call Reggae (2012)