Subcategories

Nucleus - Elastic Rock & We'll Talk About It Later (1970-1971) [Reissue 1994] (Repost)

Posted By: gribovar
Nucleus - Elastic Rock & We'll Talk About It Later (1970-1971) [Reissue 1994] (Repost)

Nucleus - Elastic Rock & We'll Talk About It Later (1970-1971) [Reissue 1994]
EAC Rip | APE (image+.cue+log) - 510 MB | MP3 CBR 320 kbps (LAME 3.93) - 205 MB | Covers - 20 MB
Genre: Progressive/Jazz Rock | RAR 3% Rec. | Label: BGO Records (BGOCD47)

If Soft Machine was a rock group that veered towards jazz rock, Nucleus can be seen as a jazz group that veered towards jazz rock, as most musicians were clearly jazz musicians with the notable exception of Chris Spedding (yes, Mr. motocycle-punk/Chameleon-man of rock). If a comparison of those two groups can be made, it is also obvious that Nucleus became a nursing ground for those musicians before joining Soft Machine (around ten musicians did the transfer). They were signed on the famous progressive Vertigo label and the first two superb artwork album sleeves were designed by Roger Dean.
Nucleus was trumpet player (and confirmed jazzmen and biographist) Ian Carr's project and the its discography is rather confusing with the different designations as some were called "Ian Carr's Nucleus", "Nucleus With Ian Carr" or simply "Ian Carr" (but with all Nucleus members playing). This is hardly meaning that he was the main writer, main influence or main soloist. Many outstanding musicians contributed loads of material among which Karl Jenkins, Jeff Clyne, Chris Spedding, Alan Holdsworth, Brian Smith & Dave MacRae. Their music was of a frantic instrumental jazz-rock much alike some Miles Davis jazz-rock of the same era. Loads of wind instruments, but KB and a wide place for the guitarist (Spedding's guitar is superb and grandiose while self-restrained). Clearly the groundbreaking essence of Nucleus is best heard on the early albums as the later albums only managed to repeat the formula but not evolving much. Nucleus lasted as a touring unit until the early 80's and then reformed on the odd occasion since. Alas, early 2009, Ian Carr left us for proggier pastures, leaving behind an important aural and written oeuvre.
In 1994, BGO released Elastic Rock/We'll Talk About It Later, which contained two albums - Elastic Rock (1970, originally released on Vertigo) and We'll Talk About It Later (1970, also originally on Vertigo) - by U.K. group Nucleus on one compact disc.
CD 1 Tracklist (Elastic Rock, 1970):
01. 1916
02. Elastic Rock
03. Striation
04. Taranaki
05. Twisted Track
06. Crude Blues Part One
07. Crude Blues Part Two
08. 1916 (Battle Of Boogaloo)
09. Torrid Zone
10. Stonescape
11. Earth Mother
12. Speaking For Myself, Personally, In My Own Opinion, I Think…
13. Persephones Jive

Total time: 41:25

CD 2 Tracklist (We'll Talk About It Later, 1971):
01. Song For The Bearded Lady
02. Sun Child
03. Lullaby For A Lonely Child
04. We'll Talk About It Later
05. Oasis
06. Ballad Of Joe Pimp
07. Easter 1916

Total time: 45:40

Exact Audio Copy V0.99 prebeta 4 from 23. January 2008

EAC extraction logfile from 9. December 2008, 10:13

Nucleus / Elastic Rock

Used drive : HL-DT-STDVD-RAM GSA-H30N Adapter: 2 ID: 1

Read mode : Secure
Utilize accurate stream : Yes
Defeat audio cache : Yes
Make use of C2 pointers : No

Read offset correction : 102
Overread into Lead-In and Lead-Out : No
Fill up missing offset samples with silence : Yes
Delete leading and trailing silent blocks : No
Null samples used in CRC calculations : Yes
Used interface : Installed external ASPI interface

Used output format : Internal WAV Routines
Sample format : 44.100 Hz; 16 Bit; Stereo


TOC of the extracted CD

Track | Start | Length | Start sector | End sector
––––––––––––––––––––––––––––-
1 | 0:00.33 | 1:10.62 | 33 | 5344
2 | 1:11.20 | 4:05.55 | 5345 | 23774
3 | 5:17.00 | 2:15.58 | 23775 | 33957
4 | 7:32.58 | 1:35.50 | 33958 | 41132
5 | 9:08.33 | 5:19.00 | 41133 | 65057
6 | 14:27.33 | 0:54.47 | 65058 | 69154
7 | 15:22.05 | 2:35.20 | 69155 | 80799
8 | 17:57.25 | 3:07.58 | 80800 | 94882
9 | 21:05.08 | 8:41.25 | 94883 | 133982
10 | 29:46.33 | 2:39.15 | 133983 | 145922
11 | 32:25.48 | 5:16.32 | 145923 | 169654
12 | 37:42.05 | 1:29.65 | 169655 | 176394
13 | 39:11.70 | 2:13.38 | 176395 | 186407


Range status and errors

Selected range

Filename F:\Nucleus - Elastic Rock.wav

Peak level 100.0 %
Range quality 100.0 %
Copy CRC 494F4DED
Copy OK

No errors occurred

End of status report

[CUETools log; Date: 03.12.2014 23:58:24; Version: 2.1.4]
Pregap length 00:00:33.
[CTDB TOCID: YWENdXRw0vlVM5DtQX6wriOv43k-] found.
Track | CTDB Status
1 | (0/1) No match
2 | (0/1) No match
3 | (0/1) No match
4 | (0/1) No match
5 | (0/1) No match
6 | (0/1) No match
7 | (0/1) No match
8 | (0/1) No match
9 | (0/1) No match
10 | (0/1) No match
11 | (0/1) No match
12 | (0/1) No match
13 | (0/1) No match
[AccurateRip ID: 0012b708-00c1831f-bf09b50d] found.
Track [ CRC | V2 ] Status
01 [d8c93b8b|d3c623d3] (00+00/26) No match
02 [0df343c5|ad5d02ae] (00+00/25) No match
03 [9f00fd0f|87260a7a] (00+00/26) No match
04 [e081a888|ba37fdb4] (00+00/26) No match
05 [0e3aada7|0fb5089f] (00+00/26) No match
06 [1fb75f3a|beeaff39] (00+00/26) No match
07 [26fe163d|7dcf3160] (00+00/26) No match
08 [cda8564a|d221007c] (00+00/26) No match
09 [d8a70ed5|2f65d7c9] (00+00/26) No match
10 [9fc2aa4e|ed54a97c] (00+00/26) No match
11 [6fb57135|d3790b29] (00+00/26) No match
12 [13e7e879|151247be] (00+00/26) No match
13 [1be80b7b|7eb0dffe] (00+00/26) No match

Track Peak [ CRC32 ] [W/O NULL] [ LOG ]
– 100,0 [494F4DED] [31B93C8E] CRC32
01 91,2 [C8BDA3A2] [0F5C480A]
02 94,0 [B7F631A7] [23E64F80]
03 54,8 [38DBB33D] [3B459F4E]
04 71,0 [4019226B] [B19A6F66]
05 100,0 [91FB2AA2] [488D92E2]
06 35,8 [7A8CA017] [4CA61092]
07 99,5 [7B8260B2] [26D79641]
08 92,2 [5B8473B7] [38FAB81E]
09 98,2 [127571A7] [050A0D2F]
10 72,7 [9ABC1D16] [33FBB10F]
11 100,0 [ECA1A27F] [0C09D3BB]
12 100,0 [052938DE] [19563FF0]
13 100,0 [FEA718A4] [86FA75A0]

Exact Audio Copy V0.99 prebeta 4 from 23. January 2008

EAC extraction logfile from 9. December 2008, 10:36

Nucleus / We'll Talk About It Later

Used drive : HL-DT-STDVD-RAM GSA-H30N Adapter: 2 ID: 1

Read mode : Secure
Utilize accurate stream : Yes
Defeat audio cache : Yes
Make use of C2 pointers : No

Read offset correction : 102
Overread into Lead-In and Lead-Out : No
Fill up missing offset samples with silence : Yes
Delete leading and trailing silent blocks : No
Null samples used in CRC calculations : Yes
Used interface : Installed external ASPI interface

Used output format : Internal WAV Routines
Sample format : 44.100 Hz; 16 Bit; Stereo


TOC of the extracted CD

Track | Start | Length | Start sector | End sector
––––––––––––––––––––––––––––-
1 | 0:00.33 | 7:23.22 | 33 | 33279
2 | 7:23.55 | 5:17.45 | 33280 | 57099
3 | 12:41.25 | 4:18.38 | 57100 | 76487
4 | 16:59.63 | 6:16.37 | 76488 | 104724
5 | 23:16.25 | 9:48.08 | 104725 | 148832
6 | 33:04.33 | 3:46.35 | 148833 | 165817
7 | 36:50.68 | 8:49.40 | 165818 | 205532


Range status and errors

Selected range

Filename F:\Nucleus - We'll Talk About It Later.wav

Peak level 100.0 %
Range quality 100.0 %
Copy CRC B66E04AB
Copy OK

No errors occurred

End of status report

[CUETools log; Date: 04.12.2014 0:01:54; Version: 2.1.4]
Pregap length 00:00:33.
[CTDB TOCID: vesW7DIlqnc7fbeOUyTF9LNAc3M-] found.
Track | CTDB Status
1 | (2/2) Accurately ripped
2 | (2/2) Accurately ripped
3 | (2/2) Accurately ripped
4 | (2/2) Accurately ripped
5 | (2/2) Accurately ripped
6 | (2/2) Accurately ripped
7 | (2/2) Accurately ripped
[AccurateRip ID: 000c1502-0048b712-570ab407] found.
Track [ CRC | V2 ] Status
01 [5d1d90a0|65b2161a] (00+00/31) No match
02 [6f476b02|bedb175b] (00+00/31) No match
03 [57906a76|268854e8] (00+00/31) No match
04 [17050ccc|b20696d1] (00+00/31) No match
05 [83c627f8|79fb96ec] (00+00/31) No match
06 [30db9ed0|747489b8] (00+00/31) No match
07 [4c2e38a2|ec6594c9] (00+00/31) No match
Offsetted by -98:
01 [9356c8f8] (04/31) Accurately ripped
02 [281135fa] (04/31) Accurately ripped
03 [7a03ada8] (04/31) Accurately ripped
04 [d97656a0] (04/31) Accurately ripped
05 [6f59221a] (04/31) Accurately ripped
06 [3e95dde8] (04/31) Accurately ripped
07 [8ba98c5a] (04/31) Accurately ripped
Offsetted by -30:
01 [d6344e48] (05/31) Accurately ripped
02 [597abe0a] (05/31) Accurately ripped
03 [c5601bc4] (05/31) Accurately ripped
04 [771d47f8] (05/31) Accurately ripped
05 [5e2c9e56] (05/31) Accurately ripped
06 [cc9205b8] (05/31) Accurately ripped
07 [fc5932ea] (05/31) Accurately ripped
Offsetted by 664:
01 [8faec480] (05/31) Accurately ripped
02 [51c65f62] (05/31) Accurately ripped
03 [fb35161e] (05/31) Accurately ripped
04 [83dbaadc] (05/31) Accurately ripped
05 [90c83060] (05/31) Accurately ripped
06 [31e341b0] (05/31) Accurately ripped
07 [10ff8402] (05/31) Accurately ripped

Track Peak [ CRC32 ] [W/O NULL] [ LOG ]
– 100,0 [B66E04AB] [C7852821] CRC32
01 100,0 [657BC73E] [8360246C]
02 100,0 [38CADC98] [0EAC5F9E]
03 75,3 [694EAF0A] [F6AE193E]
04 100,0 [BB8397C2] [B19A6FFB]
05 78,4 [7DBA2848] [C607F590]
06 100,0 [089E414C] [6B6A9AC2]
07 100,0 [6778312B] [D107BC0C]

Thanks to freakout

More Nucleus releases from my blog:


LOSSLESS:
Nitroflare.com
_______________

MP3 320 kbps:
Nitroflare.com
_______________

Covers:
Nitroflare.com

LOSSLESS:
Filepost.com
_______________

MP3 320 kbps:
Filepost.com
_______________

Covers:
Filepost.com