Subcategories

Oasis - Complete Singles Collection '94-'05 (2006) 25CD Japanese Limited Edition Box Set [Re-Up]

Posted By: Designol
Oasis - Complete Singles Collection '94-'05 (2006) 25CD Japanese Limited Edition Box Set [Re-Up]

Oasis - Complete Singles Collection 1994-2005 (2006)
25CD Japanese Limited Edition Box Set

EAC | FLAC | Image (Cue&Log) ~ 3.05 Gb | Mp3 (CBR320) ~ 1.04 Gb | Scans included
Alternative Rock, BritPop, British Trad Rock | Label: Sony/Epic | # EICP 700~724 | Time: 06:59:54

2006 Japanese Limited Edition issue containing 25 CD singles with every single release from April 1994's 'Supersonic' through to December 2005's 'Let There Be Love' totalling a mighty 89 classic tracks.

Oasis shot from obscurity to stardom in 1994, becoming one of Britain's most popular and critically acclaimed bands of the decade in the process. Along with Blur and Suede, they were responsible for returning British guitar pop to the top of the charts. Led by guitarist/songwriter Noel Gallagher, the Manchester quintet adopted the rough, thuggish image of the Stones and the Who, crossed it with "Beatlesque" melodies and hooks, injected distinctly British lyrical themes and song structures like the Jam and the Kinks, and tied it all together with a massive guitar roar, as well as a defiant sneer that drew equally from the Sex Pistols' rebelliousness and the Stone Roses' cocksure arrogance. Gallagher's songs frequently reworked previous hits from T. Rex ("Cigarettes and Alcohol" borrows the riff from "Bang a Gong") to Wham! ("Fade Away" takes the melody from "Freedom"), yet the group always put the hooks in different settings, updating past hits for a new era.

Originally, the group was formed by schoolmates Liam Gallagher (vocals), Paul "Bonehead" Arthurs (guitar), Paul McGuigan (bass), and Tony McCaroll (drums). After spending several years as the guitar technician for a Stone Roses-inspired group named the Inspiral Carpets, Noel Gallagher returned to Manchester to find that his brother had formed a band. Noel agreed to join if he could have complete control of the group, including contributing all the songs; the rest of the band agreed and adopted a new name, Oasis, before launching a year of intensive rehearsals.

After playing a handful of small club gigs, the band cornered Alan McGee, the head of Creation Records, and forced him to listen to their demo. Impressed, he signed the band and helped them ready their debut album. The group released their first single, "Supersonic," in the spring of 1994; it edged its way into the charts on the back of positive reviews. With a melody adapted from "I'd Like to Teach the World to Sing," "Shakermaker" became a bigger hit in the early summer. Released a month before their debut album's arrival, the soaring ballad "Live Forever" became a major hit in England and helped make Definitely Maybe the fastest-selling debut in British history. The record entered the charts at number one and eventually sold over seven million copies.

Oasis mania continued throughout 1994, as the group began playing larger theaters and watched each new single outperform the last. However, tensions in the group began to build – Liam and Noel refused to do joint interviews because they always fought – and Noel Gallagher briefly left the band at the end of a difficult fall American tour. However, he quickly re-joined and the band headed back to England. As "Supersonic" began to climb the U.S. album rock and modern rock charts, the string-laden "Whatever" (a non-album single) hit number two over the British Christmas season.

At the beginning of 1995, the group set their sights on America by promoting the single "Live Forever." The song became a major hit on MTV and modern rock radio stations, peaking at number two, and Definitely Maybe soon climbed to gold status in the U.S. Returning to England after a sold-out American tour, the group recorded a new single, "Some Might Say." Drummer Tony McCaroll parted ways with the band on the eve of the single's May release, with Alan White taking his place. "Some Might Say" entered the charts at number one, and its success led to all of Oasis' previous singles reentering the indie charts. Oasis spent the rest of the summer completing their second album, (What's the Story) Morning Glory?, which was released in October of 1995. Upon its release, the album shot to number one in England, becoming the fastest-selling album in the U.K. since Michael Jackson's Bad.

The band continued to set records during the following years. Over the course of 1996, (What's the Story) Morning Glory? became the second-biggest British album in history. On the strength of the iconic single "Wonderwall," Morning Glory also became a Top Ten success in America, where it reached quintuple platinum status; it also cracked the Top Ten throughout countries in Europe and Asia. During 1996, the Gallaghers' combative relationship was frequently detailed in newspapers and gossip columns, particularly when they suddenly pulled out of their late summer U.S. tour. This followed the group's two concerts at Knebworth, which broke records for being the biggest outdoor concert in England.

After Oasis abandoned their American tour, they concentrated on recording their third album. While the band's first two LPs were quickly recorded, they took several months to record the third, which finally saw completion during the spring of 1997. The resulting album, Be Here Now, was released in late August, one month after the arrival of the single "D'You Know What I Mean." Greeted with generally enthusiastic reviews and robust sales, Be Here Now shattered sales records in the U.K. and nearly topped the U.S. charts, positioning the quintet as the de facto rulers of rock. However, a backlash set in among both critics and record buyers over the album's perceived excesses, which meant that Be Here Now lacked the shelf life of its predecessors. Not long afterward, typical infighting unraveled the band's tour, and the group disappeared from the spotlight for a time – although a collection of B-sides, Masterplan, did follow in 1998.

As the band was recording their fourth album in the summer of 1999, Bonehead left Oasis, claiming that he wanted to spend more time with his family. Interviewed by NME on August 11, the day after the departure was made public, Noel Gallagher seemed unfazed, stating "It's hardly Paul McCartney leaving the Beatles." Ex-Ride guitarist Andy Bell and onetime Heavy Stereo guitarist Gem Archer signed on after the recording of 2000's Standing on the Shoulder of Giants was completed. In fall 2000, the band celebrated their monumental world tour success with the release of their first-ever live record, Familiar to Millions. The album highlights Oasis' July 2000 gig at Wembley Stadium and was released on six different formats including CD and cassette, DVD, VHS, triple vinyl, and mini-disc.

Two years later, Oasis surfaced with Heathen Chemistry. Worldwide dates coincided the release of Oasis' fifth studio album; however, problems loomed ahead. While touring America in late summer, Noel Gallagher, Andy Bell, and touring keyboardist Jay Darlington were injured in Indianapolis after their taxi collided with another vehicle. The band bounced back soon, returning to the road in two weeks time after canceling shows in Indianapolis, Boston, and Philadelphia. In America, however, the album wasn't faring as well as Oasis' tour sales, and the leadoff single "Hindu Times" barely made a mark on MTV. More trouble arrived in December, when Liam Gallagher and several members of the Oasis entourage were involved in a street scuffle in Munich; the younger Gallagher sustained facial injuries and was later arrested while two of the band's security guards sought serious medical attention. Despite such setbacks – which also included mixed reviews for the album – Heathen Chemistry nevertheless sold several million copies at home and charted four U.K. singles. Additionally, Liam's own composition, "Songbird," marked the first time Oasis had released a single penned by anyone other than Noel. The song fared well on U.K. charts and paved the way for a new collaborative approach to songwriting.

Oasis' next album suffered delays, as initial sessions with the electronica duo Death in Vegas (who had been recruited to produce the record) were scrapped. Additionally, drummer Alan White made his exit from the band in early 2004, and Ringo Starr's son Zak Starkey climbed aboard to take his place. Don't Believe the Truth eventually saw a worldwide release in May 2005. Featuring songwriting contributions from every bandmember, the record represented a new approach from the previously Noel-dominated group. "Lyla," "The Importance of Being Idle," and "Let There Be Love" all contributed to the album's success, and Don't Believe the Truth soon became the band's highest-selling effort since Be Here Now. The band quickly returned to the studio in mid-2007, halting production several months later to allow Noel to spend time with his newborn child. Sessions resumed in November and wrapped up in 2008, with Dig Out Your Soul receiving a release date later that year. In 2009, after a typically heated, backstage sibling altercation, Noel left the group for good, prompting Liam (and the rest of the band) to change the name to Beady Eye, with plans to release a debut single in 2010.

Stephen Thomas Erlewine, Allmusic.com

Oasis - Complete Singles Collection '94-'05 (2006) 25CD Japanese Limited Edition Box Set [Re-Up]

Oasis - Complete Singles Collection '94-'05 (2006) 25CD Japanese Limited Edition Box Set [Re-Up]






Oasis - Complete Singles Collection '94-'05 (2006) 25CD Japanese Limited Edition Box Set [Re-Up]

Oasis - Supersonic (1994)
EAC | FLAC | Image (Cue&Log) ~ 124 Mb | Mp3 (CBR320) ~ 46 Mb
Label: Epic/Sony | # EICP 700 | Time: 00:18:26 | Scans included

On the surface, Oasis deserves a negative reaction. That's the typical reaction to a new Manchester quintet that treads too-familiar Happy Mondays/Primal Scream/the Stone Roses turf on the A-side and one of the B-sides ("Columbia"), even if it is on the great Creation label. Not because that Madchester sound died three years ago, but (pre-"Fools Gold") Stone Roses aside, it wasn't that great in the first place (unlike the now "dead" shoegaze scene that succeeded it). But a full two minutes into "Supersonic," this monstrous chorus comes out of nowhere to save the day ("my friend said to take you home…"), and there's another moment of satori when it appears again around the three-minute mark. Holy cow is that great, the sort of dramatic turnaround chord change and pile-driven, upper-octave vocal flourish that the young Guy Chadwick used to deliver now and again. By producing such furious highs at will, Oasis will instantly vault over the pack of also-rans being flaunted in the U.K. press. Besides, though "Take Me Away" is an unimpressive acoustic track, the live B-side "I Will Believe" reveals a more straightforward post punk style with more average but still good hooks suggesting a versatility Oasis could put to good use on an LP. Creation strikes again? Or just ten seconds of intense pleasure, as hollow and meaningless as a crack high?

Jack Rabid, Allmusic.com

Tracklist:

01. Supersonic (04:44)
02. Take Me Away (04:30)
03. I Will Believe (Live) (03:46)
04. Columbia (White Label Demo) (05:25)


Exact Audio Copy V1.0 beta 3 from 29. August 2011

EAC extraction logfile from 29. September 2014, 13:10

Oasis / Supersonic (EICP 700)

Used drive : ASUS DRW-24F1ST Adapter: 2 ID: 1

Read mode : Secure
Utilize accurate stream : Yes
Defeat audio cache : Yes
Make use of C2 pointers : No

Read offset correction : 6
Overread into Lead-In and Lead-Out : No
Fill up missing offset samples with silence : Yes
Delete leading and trailing silent blocks : No
Null samples used in CRC calculations : Yes
Used interface : Native Win32 interface for Win NT & 2000

Used output format : Internal WAV Routines
Sample format : 44.100 Hz; 16 Bit; Stereo


TOC of the extracted CD

Track | Start | Length | Start sector | End sector
––––––––––––––––––––––––––––-
1 | 0:00.00 | 4:44.18 | 0 | 21317
2 | 4:44.18 | 4:30.27 | 21318 | 41594
3 | 9:14.45 | 3:46.45 | 41595 | 58589
4 | 13:01.15 | 5:25.43 | 58590 | 83007


Range status and errors

Selected range

Filename D:\Le Snow\Oasis - Supersonic (EICP 700).wav

Peak level 97.8 %
Extraction speed 2.2 X
Range quality 100.0 %
Test CRC E632A023
Copy CRC E632A023
Copy OK

No errors occurred


AccurateRip summary

Track 1 not present in database
Track 2 not present in database
Track 3 not present in database
Track 4 not present in database

None of the tracks are present in the AccurateRip database

End of status report

==== Log checksum 47729069EE4697F669748C49CBC2683C75352E2A30FE015038D62F8ACF746430 ====

foobar2000 1.2 / Dynamic Range Meter 1.1.1
log date: 2015-01-13 17:16:56

––––––––––––––––––––––––––––––––––––––––
Analyzed: Oasis / Supersonic (EICP 700)
––––––––––––––––––––––––––––––––––––––––

DR Peak RMS Duration Track
––––––––––––––––––––––––––––––––––––––––
DR10 -0.19 dB -12.00 dB 4:44 01-Supersonic
DR12 -0.19 dB -15.80 dB 4:30 02-Take Me Away
DR12 -0.19 dB -13.60 dB 3:47 03-I Will Believe (Live)
DR11 -0.19 dB -12.77 dB 5:26 04-Columbia (White Label Demo)
––––––––––––––––––––––––––––––––––––––––

Number of tracks: 4
Official DR value: DR11

Samplerate: 44100 Hz
Channels: 2
Bits per sample: 16
Bitrate: 906 kbps
Codec: FLAC
================================================================================




Oasis - Complete Singles Collection '94-'05 (2006) 25CD Japanese Limited Edition Box Set [Re-Up]

Oasis - Shakermaker (1994)
EAC | FLAC | Image (Cue&Log) ~ 111 Mb | Mp3 (CBR320) ~ 41 Mb
Label: Epic/Sony | # EICP 701 | Time: 00:16:07 | Scans included

The "Shakemaker" single has a little bit of everything. "Shakemaker" is a very good chose for a single..its groovy and catchy (Noel says it was a rip off of "Flying" by The Beatles). "D'Yer Wannabe A Spaceman?" is a classic Oasis(Noel I should say) song. It reminds us of the good times and not to forget our dreams and is followed by lovely acoustic guitar playing by Noel. "Alive" is probably the best song from the '93 early recordings. It's impressive musically and lyrically for amatures and goes to show what you can do with no budget in music. It ends with "Bring It On Down" from "Definitely Maybe" done live. It documents how Oasis sounded live in '94 which to me was when they had the most energy live. "Shakemaker" is an essential Oasis single.

Damon Navas-Howard, Amazon.com

Tracklist:

01. Shakermaker (05:11)
02. D'Yer Wanna Be A Spaceman? (02:41)
03. Alive (8 Track Demo) (03:56)
04. Bring It On Down (Live) (04:17)


Exact Audio Copy V1.0 beta 3 from 29. August 2011

EAC extraction logfile from 28. September 2014, 17:31

Oasis / Shakermaker (EICP 701)

Used drive : ASUS DRW-24F1ST Adapter: 2 ID: 1

Read mode : Secure
Utilize accurate stream : Yes
Defeat audio cache : Yes
Make use of C2 pointers : No

Read offset correction : 6
Overread into Lead-In and Lead-Out : No
Fill up missing offset samples with silence : Yes
Delete leading and trailing silent blocks : No
Null samples used in CRC calculations : Yes
Used interface : Native Win32 interface for Win NT & 2000

Used output format : Internal WAV Routines
Sample format : 44.100 Hz; 16 Bit; Stereo


TOC of the extracted CD

Track | Start | Length | Start sector | End sector
––––––––––––––––––––––––––––-
1 | 0:00.00 | 5:11.45 | 0 | 23369
2 | 5:11.45 | 2:41.35 | 23370 | 35479
3 | 7:53.05 | 3:56.73 | 35480 | 53252
4 | 11:50.03 | 4:17.17 | 53253 | 72544


Range status and errors

Selected range

Filename D:\Le Snow\Oasis - Shakermaker (EICP 701).wav

Peak level 99.7 %
Extraction speed 2.2 X
Range quality 100.0 %
Test CRC 51EE48AE
Copy CRC 51EE48AE
Copy OK

No errors occurred


AccurateRip summary

Track 1 not present in database
Track 2 not present in database
Track 3 not present in database
Track 4 not present in database

None of the tracks are present in the AccurateRip database

End of status report

==== Log checksum AE43F0C3B9CD6DF1D4B69CA2602F395B0C301D4929AF273860E9DBB99EA94514 ====

foobar2000 1.2 / Dynamic Range Meter 1.1.1
log date: 2015-01-13 17:17:01

––––––––––––––––––––––––––––––––––––––––
Analyzed: Oasis / Shakermaker (EICP 701)
––––––––––––––––––––––––––––––––––––––––

DR Peak RMS Duration Track
––––––––––––––––––––––––––––––––––––––––
DR7 -0.27 dB -9.17 dB 5:12 01-Shakermaker
DR10 -2.94 dB -15.75 dB 2:41 02-D'Yer Wanna Be A Spaceman?
DR11 -0.02 dB -12.61 dB 3:57 03-Alive (8 Track Demo)
DR12 -0.03 dB -13.43 dB 4:17 04-Bring It On Down (Live)
––––––––––––––––––––––––––––––––––––––––

Number of tracks: 4
Official DR value: DR10

Samplerate: 44100 Hz
Channels: 2
Bits per sample: 16
Bitrate: 928 kbps
Codec: FLAC
================================================================================




Oasis - Complete Singles Collection '94-'05 (2006) 25CD Japanese Limited Edition Box Set [Re-Up]

Oasis - Live Forever (1994)
EAC | FLAC | Image (Cue&Log) ~ 136 Mb | Mp3 (CBR320) ~ 46 Mb
Label: Epic/Sony | # EICP 702 | Time: 00:18:44 | Scans included

Oasis makes clear its worthiness to represent England as the nation's next great rock & roll band. The original members of Oasis signed a record deal with Creation Records in early 1993 and came to the forefront with the 1994 single "Live Forever," a bittersweet and alluring gem of poetry and melodic craftiness written by guitarist/vocalist Noel Gallagher. It was given to his younger brother Liam Gallagher to sing, a brash, animated and raucous individual at times, whose personality and unique voice put vitality and raw energy into Oasis' rock-laden image. With Noel spinning out catchy riffs and eloquent lyrics and Liam generating them with his scratchy vocal pipes, they were a perfect couple for a band whose popularity grew by leaps and bounds. Because of their rivalrous personalities and flare-ups on stage, their presence makes their legacy legendary and always provides a great story for the media. The lyrics of "Live Forever" are vibrant and thought-provoking, and the music quite progressive and a cut above the rest at the time, a period when Nirvana's grunge would soon dissipate following the shocking death of Kurt Cobain, and when other Seattle rockers Soundgarden and Pearl Jam would lose the commercial limelight as they took different musical paths. Oasis was just a fun, awe-inspiring, witty, animated, and passionate rock & roll band that came at the right time to soothe listeners. The band's follow-up to Definitely Maybe, (What's the Story) Morning Glory? really got Oasis moving, and brought back the rave of arena and stadium rock, not to mention good live music that was deafeningly loud. "Up in the Sky is a beautiful tune with endearing lyrics surrounding by lushly recorded acoustic guitars and a peek at Noel's smoother voice. "Cloudburst" immediately demonstrates an early preview of the band's vital, uplifting, and distortion-drenched stadium rock anthems that Oasis is so hip to generating. The last track, a live performance of "Supersonic," gives the listener a feel for Oasis' early attempts to electrify crowds. It's a very dark, intense, and emotionally charged tune, laced with mind-challenging lyrics and buzzing guitar riffs. "I need to be myself/I can't be no one else/And I'm feeling supersonic/Just like gin and tonic," is a short look into the young rock stars, who at the time certainly felt supersonic with their initial dose of fame.

Shawn M. Haney, Allmusic.com

Tracklist:

01. Live Forever (04:38)
02. Up In The Sky (Acoustic) (03:32)
03. Cloudburst (05:21)
04. Supersonic (Live April '94) (05:12)


Exact Audio Copy V1.0 beta 3 from 29. August 2011

EAC extraction logfile from 28. September 2014, 17:12

Oasis / Live Forever (EICP 702)

Used drive : ASUS DRW-24F1ST Adapter: 2 ID: 1

Read mode : Secure
Utilize accurate stream : Yes
Defeat audio cache : Yes
Make use of C2 pointers : No

Read offset correction : 6
Overread into Lead-In and Lead-Out : No
Fill up missing offset samples with silence : Yes
Delete leading and trailing silent blocks : No
Null samples used in CRC calculations : Yes
Used interface : Native Win32 interface for Win NT & 2000

Used output format : Internal WAV Routines
Sample format : 44.100 Hz; 16 Bit; Stereo


TOC of the extracted CD

Track | Start | Length | Start sector | End sector
––––––––––––––––––––––––––––-
1 | 0:00.00 | 4:38.28 | 0 | 20877
2 | 4:38.28 | 3:32.05 | 20878 | 36782
3 | 8:10.33 | 5:21.42 | 36783 | 60899
4 | 13:32.00 | 5:12.68 | 60900 | 84367


Range status and errors

Selected range

Filename D:\Le Snow\Oasis - Live Forever (EICP 702).wav

Peak level 99.4 %
Extraction speed 2.2 X
Range quality 100.0 %
Test CRC 23A07522
Copy CRC 23A07522
Copy OK

No errors occurred


AccurateRip summary

Track 1 not present in database
Track 2 not present in database
Track 3 not present in database
Track 4 not present in database

None of the tracks are present in the AccurateRip database

End of status report

==== Log checksum 48110A299C79ED4522B64153C7A1C15DEA7799AAB45B69E8223583455311A608 ====

foobar2000 1.2 / Dynamic Range Meter 1.1.1
log date: 2015-01-13 17:17:07

––––––––––––––––––––––––––––––––––––––––
Analyzed: Oasis / Live Forever (EICP 702)
––––––––––––––––––––––––––––––––––––––––

DR Peak RMS Duration Track
––––––––––––––––––––––––––––––––––––––––
DR7 -0.19 dB -8.90 dB 4:38 01-Live Forever
DR10 -0.10 dB -10.54 dB 3:32 02-Up In The Sky (Acoustic)
DR9 -0.05 dB -9.70 dB 5:22 03-Cloudburst
DR9 -0.05 dB -10.22 dB 5:13 04-Supersonic (Live April '94)
––––––––––––––––––––––––––––––––––––––––

Number of tracks: 4
Official DR value: DR9

Samplerate: 44100 Hz
Channels: 2
Bits per sample: 16
Bitrate: 986 kbps
Codec: FLAC
================================================================================




Oasis - Complete Singles Collection '94-'05 (2006) 25CD Japanese Limited Edition Box Set [Re-Up]

Oasis - Cigarettes & Alcohol (1994)
EAC | FLAC | Image (Cue&Log) ~ 173 Mb | Mp3 (CBR320) ~ 59 Mb
Label: Epic/Sony | # EICP 703 | Time: 00:23:57 | Scans included

The somewhat mediocre T. Rex "Bang-a-Gong" rip-off (except for the excellent chorus) "Cigarettes and Alcohol" has three wonderful non-LP B-sides, of which the live cover of the Beatles' "I Am the Walrus" is as hypnotic and zonked as all the versions they've done at clubs in New York, Liam Gallagher's reedy but powerful voice spitting out the words. The resplendent, all-but sighing "Listen Up," and the crunching, exciting "Fade Away," perhaps the best song on the previous two U.S. tours, both are even better than half the LP tracks.

Jack Rabid, Allmusic.com

Tracklist:

01. Cigarettes & Alcohol (04:50)
02. I Am The Walrus (Live Glasgow Cathouse June '94) (08:14)
03. Listen Up (06:39)
04. Fade Away (04:13)


Exact Audio Copy V1.0 beta 3 from 29. August 2011

EAC extraction logfile from 28. September 2014, 18:30

Oasis / Cigarettes & Alcohol (EICP 703)

Used drive : ASUS DRW-24F1ST Adapter: 2 ID: 1

Read mode : Secure
Utilize accurate stream : Yes
Defeat audio cache : Yes
Make use of C2 pointers : No

Read offset correction : 6
Overread into Lead-In and Lead-Out : No
Fill up missing offset samples with silence : Yes
Delete leading and trailing silent blocks : No
Null samples used in CRC calculations : Yes
Used interface : Native Win32 interface for Win NT & 2000

Used output format : Internal WAV Routines
Sample format : 44.100 Hz; 16 Bit; Stereo


TOC of the extracted CD

Track | Start | Length | Start sector | End sector
––––––––––––––––––––––––––––-
1 | 0:00.00 | 4:50.05 | 0 | 21754
2 | 4:50.05 | 8:14.68 | 21755 | 58872
3 | 13:04.73 | 6:39.50 | 58873 | 88847
4 | 19:44.48 | 4:13.05 | 88848 | 107827


Range status and errors

Selected range

Filename D:\Le Snow\Oasis - Cigarettes & Alcohol (EICP 703).wav

Peak level 99.4 %
Extraction speed 2.4 X
Range quality 100.0 %
Test CRC 425BBFBF
Copy CRC 425BBFBF
Copy OK

No errors occurred


AccurateRip summary

Track 1 not present in database
Track 2 not present in database
Track 3 not present in database
Track 4 not present in database

None of the tracks are present in the AccurateRip database

End of status report

==== Log checksum 8AA5FEDCDEFB25B9F0F39849EFF5B2E03316DA7A328298E2108C9E305017D814 ====

foobar2000 1.2 / Dynamic Range Meter 1.1.1
log date: 2015-01-13 17:17:14

––––––––––––––––––––––––––––––––––––––––
Analyzed: Oasis / Cigarettes & Alcohol (EICP 703)
––––––––––––––––––––––––––––––––––––––––

DR Peak RMS Duration Track
––––––––––––––––––––––––––––––––––––––––
DR5 -0.48 dB -7.23 dB 4:50 01-Cigarettes & Alcohol
DR6 -0.05 dB -6.28 dB 8:15 02-I Am The Walrus (Live Glasgow Cathouse June '94)
DR5 -0.05 dB -6.42 dB 6:40 03-Listen Up
DR7 -0.05 dB -7.39 dB 4:13 04-Fade Away
––––––––––––––––––––––––––––––––––––––––

Number of tracks: 4
Official DR value: DR6

Samplerate: 44100 Hz
Channels: 2
Bits per sample: 16
Bitrate: 987 kbps
Codec: FLAC
================================================================================




Oasis - Complete Singles Collection '94-'05 (2006) 25CD Japanese Limited Edition Box Set [Re-Up]

Oasis - Whatever (1994)
EAC | FLAC | Image (Cue&Log) ~ 166 Mb | Mp3 (CBR320) ~ 54 Mb
Label: Epic/Sony | # EICP 704 | Time: 00:21:36 | Scans included

"Whatever" actually sounds more like "I Am the Walrus" than their actual cover (!) what with the strings, but it's another solid pop single, with a shockingly perfect bridge; a nice progression. It makes one think that the first two singles, "Supersonic" and "Shakermaker," which were good upon release, now seem naive in comparison. The B-side cuts here include one more in the "Listen Up" vein "(It's Good) To Be Free," and the Noel-sung, acoustic-pretty "Half the World Away," which reminds a little of R.E.M.'s pre-Monster '90s lovely stuff. But what's the point of putting the LP's (admittedly delicious) "Fade Away" here too?

Jack Rabid, Allmusic.com

Tracklist:

01. Whatever (06:21)
02. (It's Good) To Be Free (04:18)
03. Half The World Away (04:25)
04. Slide Away (06:31)


Exact Audio Copy V1.0 beta 3 from 29. August 2011

EAC extraction logfile from 29. September 2014, 14:10

Oasis / Whatever (EICP 704)

Used drive : ASUS DRW-24F1ST Adapter: 2 ID: 1

Read mode : Secure
Utilize accurate stream : Yes
Defeat audio cache : Yes
Make use of C2 pointers : No

Read offset correction : 6
Overread into Lead-In and Lead-Out : No
Fill up missing offset samples with silence : Yes
Delete leading and trailing silent blocks : No
Null samples used in CRC calculations : Yes
Used interface : Native Win32 interface for Win NT & 2000

Used output format : Internal WAV Routines
Sample format : 44.100 Hz; 16 Bit; Stereo


TOC of the extracted CD

Track | Start | Length | Start sector | End sector
––––––––––––––––––––––––––––-
1 | 0:00.00 | 6:21.16 | 0 | 28590
2 | 6:21.16 | 4:18.74 | 28591 | 48014
3 | 10:40.15 | 4:25.32 | 48015 | 67921
4 | 15:05.47 | 6:31.20 | 67922 | 97266


Range status and errors

Selected range

Filename D:\Le Snow\Oasis - Whatever (EICP 704).wav

Peak level 99.4 %
Extraction speed 2.3 X
Range quality 100.0 %
Test CRC AEAFBF90
Copy CRC AEAFBF90
Copy OK

No errors occurred


AccurateRip summary

Track 1 not present in database
Track 2 not present in database
Track 3 not present in database
Track 4 not present in database

None of the tracks are present in the AccurateRip database

End of status report

==== Log checksum 9E08F8307E6810A497CEC0D66822C18B707983979571C4052EBC7FFDBA42618D ====

foobar2000 1.2 / Dynamic Range Meter 1.1.1
log date: 2015-01-13 17:17:21

––––––––––––––––––––––––––––––––––––––––
Analyzed: Oasis / Whatever (EICP 704)
––––––––––––––––––––––––––––––––––––––––

DR Peak RMS Duration Track
––––––––––––––––––––––––––––––––––––––––
DR4 -0.05 dB -5.98 dB 6:21 01-Whatever
DR5 -0.05 dB -6.61 dB 4:19 02-(It's Good) To Be Free
DR9 -0.05 dB -11.86 dB 4:25 03-Half The World Away
DR6 -0.05 dB -7.13 dB 6:31 04-Slide Away
––––––––––––––––––––––––––––––––––––––––

Number of tracks: 4
Official DR value: DR6

Samplerate: 44100 Hz
Channels: 2
Bits per sample: 16
Bitrate: 1047 kbps
Codec: FLAC
================================================================================




Oasis - Complete Singles Collection '94-'05 (2006) 25CD Japanese Limited Edition Box Set [Re-Up]

Oasis - Some Might Say (1995)
EAC | FLAC | Image (Cue&Log) ~ 134 Mb | Mp3 (CBR320) ~ 48 Mb
Label: Epic/Sony | # EICP 705 | Time: 00:18:52 | Scans included

"Some Might Say," inspired as it is by the Small Faces, might be described as a cross between the sensational "Whatever" and "Cigarettes and Alcohol." Like the Bunnymen's "Bring on the Dancing Horses," it's all but an "Oasis best-of" in a song, as incredibly hooky and great as anything they've done to date, with the Gallaghers doing a nice bluesy harmony before a theatrical lyric-trill on the chorus words "in the rain" catch the listener. May it sell a million copies. "Talk Tonight," another acoustic track for Noel to sing, was inspired by the Fall of '94 near-breakup of the band in Los Angeles, when he walked out, and it's probably the most vulnerable track they've attempted as a result (a far cry from Liam's ever-present bluster). Lastly, "Acquiesce" and the faster, harder "Headshrinker" are more appealing guitar rockers via the Small Faces' blues-chord heavy rock angle. As a final note, let me say that if you compile the 10 non-LP tracks from Cigarettes and Alcohol, Whatever and Some Might Say, plus "Slide Away" and "Live Forever," you've got an LP that's twice as good as the otherwise sharp Definitely Maybe; yes folks, they're getting better. Way better. That they are overcoming the anti-English bias in the States of late is cause for celebration as well.

Jack Rabid, Allmusic.com

Tracklist:

01. Some Might Say (05:27)
02. Talk Tonight (04:21)
03. Acquiesce (04:24)
04. Headshrinker (04:38)


Exact Audio Copy V1.0 beta 3 from 29. August 2011

EAC extraction logfile from 28. September 2014, 16:42

Oasis / Some Might Say (EICP 705)

Used drive : ASUS DRW-24F1ST Adapter: 2 ID: 1

Read mode : Secure
Utilize accurate stream : Yes
Defeat audio cache : Yes
Make use of C2 pointers : No

Read offset correction : 6
Overread into Lead-In and Lead-Out : No
Fill up missing offset samples with silence : Yes
Delete leading and trailing silent blocks : No
Null samples used in CRC calculations : Yes
Used interface : Native Win32 interface for Win NT & 2000

Used output format : Internal WAV Routines
Sample format : 44.100 Hz; 16 Bit; Stereo


TOC of the extracted CD

Track | Start | Length | Start sector | End sector
––––––––––––––––––––––––––––-
1 | 0:00.00 | 5:27.69 | 0 | 24593
2 | 5:27.69 | 4:21.58 | 24594 | 44226
3 | 9:49.52 | 4:24.25 | 44227 | 64051
4 | 14:14.02 | 4:38.65 | 64052 | 84966


Range status and errors

Selected range

Filename D:\Le Snow\Oasis - Some Might Say (EICP 705).wav

Peak level 100.0 %
Extraction speed 2.2 X
Range quality 100.0 %
Test CRC 6D9F3D89
Copy CRC 6D9F3D89
Copy OK

No errors occurred


AccurateRip summary

Track 1 not present in database
Track 2 not present in database
Track 3 not present in database
Track 4 not present in database

None of the tracks are present in the AccurateRip database

End of status report

==== Log checksum EC68794FBC375C935BD5B8EFCBF1C5A9211D10491F6FFFBA4291B7825A357389 ====

foobar2000 1.2 / Dynamic Range Meter 1.1.1
log date: 2015-01-13 17:17:27

––––––––––––––––––––––––––––––––––––––––
Analyzed: Oasis / Some Might Say (EICP 705)
––––––––––––––––––––––––––––––––––––––––

DR Peak RMS Duration Track
––––––––––––––––––––––––––––––––––––––––
DR11 0.00 dB -11.76 dB 5:28 01-Some Might Say
DR11 -0.16 dB -13.51 dB 4:22 02-Talk Tonight
DR12 0.00 dB -12.28 dB 4:24 03-Acquiesce
DR12 -0.06 dB -12.46 dB 4:39 04-Headshrinker
––––––––––––––––––––––––––––––––––––––––

Number of tracks: 4
Official DR value: DR11

Samplerate: 44100 Hz
Channels: 2
Bits per sample: 16
Bitrate: 959 kbps
Codec: FLAC
================================================================================




Oasis - Complete Singles Collection '94-'05 (2006) 25CD Japanese Limited Edition Box Set [Re-Up]

Oasis - Roll With It (1995)
EAC | FLAC | Image (Cue&Log) ~ 128 Mb | Mp3 (CBR320) ~ 44 Mb
Label: Epic/Sony | # EICP 706 | Time: 00:17:14 | Scans included

The import Roll With It single is an equally good pickup along with the Morning Glory LP, continuing the band's commitment to excellent non-LP material. The live-at-Glastonbury version of "Live Forever" serves only to prove that tens of thousands in England know all that hit song's lyrics and can sing along, but "Rockin' Chair" should have made the LP, with its outrageously ample hooks and Liam's more worried, more modest delivery, while "It's Better People" is the latest fine installment in Noel's acoustic-only songs for him to sing.

Jack Rabid, Allmusic.com

Tracklist:

01. Roll With It (03:59)
02. It's Better People (03:59)
03. Rockin' Chair (04:35)
04. Live Forever (Live At Glastonbury '95) (04:40)


Exact Audio Copy V1.0 beta 3 from 29. August 2011

EAC extraction logfile from 29. September 2014, 15:31

Oasis / Roll With It (EICP 706)

Used drive : ASUS DRW-24F1ST Adapter: 2 ID: 1

Read mode : Secure
Utilize accurate stream : Yes
Defeat audio cache : Yes
Make use of C2 pointers : No

Read offset correction : 6
Overread into Lead-In and Lead-Out : No
Fill up missing offset samples with silence : Yes
Delete leading and trailing silent blocks : No
Null samples used in CRC calculations : Yes
Used interface : Native Win32 interface for Win NT & 2000

Used output format : Internal WAV Routines
Sample format : 44.100 Hz; 16 Bit; Stereo


TOC of the extracted CD

Track | Start | Length | Start sector | End sector
––––––––––––––––––––––––––––-
1 | 0:00.00 | 3:59.20 | 0 | 17944
2 | 3:59.20 | 3:59.17 | 17945 | 35886
3 | 7:58.37 | 4:35.63 | 35887 | 56574
4 | 12:34.25 | 4:40.15 | 56575 | 77589


Range status and errors

Selected range

Filename D:\Le Snow\Oasis - Roll With It (EICP 706).wav

Peak level 94.9 %
Extraction speed 2.1 X
Range quality 99.9 %
Test CRC 77BA6692
Copy CRC 77BA6692
Copy OK

No errors occurred


AccurateRip summary

Track 1 cannot be verified as accurate (confidence 2) [C2DB4099], AccurateRip returned [AFACE9EC] (AR v2)
Track 2 cannot be verified as accurate (confidence 2) [B6FFB214], AccurateRip returned [CF8819B2] (AR v2)
Track 3 cannot be verified as accurate (confidence 2) [64012431], AccurateRip returned [C35A1CF6] (AR v2)
Track 4 cannot be verified as accurate (confidence 2) [70358DE7], AccurateRip returned [1EC14B4E] (AR v2)

No tracks could be verified as accurate
You may have a different pressing from the one(s) in the database

End of status report

==== Log checksum DC572C67E06FD34997EACBACD2CE4604694FA6B1A82A93AA3C957141B727A82B ====

foobar2000 1.2 / Dynamic Range Meter 1.1.1
log date: 2015-01-13 17:17:33

––––––––––––––––––––––––––––––––––––––––
Analyzed: Oasis / Roll With It (EICP 706)
––––––––––––––––––––––––––––––––––––––––

DR Peak RMS Duration Track
––––––––––––––––––––––––––––––––––––––––
DR6 -0.45 dB -7.30 dB 3:59 01-Roll With It
DR9 -3.91 dB -14.49 dB 3:59 02-It's Better People
DR8 -0.45 dB -9.47 dB 4:36 03-Rockin' Chair
DR8 -0.45 dB -9.27 dB 4:40 04-Live Forever (Live At Glastonbury '95)
––––––––––––––––––––––––––––––––––––––––

Number of tracks: 4
Official DR value: DR8

Samplerate: 44100 Hz
Channels: 2
Bits per sample: 16
Bitrate: 1001 kbps
Codec: FLAC
================================================================================




Oasis - Complete Singles Collection '94-'05 (2006) 25CD Japanese Limited Edition Box Set [Re-Up]

Oasis - Morning Glory (1995)
EAC | FLAC | Image (Cue&Log) ~ 134 Mb | Mp3 (CBR320) ~ 46 Mb
Label: Epic/Sony | # EICP 707 | Time: 00:18:18 | Scans included

"Morning Glory" is a song by Oasis, written by Noel Gallagher, and released on the band's second album (What's the Story) Morning Glory? in September 1995. It was given an Australian-only single release and was also a radio single in the United States.

Tracklist:

01. Morning Glory (05:01)
02. It's Better People (03:59)
03. Rockin' Chair (04:35)
04. Live Forever (Live At Glastonbury '95) (04:41)


Exact Audio Copy V1.0 beta 3 from 29. August 2011

EAC extraction logfile from 28. September 2014, 17:49

Oasis / Morning Glory (EICP 707)

Used drive : ASUS DRW-24F1ST Adapter: 2 ID: 1

Read mode : Secure
Utilize accurate stream : Yes
Defeat audio cache : Yes
Make use of C2 pointers : No

Read offset correction : 6
Overread into Lead-In and Lead-Out : No
Fill up missing offset samples with silence : Yes
Delete leading and trailing silent blocks : No
Null samples used in CRC calculations : Yes
Used interface : Native Win32 interface for Win NT & 2000

Used output format : Internal WAV Routines
Sample format : 44.100 Hz; 16 Bit; Stereo


TOC of the extracted CD

Track | Start | Length | Start sector | End sector
––––––––––––––––––––––––––––-
1 | 0:00.00 | 5:01.40 | 0 | 22614
2 | 5:01.40 | 3:59.20 | 22615 | 40559
3 | 9:00.60 | 4:35.62 | 40560 | 61246
4 | 13:36.47 | 4:41.56 | 61247 | 82377


Range status and errors

Selected range

Filename D:\Le Snow\Oasis - Morning Glory (EICP 707).wav

Peak level 99.4 %
Extraction speed 2.2 X
Range quality 100.0 %
Test CRC CE990ECD
Copy CRC CE990ECD
Copy OK

No errors occurred


AccurateRip summary

Track 1 not present in database
Track 2 not present in database
Track 3 not present in database
Track 4 not present in database

None of the tracks are present in the AccurateRip database

End of status report

==== Log checksum 1CD5C6BF93A86459F0A362E5EC045406031C82C1169B670B9ACEC2E5EFD6087F ====

foobar2000 1.2 / Dynamic Range Meter 1.1.1
log date: 2015-01-13 17:17:39

––––––––––––––––––––––––––––––––––––––––
Analyzed: Oasis / Morning Glory (EICP 707)
––––––––––––––––––––––––––––––––––––––––

DR Peak RMS Duration Track
––––––––––––––––––––––––––––––––––––––––
DR4 -3.10 dB -8.16 dB 5:02 01-Morning Glory
DR9 -3.51 dB -14.09 dB 3:59 02-It's Better People
DR8 -0.05 dB -9.07 dB 4:36 03-Rockin' Chair
DR8 -0.05 dB -8.87 dB 4:42 04-Live Forever (Live At Glastonbury '95)
––––––––––––––––––––––––––––––––––––––––

Number of tracks: 4
Official DR value: DR7

Samplerate: 44100 Hz
Channels: 2
Bits per sample: 16
Bitrate: 994 kbps
Codec: FLAC
================================================================================




Oasis - Complete Singles Collection '94-'05 (2006) 25CD Japanese Limited Edition Box Set [Re-Up]

Oasis - Wonderwall (1995)
EAC | FLAC | Image (Cue&Log) ~ 150 Mb | Mp3 (CBR320) ~ 49 Mb
Label: Epic/Sony | # EICP 708 | Time: 00:19:43 | Scans included

On the Wonderwall single, "Round Are Way" continues Oasis' Beatles fixation, sounding exactly like George Harrison's Revolver track, "I Want to Tell You" – they even burglarize Ringo's triplets! – with fab '60s horns. The LP's "Swamp Song" finally gets a full four minutes, and "The Masterplan" is another Noel vehicle, but is full-band this time, gentle pop with more smart horns.

Jack Rabid, Allmusic.com

Tracklist:

01. Wonderwall (04:18)
02. Round Are Way (05:41)
03. The Swamp Song (04:19)
04. The Masterplan (05:23)


Exact Audio Copy V1.0 beta 3 from 29. August 2011

EAC extraction logfile from 28. September 2014, 20:14

Oasis / Wonderwall (EICP 708)

Used drive : ASUS DRW-24F1ST Adapter: 2 ID: 1

Read mode : Secure
Utilize accurate stream : Yes
Defeat audio cache : Yes
Make use of C2 pointers : No

Read offset correction : 6
Overread into Lead-In and Lead-Out : No
Fill up missing offset samples with silence : Yes
Delete leading and trailing silent blocks : No
Null samples used in CRC calculations : Yes
Used interface : Native Win32 interface for Win NT & 2000

Used output format : Internal WAV Routines
Sample format : 44.100 Hz; 16 Bit; Stereo


TOC of the extracted CD

Track | Start | Length | Start sector | End sector
––––––––––––––––––––––––––––-
1 | 0:00.00 | 4:18.62 | 0 | 19411
2 | 4:18.62 | 5:41.70 | 19412 | 45056
3 | 10:00.57 | 4:19.38 | 45057 | 64519
4 | 14:20.20 | 5:23.42 | 64520 | 88786


Range status and errors

Selected range

Filename D:\Le Snow\Oasis - Wonderwall (EICP 708).wav

Peak level 100.0 %
Extraction speed 2.3 X
Range quality 100.0 %
Test CRC CD71ADB4
Copy CRC CD71ADB4
Copy OK

No errors occurred


AccurateRip summary

Track 1 cannot be verified as accurate (confidence 3) [76B03F0A], AccurateRip returned [59E3B8FD] (AR v2)
Track 2 cannot be verified as accurate (confidence 2) [A91B54D8], AccurateRip returned [DD2889BE] (AR v2)
Track 3 cannot be verified as accurate (confidence 2) [BF83906B], AccurateRip returned [9A75F783] (AR v2)
Track 4 cannot be verified as accurate (confidence 2) [066DAFD2], AccurateRip returned [15F3A42F] (AR v2)

No tracks could be verified as accurate
You may have a different pressing from the one(s) in the database

End of status report

==== Log checksum 2A81832B3DDEBA5D9CA0A02E6550102BF8EEA813CF8CA1FE1E91CF80BEC7D697 ====

foobar2000 1.2 / Dynamic Range Meter 1.1.1
log date: 2015-01-13 17:17:45

––––––––––––––––––––––––––––––––––––––––
Analyzed: Oasis / Wonderwall (EICP 708)
––––––––––––––––––––––––––––––––––––––––

DR Peak RMS Duration Track
––––––––––––––––––––––––––––––––––––––––
DR7 -0.09 dB -8.64 dB 4:19 01-Wonderwall
DR5 0.00 dB -6.23 dB 5:42 02-Round Are Way
DR4 0.00 dB -5.27 dB 4:20 03-The Swamp Song
DR6 0.00 dB -8.63 dB 5:24 04-The Masterplan
––––––––––––––––––––––––––––––––––––––––

Number of tracks: 4
Official DR value: DR5

Samplerate: 44100 Hz
Channels: 2
Bits per sample: 16
Bitrate: 1034 kbps
Codec: FLAC
================================================================================




Oasis - Complete Singles Collection '94-'05 (2006) 25CD Japanese Limited Edition Box Set [Re-Up]

Oasis - Don't Look Back In Anger (1996)
EAC | FLAC | Image (Cue&Log) ~ 135 Mb | Mp3 (CBR320) ~ 43 Mb
Label: Epic/Sony | # EICP 709 | Time: 00:16:58 | Scans included

Here's import EP number nine. On this EP, "Step Out" finally appears, sung with gusto by guitarist Noel Gallagher. It was originally recorded for the now blockbuster (What's the Story) Morning Glory?, but was deleted at the last minute because the digging chorus is (once again!) overtly burglarized, this time from Stevie Wonder's 1966 number three hit, "Uptight (Everything's Alright)." Perpetual thief Gallagher thus has to share the royalties with Wonder (and his co-writers Cosby and Moy). It's one of Gallagher's titillating fast ones in the manner of "Acquiesce" or "Morning Glory," as is the cover of U.K. glam legend Slade's "Cum on Feel the Noise" (a number one hit in Britain in 1973 that didn't even make the charts here, damn!). Oasis has well reclaimed this boisterous classic from the awful metal version by Quiet Riot (number five here in 1983, yuck!). In between, the stylish Mersey shuffle of "Underneath the Sky" is enticing, with a cool Liam Gallagher vocal. Most bands' singles can't match these ego-bloated, but always excellent, pop princes' supposed B-material.

Jack Rabid, Allmusic.com

Tracklist:

01. Don't Look Back In Anger (04:47)
02. Step Out (03:40)
03. Underneath The Sky (03:20)
04. Cum On Feel The Noize (05:09)


Exact Audio Copy V1.0 beta 3 from 29. August 2011

EAC extraction logfile from 29. September 2014, 12:27

Oasis / Don't Look Back In Anger (EICP 709)

Used drive : ASUS DRW-24F1ST Adapter: 2 ID: 1

Read mode : Secure
Utilize accurate stream : Yes
Defeat audio cache : Yes
Make use of C2 pointers : No

Read offset correction : 6
Overread into Lead-In and Lead-Out : No
Fill up missing offset samples with silence : Yes
Delete leading and trailing silent blocks : No
Null samples used in CRC calculations : Yes
Used interface : Native Win32 interface for Win NT & 2000

Used output format : Internal WAV Routines
Sample format : 44.100 Hz; 16 Bit; Stereo


TOC of the extracted CD

Track | Start | Length | Start sector | End sector
––––––––––––––––––––––––––––-
1 | 0:00.00 | 4:47.55 | 0 | 21579
2 | 4:47.55 | 3:40.45 | 21580 | 38124
3 | 8:28.25 | 3:20.57 | 38125 | 53181
4 | 11:49.07 | 5:09.18 | 53182 | 76374


Range status and errors

Selected range

Filename D:\Le Snow\Oasis - Don't Look Back In Anger (EICP 709).wav

Peak level 99.4 %
Extraction speed 2.2 X
Range quality 100.0 %
Test CRC 7B4AF7D8
Copy CRC 7B4AF7D8
Copy OK

No errors occurred


AccurateRip summary

Track 1 cannot be verified as accurate (confidence 2) [58593385], AccurateRip returned [6FC45140] (AR v2)
Track 2 cannot be verified as accurate (confidence 2) [C1876EFA], AccurateRip returned [D0D96E80] (AR v2)
Track 3 cannot be verified as accurate (confidence 2) [41E79B07], AccurateRip returned [2E8A0908] (AR v2)
Track 4 cannot be verified as accurate (confidence 2) [C7C03115], AccurateRip returned [1E12B366] (AR v2)

No tracks could be verified as accurate
You may have a different pressing from the one(s) in the database

End of status report

==== Log checksum 5348B165F2A5E2015EC8C6811CA90F63A63CF37D69D832DFD1BBD803619847F8 ====

foobar2000 1.2 / Dynamic Range Meter 1.1.1
log date: 2015-01-13 17:17:51

––––––––––––––––––––––––––––––––––––––––
Analyzed: Oasis / Don't Look Back In Anger (EICP 709)
––––––––––––––––––––––––––––––––––––––––

DR Peak RMS Duration Track
––––––––––––––––––––––––––––––––––––––––
DR5 -0.05 dB -6.78 dB 4:48 01-Don't Look Back In Anger
DR4 -0.05 dB -5.08 dB 3:41 02-Step Out
DR5 -0.05 dB -5.90 dB 3:21 03-Underneath The Sky
DR4 -0.05 dB -4.60 dB 5:09 04-Cum On Feel The Noize
––––––––––––––––––––––––––––––––––––––––

Number of tracks: 4
Official DR value: DR4

Samplerate: 44100 Hz
Channels: 2
Bits per sample: 16
Bitrate: 1075 kbps
Codec: FLAC
================================================================================




Oasis - Complete Singles Collection '94-'05 (2006) 25CD Japanese Limited Edition Box Set [Re-Up]

Oasis - Champagne Supernova (1996)
EAC | FLAC | Image (Cue&Log) ~ 142 Mb | Mp3 (CBR320) ~ 47 Mb
Label: Epic/Sony | # EICP 710 | Time: 00:19:10 | Scans included

Though only an album track off their mega album "(What's The Story) Morning Glory?", most people in Britain will recognise Champagne Supernova when it comes on the radio. One of Noel's finest tracks, why it was only ever released as a single in Australia is beyond me! The best bits are the climax at the second chorus, and Paul Weller's excellent solo! This CD contains the radio edit [fading out on the solo - unfortunately :(], the album version, and Slide Away from their (equally excellent to WTSMG) debut album, Definitely Maybe. All in all an essential purchase for every Oasis fan!

Mrs. S. L. Onions, Amazon.co.uk

Tracklist:

01. Champagne Supernova (Radio Edit) (05:08)
02. Champagne Supernova (Album Version) (07:31)
03. Slide Away (06:30)


Exact Audio Copy V1.0 beta 3 from 29. August 2011

EAC extraction logfile from 29. September 2014, 13:28

Oasis / Champagne Supernova (EICP 710)

Used drive : ASUS DRW-24F1ST Adapter: 2 ID: 1

Read mode : Secure
Utilize accurate stream : Yes
Defeat audio cache : Yes
Make use of C2 pointers : No

Read offset correction : 6
Overread into Lead-In and Lead-Out : No
Fill up missing offset samples with silence : Yes
Delete leading and trailing silent blocks : No
Null samples used in CRC calculations : Yes
Used interface : Native Win32 interface for Win NT & 2000

Used output format : Internal WAV Routines
Sample format : 44.100 Hz; 16 Bit; Stereo


TOC of the extracted CD

Track | Start | Length | Start sector | End sector
––––––––––––––––––––––––––––-
1 | 0:00.00 | 5:08.15 | 0 | 23114
2 | 5:08.15 | 7:31.30 | 23115 | 56969
3 | 12:39.45 | 6:30.67 | 56970 | 86286


Range status and errors

Selected range

Filename D:\Le Snow\Oasis - Champagne Supernova (EICP 710).wav

Peak level 100.0 %
Extraction speed 2.2 X
Range quality 100.0 %
Test CRC B01CB9E6
Copy CRC B01CB9E6
Copy OK

No errors occurred


AccurateRip summary

Track 1 not present in database
Track 2 not present in database
Track 3 not present in database

None of the tracks are present in the AccurateRip database

End of status report

==== Log checksum BBB68785D7838F41829379B3CB224AC65F1020D6448DB8933CCBBD230D330AA7 ====

foobar2000 1.2 / Dynamic Range Meter 1.1.1
log date: 2015-01-13 17:17:57

––––––––––––––––––––––––––––––––––––––––
Analyzed: Oasis / Champagne Supernova (EICP 710)
––––––––––––––––––––––––––––––––––––––––

DR Peak RMS Duration Track
––––––––––––––––––––––––––––––––––––––––
DR3 0.00 dB -5.37 dB 5:08 01-Champagne Supernova (Radio Edit)
DR3 -0.68 dB -6.94 dB 7:31 02-Champagne Supernova (Album Version)
DR5 0.00 dB -6.95 dB 6:31 03-Slide Away
––––––––––––––––––––––––––––––––––––––––

Number of tracks: 3
Official DR value: DR4

Samplerate: 44100 Hz
Channels: 2
Bits per sample: 16
Bitrate: 1017 kbps
Codec: FLAC
================================================================================




Oasis - Complete Singles Collection '94-'05 (2006) 25CD Japanese Limited Edition Box Set [Re-Up]

Oasis - D'You Know What I Mean? (1997)
EAC | FLAC | Image (Cue&Log) ~ 162 Mb | Mp3 (CBR320) ~ 52 Mb
Label: Epic/Sony | # EICP 711 | Time: 00:21:07 | Scans included

The first ever boring Oasis single. It's kind of groovy, dancy, shaker-maker stuff, but whereas in the past indisputably great songs made up for Noel Gallagher's trite lyrics, there isn't much of a riff or a tune for his brother, Liam, to croon. And here Noel's words are more than trite, they're just plain awful, with a cavalcade of clichés, a bushel of boring columbaria for his heroes (lines taken from the Beatles, Dylan, Sam Cooke by way of Lennon, and another Small Faces allusion), and a worthless "All my people, you all listen-up" chorus – a blatantly failing attempt at an "All You Need Is Love"-type worldly statement. This Rutles-like sham/opus goes on too long, too. This single probably has a lot to do with why the new LP sold half as many copies in its second week of release than it did the first. But one listen to the third LP, Be Here Now, shows Oasis had better songs to pick as a single, as further indicated by the (as usual) quality B-sides. "Stay Young" is the best, another bouncy stomp from a quintet who has the sass for the style. "Angel Child" is another installment of the Noel acoustic series that he does well, and the cover of David Bowie's 1977 Heroes classic, "Heroes," is surprisingly pulled off, with the elder Gallagher recreating Robert Fripp's spacey, echoing, cruising guitar lead that throbs through the song (his vocal is an anguished as Bowie's as well), even if they neglect the weird keyboard textures inserted by the song's co-writer, Brian Eno.

Jack Rabid, Allmusic.com

Tracklist:

01. D'You Know What I Mean? (07:22)
02. Stay Young (05:06)
03. Angel Child (Demo) (04:28)
04. Heroes (04:10)


Exact Audio Copy V1.0 beta 3 from 29. August 2011

EAC extraction logfile from 28. September 2014, 20:34

Oasis / D'You Know What I Mean? (EICP 711)

Used drive : ASUS DRW-24F1ST Adapter: 2 ID: 1

Read mode : Secure
Utilize accurate stream : Yes
Defeat audio cache : Yes
Make use of C2 pointers : No

Read offset correction : 6
Overread into Lead-In and Lead-Out : No
Fill up missing offset samples with silence : Yes
Delete leading and trailing silent blocks : No
Null samples used in CRC calculations : Yes
Used interface : Native Win32 interface for Win NT & 2000

Used output format : Internal WAV Routines
Sample format : 44.100 Hz; 16 Bit; Stereo


TOC of the extracted CD

Track | Start | Length | Start sector | End sector
––––––––––––––––––––––––––––-
1 | 0:00.00 | 7:22.32 | 0 | 33181
2 | 7:22.32 | 5:06.08 | 33182 | 56139
3 | 12:28.40 | 4:28.12 | 56140 | 76251
4 | 16:56.52 | 4:10.43 | 76252 | 95044


Range status and errors

Selected range

Filename D:\Le Snow\Oasis - D'You Know What I Mean (EICP 711).wav

Peak level 100.0 %
Extraction speed 2.2 X
Range quality 99.9 %
Test CRC 6FBB1184
Copy CRC 6FBB1184
Copy OK

No errors occurred


AccurateRip summary

Track 1 cannot be verified as accurate (confidence 3) [51E7939C], AccurateRip returned [C3E598B8] (AR v2)
Track 2 cannot be verified as accurate (confidence 3) [2F2E9D88], AccurateRip returned [D6BCF0A6] (AR v2)
Track 3 cannot be verified as accurate (confidence 3) [B2B7B136], AccurateRip returned [28A0A573] (AR v2)
Track 4 cannot be verified as accurate (confidence 3) [3863EB6C], AccurateRip returned [F19C467D] (AR v2)

No tracks could be verified as accurate
You may have a different pressing from the one(s) in the database

End of status report

==== Log checksum 2D1E90602C92E2B6FF1EF4B9BB7337A03D178E9D15F2AC472544575DFFDB9443 ====

foobar2000 1.2 / Dynamic Range Meter 1.1.1
log date: 2015-01-13 17:18:04

––––––––––––––––––––––––––––––––––––––––
Analyzed: Oasis / D'You Know What I Mean? (EICP 711)
––––––––––––––––––––––––––––––––––––––––

DR Peak RMS Duration Track
––––––––––––––––––––––––––––––––––––––––
DR4 0.00 dB -5.56 dB 7:22 01-D'You Know What I Mean?
DR5 0.00 dB -6.25 dB 5:06 02-Stay Young
DR10 0.00 dB -10.70 dB 4:28 03-Angel Child (Demo)
DR6 0.00 dB -6.20 dB 4:11 04-Heroes
––––––––––––––––––––––––––––––––––––––––

Number of tracks: 4
Official DR value: DR6

Samplerate: 44100 Hz
Channels: 2
Bits per sample: 16
Bitrate: 1049 kbps
Codec: FLAC
================================================================================




Oasis - Complete Singles Collection '94-'05 (2006) 25CD Japanese Limited Edition Box Set [Re-Up]

Oasis - Stand By Me (1997)
EAC | FLAC | Image (Cue&Log) ~ 174 Mb | Mp3 (CBR320) ~ 55 Mb
Label: Epic/Sony | # EICP 712 | Time: 00:21:51 | Scans included

"Stand by Me" is a song by Oasis, written by lead guitarist, Noel Gallagher. It was the second single to be released from the band's third album, Be Here Now. The song peaked at number two in the UK charts in September 1997, being kept from the top spot by the record-breaking Elton John single "Candle in the Wind 1997", which was re-recorded and released in memory of Diana, Princess of Wales, who had died three weeks before the release of "Stand by Me". Despite this, "Stand by Me" still went gold in the UK. It ended up at #44 in the end of year charts in the UK for 1997.

Tracklist:

01. Stand By Me (05:55)
02. (I Got) The Fever (05:14)
03. My Sister Lover (05:58)
04. Going Nowhere (04:42)


Exact Audio Copy V1.0 beta 3 from 29. August 2011

EAC extraction logfile from 29. September 2014, 12:48

Oasis / Stand By Me (EICP 712)

Used drive : ASUS DRW-24F1ST Adapter: 2 ID: 1

Read mode : Secure
Utilize accurate stream : Yes
Defeat audio cache : Yes
Make use of C2 pointers : No

Read offset correction : 6
Overread into Lead-In and Lead-Out : No
Fill up missing offset samples with silence : Yes
Delete leading and trailing silent blocks : No
Null samples used in CRC calculations : Yes
Used interface : Native Win32 interface for Win NT & 2000

Used output format : Internal WAV Routines
Sample format : 44.100 Hz; 16 Bit; Stereo


TOC of the extracted CD

Track | Start | Length | Start sector | End sector
––––––––––––––––––––––––––––-
1 | 0:00.00 | 5:55.72 | 0 | 26696
2 | 5:55.72 | 5:14.45 | 26697 | 50291
3 | 11:10.42 | 5:58.48 | 50292 | 77189
4 | 17:09.15 | 4:42.17 | 77190 | 98356


Range status and errors

Selected range

Filename D:\Le Snow\Oasis - Stand By Me (EICP 712).wav

Peak level 100.0 %
Extraction speed 2.3 X
Range quality 99.9 %
Test CRC 936C7E9F
Copy CRC 936C7E9F
Copy OK

No errors occurred


AccurateRip summary

Track 1 cannot be verified as accurate (confidence 1) [818EA405], AccurateRip returned [F0FD3170] (AR v2)
Track 2 cannot be verified as accurate (confidence 1) [055D61B2], AccurateRip returned [AD8AAE93] (AR v2)
Track 3 cannot be verified as accurate (confidence 1) [F1E6D6D7], AccurateRip returned [65322F9D] (AR v2)
Track 4 cannot be verified as accurate (confidence 1) [F583E991], AccurateRip returned [D2BB06FE] (AR v2)

No tracks could be verified as accurate
You may have a different pressing from the one(s) in the database

End of status report

==== Log checksum 1F8D5619A97C7BDA57F7C1DD17E8D4D542A04C62E40B65D03C2EC69A8C2FE424 ====

foobar2000 1.2 / Dynamic Range Meter 1.1.1
log date: 2015-01-13 17:18:12

––––––––––––––––––––––––––––––––––––––––
Analyzed: Oasis / Stand By Me (EICP 712)
––––––––––––––––––––––––––––––––––––––––

DR Peak RMS Duration Track
––––––––––––––––––––––––––––––––––––––––
DR5 0.00 dB -5.86 dB 5:56 01-Stand By Me
DR4 0.00 dB -5.19 dB 5:15 02-(I Got) The Fever
DR5 0.00 dB -5.54 dB 5:59 03-My Sister Lover
DR5 0.00 dB -6.75 dB 4:42 04-Going Nowhere
––––––––––––––––––––––––––––––––––––––––

Number of tracks: 4
Official DR value: DR5

Samplerate: 44100 Hz
Channels: 2
Bits per sample: 16
Bitrate: 1081 kbps
Codec: FLAC
================================================================================




Oasis - Complete Singles Collection '94-'05 (2006) 25CD Japanese Limited Edition Box Set [Re-Up]

Oasis - All Around The World (1998)
EAC | FLAC | Image (Cue&Log) ~ 187 Mb | Mp3 (CBR320) ~ 59 Mb
Label: Epic/Sony | # EICP 713 | Time: 00:23:16 | Scans included

When "All Around the World" was released as the third single from Oasis' third album, Be Here Now, in the U.K. in January 1998, it became, at nine-and-a-half-minutes, the longest number one hit in British history. The song embodies Oasis' ambitions and its traditionalism. The melody has a folkie, sing-song quality that makes it ideal for singing along, yet its production is blown up grandiosely with strings and the group's ever-present wall of guitar noise to create an anthemic effect, especially as Liam Gallagher sings, "It's gonna be okay." The EP follows with three non-LP tracks. The cautionary tale "The Fame" addresses the pitfalls of same, and it segues into "Flashbax," another well-produced track that easily could have fit on Be Here Now. The 30-year anniversary cover of the Rolling Stones' "Street Fighting Man" is a logical choice for Oasis, since the original employed some of the same production techniques that the group favors, and while they don't bring anything new to the song, they give it credible reading.

William Ruhlmann, Allmusic.com

Tracklist:

01. All Around The World (09:39)
02. The Fame (04:35)
03. Flashbax (05:07)
04. Street Fighting Man (03:54)


Exact Audio Copy V1.0 beta 3 from 29. August 2011

EAC extraction logfile from 29. September 2014, 13:49

Oasis / All Around The World (EICP 713)

Used drive : ASUS DRW-24F1ST Adapter: 2 ID: 1

Read mode : Secure
Utilize accurate stream : Yes
Defeat audio cache : Yes
Make use of C2 pointers : No

Read offset correction : 6
Overread into Lead-In and Lead-Out : No
Fill up missing offset samples with silence : Yes
Delete leading and trailing silent blocks : No
Null samples used in CRC calculations : Yes
Used interface : Native Win32 interface for Win NT & 2000

Used output format : Internal WAV Routines
Sample format : 44.100 Hz; 16 Bit; Stereo


TOC of the extracted CD

Track | Start | Length | Start sector | End sector
––––––––––––––––––––––––––––-
1 | 0:00.00 | 9:39.10 | 0 | 43434
2 | 9:39.10 | 4:35.27 | 43435 | 64086
3 | 14:14.37 | 5:07.38 | 64087 | 87149
4 | 19:22.00 | 3:54.52 | 87150 | 104751


Range status and errors

Selected range

Filename D:\Le Snow\Oasis - All Around The World (EICP 713).wav

Peak level 100.0 %
Extraction speed 2.3 X
Range quality 99.9 %
Test CRC 1DB930F3
Copy CRC 1DB930F3
Copy OK

No errors occurred


AccurateRip summary

Track 1 cannot be verified as accurate (confidence 1) [16AF9902], AccurateRip returned [624DB94F] (AR v2)
Track 2 cannot be verified as accurate (confidence 1) [BE428C9A], AccurateRip returned [F05D9CC5] (AR v2)
Track 3 cannot be verified as accurate (confidence 1) [3100DD5A], AccurateRip returned [29F7E93E] (AR v2)
Track 4 cannot be verified as accurate (confidence 1) [52FE0F9E], AccurateRip returned [B515B7DA] (AR v2)

No tracks could be verified as accurate
You may have a different pressing from the one(s) in the database

End of status report

==== Log checksum 4271D1C3929182DE040B8BC4C6D8A6757B0BCA2B52C318610BE15E32AEAF671E ====

foobar2000 1.2 / Dynamic Range Meter 1.1.1
log date: 2015-01-13 17:18:20

––––––––––––––––––––––––––––––––––––––––
Analyzed: Oasis / All Around The World (EICP 713)
––––––––––––––––––––––––––––––––––––––––

DR Peak RMS Duration Track
––––––––––––––––––––––––––––––––––––––––
DR5 0.00 dB -6.85 dB 9:39 01-All Around The World
DR5 0.00 dB -5.88 dB 4:35 02-The Fame
DR5 0.00 dB -6.25 dB 5:08 03-Flashbax
DR4 0.00 dB -6.27 dB 3:55 04-Street Fighting Man
––––––––––––––––––––––––––––––––––––––––

Number of tracks: 4
Official DR value: DR5

Samplerate: 44100 Hz
Channels: 2
Bits per sample: 16
Bitrate: 1088 kbps
Codec: FLAC
================================================================================




Oasis - Complete Singles Collection '94-'05 (2006) 25CD Japanese Limited Edition Box Set [Re-Up]

Oasis - Don't Go Away (1998)
EAC | FLAC | Image (Cue&Log) ~ 141 Mb | Mp3 (CBR320) ~ 47 Mb
Label: Epic/Sony | # EICP 714 | Time: 00:18:07 | Scans included

"Don't Go Away" is a song by the English rock band Oasis from their third album, Be Here Now, written by the band's lead guitarist Noel Gallagher. The song was released as a single only in Japan, peaking at number 48 on the Oricon chart. It was also a success in the United States, where it hit #5 on the Billboard Hot Modern Rock Tracks chart in late 1997. It was the band's last major hit in the United States until 2008's "The Shock of the Lightning".

Tracklist:

01. Don't Go Away (04:43)
02. Cigarettes & Alcohol (Live) (04:58)
03. Sad Song (04:16)
04. Fade Away (Warchild Version) (04:08)


Exact Audio Copy V1.0 beta 3 from 29. August 2011

EAC extraction logfile from 28. September 2014, 19:55

Oasis / Don't Go Away (EICP 714)

Used drive : ASUS DRW-24F1ST Adapter: 2 ID: 1

Read mode : Secure
Utilize accurate stream : Yes
Defeat audio cache : Yes
Make use of C2 pointers : No

Read offset correction : 6
Overread into Lead-In and Lead-Out : No
Fill up missing offset samples with silence : Yes
Delete leading and trailing silent blocks : No
Null samples used in CRC calculations : Yes
Used interface : Native Win32 interface for Win NT & 2000

Used output format : Internal WAV Routines
Sample format : 44.100 Hz; 16 Bit; Stereo


TOC of the extracted CD

Track | Start | Length | Start sector | End sector
––––––––––––––––––––––––––––-
1 | 0:00.00 | 4:43.05 | 0 | 21229
2 | 4:43.05 | 4:58.47 | 21230 | 43626
3 | 9:41.52 | 4:16.33 | 43627 | 62859
4 | 13:58.10 | 4:08.67 | 62860 | 81526


Range status and errors

Selected range

Filename D:\Le Snow\Oasis - Don't Go Away (EICP 714).wav

Peak level 100.0 %
Extraction speed 2.2 X
Range quality 100.0 %
Test CRC 57CEC75A
Copy CRC 57CEC75A
Copy OK

No errors occurred


AccurateRip summary

Track 1 cannot be verified as accurate (confidence 7) [B2EB4280], AccurateRip returned [AB48B859] (AR v2)
Track 2 cannot be verified as accurate (confidence 7) [79217281], AccurateRip returned [B9E352A1] (AR v2)
Track 3 cannot be verified as accurate (confidence 8) [F885DA2D], AccurateRip returned [68BE003B] (AR v2)
Track 4 cannot be verified as accurate (confidence 7) [44A514DE], AccurateRip returned [B1F64EF3] (AR v2)

No tracks could be verified as accurate
You may have a different pressing from the one(s) in the database

End of status report

==== Log checksum EE243D5C444B8BA43D50436F328F1941D97AC592A367F483BB4B86D477A15BBF ====

foobar2000 1.2 / Dynamic Range Meter 1.1.1
log date: 2015-01-13 17:18:26

––––––––––––––––––––––––––––––––––––––––
Analyzed: Oasis / Don't Go Away (EICP 714)
––––––––––––––––––––––––––––––––––––––––

DR Peak RMS Duration Track
––––––––––––––––––––––––––––––––––––––––
DR6 0.00 dB -7.96 dB 4:43 01-Don't Go Away
DR5 0.00 dB -6.20 dB 4:59 02-Cigarettes & Alcohol (Live)
DR8 0.00 dB -9.66 dB 4:16 03-Sad Song
DR6 0.00 dB -8.02 dB 4:09 04-Fade Away (Warchild Version)
––––––––––––––––––––––––––––––––––––––––

Number of tracks: 4
Official DR value: DR6

Samplerate: 44100 Hz
Channels: 2
Bits per sample: 16
Bitrate: 1044 kbps
Codec: FLAC
================================================================================




Oasis - Complete Singles Collection '94-'05 (2006) 25CD Japanese Limited Edition Box Set [Re-Up]

Oasis - Go Let It Out! (2000)
EAC | FLAC | Image (Cue&Log) ~ 92 Mb | Mp3 (CBR320) ~ 34 Mb
Label: Epic/Sony | # EICP 715 | Time: 00:12:56 | Scans included

This single presents the last two tracks from Oasis' disappointing fourth album of new recordings, Standing on the Shoulder of Giants, "Go Let It Out" and "Let's All Make Believe," followed by one non-LP track, "(As Long as They've Got) Cigarettes in Hell." The new song is in the same psychedelic mode as the album, but it is a minor effort appropriately relegated to a B-side. "I don't mind not going to heaven," sings Noel Gallagher, "as long as they've got cigarettes in hell." At the end of the track, he obligingly coughs heavily, demonstrating the addiction that inspires the lyric.

William Ruhlmann, Allmusic.com

Tracklist:

01. Go Let It Out! (04:41)
02. Let's All Make Believe (03:53)
03. (As Long As They've Got) Cigarettes In Hell (04:21)


Exact Audio Copy V1.0 beta 3 from 29. August 2011

EAC extraction logfile from 29. September 2014, 14:48

Oasis / Go Let It Out! (EICP 715)

Used drive : ASUS DRW-24F1ST Adapter: 2 ID: 1

Read mode : Secure
Utilize accurate stream : Yes
Defeat audio cache : Yes
Make use of C2 pointers : No

Read offset correction : 6
Overread into Lead-In and Lead-Out : No
Fill up missing offset samples with silence : Yes
Delete leading and trailing silent blocks : No
Null samples used in CRC calculations : Yes
Used interface : Native Win32 interface for Win NT & 2000

Used output format : Internal WAV Routines
Sample format : 44.100 Hz; 16 Bit; Stereo


TOC of the extracted CD

Track | Start | Length | Start sector | End sector
––––––––––––––––––––––––––––-
1 | 0:00.00 | 4:41.03 | 0 | 21077
2 | 4:41.03 | 3:53.50 | 21078 | 38602
3 | 8:34.53 | 4:21.49 | 38603 | 58226


Range status and errors

Selected range

Filename D:\Le Snow\Oasis - Go Let It Out! (EICP 715).wav

Peak level 100.0 %
Extraction speed 2.1 X
Range quality 100.0 %
Test CRC 4B649B6C
Copy CRC 4B649B6C
Copy OK

No errors occurred


AccurateRip summary

Track 1 not present in database
Track 2 not present in database
Track 3 not present in database

None of the tracks are present in the AccurateRip database

End of status report

==== Log checksum B60460A1EE422AFFF1662ABE4B5430C3134A40A56757D1016F0AC42058B2E47B ====

foobar2000 1.2 / Dynamic Range Meter 1.1.1
log date: 2015-01-13 17:18:30

––––––––––––––––––––––––––––––––––––––––
Analyzed: Oasis / Go Let It Out! (EICP 715)
––––––––––––––––––––––––––––––––––––––––

DR Peak RMS Duration Track
––––––––––––––––––––––––––––––––––––––––
DR7 -0.01 dB -8.44 dB 4:41 01-Go Let It Out!
DR5 -0.01 dB -8.25 dB 3:54 02-Let's All Make Believe
DR7 0.00 dB -8.52 dB 4:22 03-(As Long As They've Got) Cigarettes In Hell
––––––––––––––––––––––––––––––––––––––––

Number of tracks: 3
Official DR value: DR6

Samplerate: 44100 Hz
Channels: 2
Bits per sample: 16
Bitrate: 950 kbps
Codec: FLAC
================================================================================




Oasis - Complete Singles Collection '94-'05 (2006) 25CD Japanese Limited Edition Box Set [Re-Up]

Oasis - Who Feels Love? (2000)
EAC | FLAC | Image (Cue&Log) ~ 114 Mb | Mp3 (CBR320) ~ 39 Mb
Label: Epic/Sony | # EICP 716 | Time: 00:15:40 | Scans included

During 2000, a tumultuous year for British supergroup Oasis, "Sunday Morning Call" was the final single released off Standing on the Shoulder of Giants, the band's fourth album. Noel Gallagher, the group's chief songwriter, had left Oasis in the midst of a world tour, leaving the band's future up in the air yet again, and this single only fueled rumors that the end was near. In what can be considered a solo project for Gallagher, the three songs here are all written and sung by the band's elder statesman. "Sunday Morning Call" is classic pop balladry that had become his strong suit. "Carry Us All" is also mid-tempo, but carries a message of self-reliance and boasts the attitude of a survivor. The single's closing track, "Full On," is a raucous number that is big, boisterous, and bombastic.

Douglas Siwek, Allmusic.com

Tracklist:

01. Who Feels Love? (05:44)
02. One Way Road (04:03)
03. Helter Skelter (05:51)


Exact Audio Copy V1.0 beta 3 from 29. August 2011

EAC extraction logfile from 28. September 2014, 18:08

Oasis / Who Feels Love? (EICP 716)

Used drive : ASUS DRW-24F1ST Adapter: 2 ID: 1

Read mode : Secure
Utilize accurate stream : Yes
Defeat audio cache : Yes
Make use of C2 pointers : No

Read offset correction : 6
Overread into Lead-In and Lead-Out : No
Fill up missing offset samples with silence : Yes
Delete leading and trailing silent blocks : No
Null samples used in CRC calculations : Yes
Used interface : Native Win32 interface for Win NT & 2000

Used output format : Internal WAV Routines
Sample format : 44.100 Hz; 16 Bit; Stereo


TOC of the extracted CD

Track | Start | Length | Start sector | End sector
––––––––––––––––––––––––––––-
1 | 0:00.00 | 5:44.71 | 0 | 25870
2 | 5:44.71 | 4:03.14 | 25871 | 44109
3 | 9:48.10 | 5:52.00 | 44110 | 70509


Range status and errors

Selected range

Filename D:\Le Snow\Oasis - Who Feels Love (EICP 716).wav

Peak level 98.0 %
Extraction speed 2.2 X
Range quality 100.0 %
Test CRC 09A699ED
Copy CRC 09A699ED
Copy OK

No errors occurred


AccurateRip summary

Track 1 not present in database
Track 2 not present in database
Track 3 not present in database

None of the tracks are present in the AccurateRip database

End of status report

==== Log checksum B8DE9E39B667412C3214F59B57F71A0DF3D4D1463927392EA6B850606D9C4425 ====

foobar2000 1.2 / Dynamic Range Meter 1.1.1
log date: 2015-01-13 17:18:40

––––––––––––––––––––––––––––––––––––––––
Analyzed: Oasis / Who Feels Love? (EICP 716)
––––––––––––––––––––––––––––––––––––––––

DR Peak RMS Duration Track
––––––––––––––––––––––––––––––––––––––––
DR6 -0.17 dB -7.85 dB 5:45 01-Who Feels Love?
DR6 -0.18 dB -8.18 dB 4:03 02-One Way Road
DR5 -0.18 dB -6.47 dB 5:52 03-Helter Skelter
––––––––––––––––––––––––––––––––––––––––

Number of tracks: 3
Official DR value: DR6

Samplerate: 44100 Hz
Channels: 2
Bits per sample: 16
Bitrate: 988 kbps
Codec: FLAC
================================================================================




Oasis - Complete Singles Collection '94-'05 (2006) 25CD Japanese Limited Edition Box Set [Re-Up]

Oasis - Sunday Morning Call (2000)
EAC | FLAC | Image (Cue&Log) ~ 100 Mb | Mp3 (CBR320) ~ 34 Mb
Label: Epic/Sony | # EICP 717 | Time: 00:13:30 | Scans included

"Sunday Morning Call" is a song by Oasis, taken from their fourth studio album, Standing on the Shoulder of Giants. The song was released as the third and final single from the album on 3 July 2000, peaking at number 4 in the UK charts. Written and sung by Noel Gallagher, it is the first time Noel has taken over lead vocal from brother Liam on an A-side of a single since "Don't Look Back in Anger" in 1996.

Tracklist:

01. Sunday Morning Call (05:13)
02. Carry Us All (04:00)
03. Full On (04:16)


Exact Audio Copy V1.0 beta 3 from 29. August 2011

EAC extraction logfile from 29. September 2014, 15:03

Oasis / Sunday Morning Call (EICP 717)

Used drive : ASUS DRW-24F1ST Adapter: 2 ID: 1

Read mode : Secure
Utilize accurate stream : Yes
Defeat audio cache : Yes
Make use of C2 pointers : No

Read offset correction : 6
Overread into Lead-In and Lead-Out : No
Fill up missing offset samples with silence : Yes
Delete leading and trailing silent blocks : No
Null samples used in CRC calculations : Yes
Used interface : Native Win32 interface for Win NT & 2000

Used output format : Internal WAV Routines
Sample format : 44.100 Hz; 16 Bit; Stereo


TOC of the extracted CD

Track | Start | Length | Start sector | End sector
––––––––––––––––––––––––––––-
1 | 0:00.00 | 5:13.50 | 0 | 23524
2 | 5:13.50 | 4:00.02 | 23525 | 41526
3 | 9:13.52 | 4:16.73 | 41527 | 60799


Range status and errors

Selected range

Filename D:\Le Snow\Oasis - Sunday Morning Call (EICP 717).wav

Peak level 97.9 %
Extraction speed 2.1 X
Range quality 100.0 %
Test CRC 665F23BB
Copy CRC 665F23BB
Copy OK

No errors occurred


AccurateRip summary

Track 1 cannot be verified as accurate (confidence 2) [B7F04824], AccurateRip returned [B32A65F0] (AR v2)
Track 2 cannot be verified as accurate (confidence 2) [1B3DB59F], AccurateRip returned [743C7EDD] (AR v2)
Track 3 cannot be verified as accurate (confidence 2) [E35B28D4], AccurateRip returned [D0637B7F] (AR v2)

No tracks could be verified as accurate
You may have a different pressing from the one(s) in the database

End of status report

==== Log checksum 7AAB1F1C94F0A26F5D89A7D76CCB1B4F90F50BC6FFDF1BE52591C62BD05ABCF2 ====

foobar2000 1.2 / Dynamic Range Meter 1.1.1
log date: 2015-01-13 17:18:46

––––––––––––––––––––––––––––––––––––––––
Analyzed: Oasis / Sunday Morning Call (EICP 717)
––––––––––––––––––––––––––––––––––––––––

DR Peak RMS Duration Track
––––––––––––––––––––––––––––––––––––––––
DR4 -1.01 dB -7.77 dB 5:14 01-Sunday Morning Call
DR5 -0.68 dB -7.57 dB 4:00 02-Carry Us All
DR6 -0.18 dB -7.20 dB 4:17 03-Full On
––––––––––––––––––––––––––––––––––––––––

Number of tracks: 3
Official DR value: DR5

Samplerate: 44100 Hz
Channels: 2
Bits per sample: 16
Bitrate: 998 kbps
Codec: FLAC
================================================================================




Oasis - Complete Singles Collection '94-'05 (2006) 25CD Japanese Limited Edition Box Set [Re-Up]

Oasis - The Hindu Times (2002)
EAC | FLAC | Image (Cue&Log) ~ 69 Mb | Mp3 (CBR320) ~ 25 Mb
Label: Epic/Sony | # EICP 718 | Time: 00:10:07 | Scans included

"The Hindu Times" is a song by Oasis. It was the first single released from their fifth album Heathen Chemistry on 15 April 2002. It was written by lead guitarist Noel Gallagher. Noel got the name "The Hindu Times" from a t-shirt he saw in a charity shop. The song was the band's sixth number one single on the UK Singles Chart, staying on top for one week before being dislodged by the Sugababes' "Freak Like Me". The single also topped the charts in Canada and Italy, and peaked at number two in the Republic of Ireland and Spain.

Tracklist:

01. The Hindu Times (03:52)
02. Just Getting Older (03:17)
03. Idler's Dream (02:56)


Exact Audio Copy V1.0 beta 3 from 29. August 2011

EAC extraction logfile from 28. September 2014, 19:11

Oasis / The Hindu Times (EICP 718)

Used drive : ASUS DRW-24F1ST Adapter: 2 ID: 1

Read mode : Secure
Utilize accurate stream : Yes
Defeat audio cache : Yes
Make use of C2 pointers : No

Read offset correction : 6
Overread into Lead-In and Lead-Out : No
Fill up missing offset samples with silence : Yes
Delete leading and trailing silent blocks : No
Null samples used in CRC calculations : Yes
Used interface : Native Win32 interface for Win NT & 2000

Used output format : Internal WAV Routines
Sample format : 44.100 Hz; 16 Bit; Stereo


TOC of the extracted CD

Track | Start | Length | Start sector | End sector
––––––––––––––––––––––––––––-
1 | 0:00.00 | 3:52.65 | 0 | 17464
2 | 3:52.65 | 3:17.60 | 17465 | 32299
3 | 7:10.50 | 2:56.35 | 32300 | 45534


Range status and errors

Selected range

Filename D:\Le Snow\Oasis - The Hindu Times (EICP 718).wav

Peak level 100.0 %
Extraction speed 2.0 X
Range quality 100.0 %
Test CRC 7F5B2835
Copy CRC 7F5B2835
Copy OK

No errors occurred


AccurateRip summary

Track 1 cannot be verified as accurate (confidence 2) [4EAE1E0F], AccurateRip returned [1B9A2714] (AR v2)
Track 2 cannot be verified as accurate (confidence 2) [0AFEFED0], AccurateRip returned [B36A2E7C] (AR v2)
Track 3 cannot be verified as accurate (confidence 2) [5A31D5BA], AccurateRip returned [56F6AA0B] (AR v2)

No tracks could be verified as accurate
You may have a different pressing from the one(s) in the database

End of status report

==== Log checksum 457B67DDC0E97157E7BDA668ED2CE0013448C0BACFFB7DF4E4BC2C4978E69833 ====

foobar2000 1.2 / Dynamic Range Meter 1.1.1
log date: 2015-01-13 17:18:50

––––––––––––––––––––––––––––––––––––––––
Analyzed: Oasis / The Hindu Times (EICP 718)
––––––––––––––––––––––––––––––––––––––––

DR Peak RMS Duration Track
––––––––––––––––––––––––––––––––––––––––
DR5 0.00 dB -5.61 dB 3:53 01-The Hindu Times
DR5 0.00 dB -7.30 dB 3:18 02-Just Getting Older
DR6 0.00 dB -9.45 dB 2:56 03-Idler's Dream
––––––––––––––––––––––––––––––––––––––––

Number of tracks: 3
Official DR value: DR5

Samplerate: 44100 Hz
Channels: 2
Bits per sample: 16
Bitrate: 925 kbps
Codec: FLAC
================================================================================




Oasis - Complete Singles Collection '94-'05 (2006) 25CD Japanese Limited Edition Box Set [Re-Up]

Oasis - Stop Crying Your Heart Out (2002)
EAC | FLAC | Image (Cue&Log) ~ 99 Mb | Mp3 (CBR320) ~ 34 Mb
Label: Epic/Sony | # EICP 719 | Time: 00:13:55 | Scans included

"Stop Crying Your Heart Out" is a song by Oasis. The song was written by Noel Gallagher and produced by Oasis. It was released on 17 May 2002 as the second single from the band's fifth studio album, Heathen Chemistry (2002). Liam Gallagher is the lead vocalist on the track, with Noel on backing vocals. The power ballad was heavily compared to the band's previous single "Slide Away", while its hook is reminiscent of their song "Don't Look Back in Anger". It garnered mixed reviews from music critics. While some praised Noel's ability to lighten the mood of his target audience, others felt that the song was disappointing and forgettable. "Stop Crying Your Heart Out" debuted and peaked at number two on the UK Singles Chart and reached a peak of number six on the UK Indie Chart. It peaked at number one in Italy, and reached the top-twenty in Belgium, Denmark, Finland and Norway.

Tracklist:

01. Stop Crying Your Heart Out (05:02)
02. Thank You For The Good Times (04:32)
03. Shout It Out Loud (04:20)


Exact Audio Copy V1.0 beta 3 from 29. August 2011

EAC extraction logfile from 29. September 2014, 14:25

Oasis / Stop Crying Your Heart Out (EICP 719)

Used drive : ASUS DRW-24F1ST Adapter: 2 ID: 1

Read mode : Secure
Utilize accurate stream : Yes
Defeat audio cache : Yes
Make use of C2 pointers : No

Read offset correction : 6
Overread into Lead-In and Lead-Out : No
Fill up missing offset samples with silence : Yes
Delete leading and trailing silent blocks : No
Null samples used in CRC calculations : Yes
Used interface : Native Win32 interface for Win NT & 2000

Used output format : Internal WAV Routines
Sample format : 44.100 Hz; 16 Bit; Stereo


TOC of the extracted CD

Track | Start | Length | Start sector | End sector
––––––––––––––––––––––––––––-
1 | 0:00.00 | 5:02.40 | 0 | 22689
2 | 5:02.40 | 4:32.12 | 22690 | 43101
3 | 9:34.52 | 4:20.58 | 43102 | 62659


Range status and errors

Selected range

Filename D:\Le Snow\Oasis - Stop Crying Your Heart Out (EICP 719).wav

Peak level 100.0 %
Extraction speed 2.1 X
Range quality 100.0 %
Test CRC 01F9C073
Copy CRC 01F9C073
Copy OK

No errors occurred


AccurateRip summary

Track 1 cannot be verified as accurate (confidence 14) [A0159B40], AccurateRip returned [9686927A] (AR v2)
Track 2 cannot be verified as accurate (confidence 13) [38601AD2], AccurateRip returned [7DF49862] (AR v2)
Track 3 cannot be verified as accurate (confidence 12) [CBAA4F02], AccurateRip returned [8987C2E5] (AR v2)

No tracks could be verified as accurate
You may have a different pressing from the one(s) in the database

End of status report

==== Log checksum B5A06BE7F340797D30414C7582E04DF4E989DF9D1EFDA3BCE1B83D0B7769A77F ====

foobar2000 1.2 / Dynamic Range Meter 1.1.1
log date: 2015-01-13 17:18:54

––––––––––––––––––––––––––––––––––––––––
Analyzed: Oasis / Stop Crying Your Heart Out (EICP 719)
––––––––––––––––––––––––––––––––––––––––

DR Peak RMS Duration Track
––––––––––––––––––––––––––––––––––––––––
DR6 0.00 dB -8.32 dB 5:03 01-Stop Crying Your Heart Out
DR5 0.00 dB -5.87 dB 4:32 02-Thank You For The Good Times
DR5 0.00 dB -6.83 dB 4:21 03-Shout It Out Loud
––––––––––––––––––––––––––––––––––––––––

Number of tracks: 3
Official DR value: DR5

Samplerate: 44100 Hz
Channels: 2
Bits per sample: 16
Bitrate: 973 kbps
Codec: FLAC
================================================================================




Oasis - Complete Singles Collection '94-'05 (2006) 25CD Japanese Limited Edition Box Set [Re-Up]

Oasis - Little By Little / She Is Love (2002)
EAC | FLAC | Image (Cue&Log) ~ 89 Mb | Mp3 (CBR320) ~ 31 Mb
Label: Epic/Sony | # EICP 720 | Time: 00:12:12 | Scans included

Heathan Chemistry was a great album by Oasis. This third single of the album is another great Oasis song.
Little by Little is a fantastic song. It's one of the top 5 songs off the Heathan Chemistry album and I'd put it their top 20 songs they've ever done. Noel once again puts a lot of emotion and feeling into the song. This is also one of the songs that Noel sings.

She is Love is another good song. I believe Noel wrote this one for his girlfriend, but I'm not 100% sure. If you'd listen to the lyrics it sure does sound like it. Noel also sings this one.

My Generation is a great cover. It's equal to the version sung by The Who. Oasis played this one a lot on their last tour and this is the only place to get it.

This single isn't a required one to get. I have it because I'm obsessed with this band and I think they are the greatest. Unless you collect Oasis like I do there really isn't a reason to pick this album up unless you want My Generation that bad. Go get Heathan Chemistry and enjoy all the songs off it.

Matthew Edmundson, Amazon.com

Tracklist:

01. Little By Little (04:56)
02. She Is Love (03:11)
03. My Generation (04:04)


Exact Audio Copy V1.0 beta 3 from 29. August 2011

EAC extraction logfile from 28. September 2014, 19:24

Oasis / Little By Little - She Is Love (EICP 720)

Used drive : ASUS DRW-24F1ST Adapter: 2 ID: 1

Read mode : Secure
Utilize accurate stream : Yes
Defeat audio cache : Yes
Make use of C2 pointers : No

Read offset correction : 6
Overread into Lead-In and Lead-Out : No
Fill up missing offset samples with silence : Yes
Delete leading and trailing silent blocks : No
Null samples used in CRC calculations : Yes
Used interface : Native Win32 interface for Win NT & 2000

Used output format : Internal WAV Routines
Sample format : 44.100 Hz; 16 Bit; Stereo


TOC of the extracted CD

Track | Start | Length | Start sector | End sector
––––––––––––––––––––––––––––-
1 | 0:00.00 | 4:56.45 | 0 | 22244
2 | 4:56.45 | 3:11.40 | 22245 | 36609
3 | 8:08.10 | 4:04.30 | 36610 | 54939


Range status and errors

Selected range

Filename D:\Le Snow\Oasis - Little By Little - She Is Love (EICP 720).wav

Peak level 100.0 %
Extraction speed 2.1 X
Range quality 100.0 %
Test CRC 58F3202D
Copy CRC 58F3202D
Copy OK

No errors occurred


AccurateRip summary

Track 1 accurately ripped (confidence 3) [9314D4A4] (AR v2)
Track 2 accurately ripped (confidence 3) [4E546610] (AR v2)
Track 3 accurately ripped (confidence 3) [F49BE131] (AR v2)

All tracks accurately ripped

End of status report

==== Log checksum 75BC0C64EAE6C48A6581E4B76F97675E83CD814FAAA79DC490424E222F94343D ====

foobar2000 1.2 / Dynamic Range Meter 1.1.1
log date: 2015-01-13 17:18:58

––––––––––––––––––––––––––––––––––––––––
Analyzed: Oasis / Little By Little / She Is Love (EICP 720)
––––––––––––––––––––––––––––––––––––––––

DR Peak RMS Duration Track
––––––––––––––––––––––––––––––––––––––––
DR5 0.00 dB -7.53 dB 4:57 01-Little By Little
DR7 0.00 dB -9.01 dB 3:12 02-She Is Love
DR5 0.00 dB -7.21 dB 4:04 03-My Generation
––––––––––––––––––––––––––––––––––––––––

Number of tracks: 3
Official DR value: DR6

Samplerate: 44100 Hz
Channels: 2
Bits per sample: 16
Bitrate: 985 kbps
Codec: FLAC
================================================================================




Oasis - Complete Singles Collection '94-'05 (2006) 25CD Japanese Limited Edition Box Set [Re-Up]

Oasis - Songbird (2003)
EAC | FLAC | Image (Cue&Log) ~ 93 Mb | Mp3 (CBR320) ~ 31 Mb
Label: Epic/Sony | # EICP 721 | Time: 00:12:19 | Scans included

The title track, "Songbird", is Liam Gallagher's 2nd song writing contribution to the Oasis vault. And it's definitely a step up from "Little James" on SOTSOG. I was first a little disappointed that this track is only 2 plus minutes long, but I now think it works best this way. A very beautiful song, which has to have been written for his lady. Simple, poignant, and a great asset to the Oasis team.

Second track - You've Got the Heart of a Star… man, I've got to tell you. Noel Gallagher and his b-sides, blow my mind. I consider myself to be the BIGGEST Oasis fan around, but this guy.. if he could write a solo album, of all acoustic stuff, I'd be the happiest man in the world.

Third track - a live version of "Colombia." Maybe the funnest song off their debut, "definitely maybe," they hit it on the nose with this performance. You can't help but tap your foot, and sing along. I've seen this performed live, and it's one of my faves. A great addition to end this disc!

Jon Danuser, Amazon.com

Tracklist:

01. Songbird (02:08)
02. (You've Got) The Heart Of A Star (05:22)
03. Columbia (Live) (04:48)


Exact Audio Copy V1.0 beta 3 from 29. August 2011

EAC extraction logfile from 28. September 2014, 18:44

Oasis / Songbird (EICP 721)

Used drive : ASUS DRW-24F1ST Adapter: 2 ID: 1

Read mode : Secure
Utilize accurate stream : Yes
Defeat audio cache : Yes
Make use of C2 pointers : No

Read offset correction : 6
Overread into Lead-In and Lead-Out : No
Fill up missing offset samples with silence : Yes
Delete leading and trailing silent blocks : No
Null samples used in CRC calculations : Yes
Used interface : Native Win32 interface for Win NT & 2000

Used output format : Internal WAV Routines
Sample format : 44.100 Hz; 16 Bit; Stereo


TOC of the extracted CD

Track | Start | Length | Start sector | End sector
––––––––––––––––––––––––––––-
1 | 0:00.00 | 2:08.43 | 0 | 9642
2 | 2:08.43 | 5:22.52 | 9643 | 33844
3 | 7:31.20 | 4:48.48 | 33845 | 55492


Range status and errors

Selected range

Filename D:\Le Snow\Oasis - Songbird (EICP 721).wav

Peak level 100.0 %
Extraction speed 2.1 X
Range quality 100.0 %
Test CRC F592028E
Copy CRC F592028E
Copy OK

No errors occurred


AccurateRip summary

Track 1 not present in database
Track 2 not present in database
Track 3 not present in database

None of the tracks are present in the AccurateRip database

End of status report

==== Log checksum 15A63FCE16AB35F46E6D9ABDEB2366C81A8D257B95E38DAC2B33C704D1941F09 ====

foobar2000 1.2 / Dynamic Range Meter 1.1.1
log date: 2015-01-13 17:19:02

––––––––––––––––––––––––––––––––––––––––
Analyzed: Oasis / Songbird (EICP 721)
––––––––––––––––––––––––––––––––––––––––

DR Peak RMS Duration Track
––––––––––––––––––––––––––––––––––––––––
DR8 0.00 dB -9.63 dB 2:09 01-Songbird
DR6 0.00 dB -7.71 dB 5:23 02-(You've Got) The Heart Of A Star
DR6 0.00 dB -6.73 dB 4:49 03-Columbia (Live)
––––––––––––––––––––––––––––––––––––––––

Number of tracks: 3
Official DR value: DR6

Samplerate: 44100 Hz
Channels: 2
Bits per sample: 16
Bitrate: 1018 kbps
Codec: FLAC
================================================================================




Oasis - Complete Singles Collection '94-'05 (2006) 25CD Japanese Limited Edition Box Set [Re-Up]

Oasis - Lyla (2005)
EAC | FLAC | Image (Cue&Log) ~ 81 Mb | Mp3 (CBR320) ~ 28 Mb
Label: Epic/Sony | # EICP 722 | Time: 00:10:48 | Scans included

"Lyla" is a song by Oasis. The song was released as the first single from the band's sixth album Don't Believe the Truth, released in May 2005. The song was written by Oasis guitarist Noel Gallagher, who has varyingly described the track as "specifically designed for pogoing", "annoyingly catchy", and the "poppiest thing since "Roll with It"". Noting the varied influences of the song, Gallagher says that it's "a bit like… The Soundtrack of Our Lives doing The Who on Skol in a psychedelic city in the sky, or something".

Tracklist:

01. Lyla (05:12)
02. Eyeball Tickler (02:47)
03. Won't Let You Down (02:48)


Exact Audio Copy V1.0 beta 3 from 29. August 2011

EAC extraction logfile from 28. September 2014, 19:37

Oasis / Lyla (EICP 722)

Used drive : ASUS DRW-24F1ST Adapter: 2 ID: 1

Read mode : Secure
Utilize accurate stream : Yes
Defeat audio cache : Yes
Make use of C2 pointers : No

Read offset correction : 6
Overread into Lead-In and Lead-Out : No
Fill up missing offset samples with silence : Yes
Delete leading and trailing silent blocks : No
Null samples used in CRC calculations : Yes
Used interface : Native Win32 interface for Win NT & 2000

Used output format : Internal WAV Routines
Sample format : 44.100 Hz; 16 Bit; Stereo


TOC of the extracted CD

Track | Start | Length | Start sector | End sector
––––––––––––––––––––––––––––-
1 | 0:00.00 | 5:12.64 | 0 | 23463
2 | 5:12.64 | 2:47.74 | 23464 | 36062
3 | 8:00.63 | 2:48.10 | 36063 | 48672


Range status and errors

Selected range

Filename D:\Le Snow\Oasis - Lyla (EICP 722).wav

Peak level 98.9 %
Extraction speed 2.0 X
Range quality 100.0 %
Test CRC 8EDD63A9
Copy CRC 8EDD63A9
Copy OK

No errors occurred


AccurateRip summary

Track 1 cannot be verified as accurate (confidence 14) [FC50B57A], AccurateRip returned [36BD2A8D] (AR v2)
Track 2 cannot be verified as accurate (confidence 14) [545FD42F], AccurateRip returned [D55C79B9] (AR v2)
Track 3 cannot be verified as accurate (confidence 15) [A4DC9BC4], AccurateRip returned [9F12AEB4] (AR v2)

No tracks could be verified as accurate
You may have a different pressing from the one(s) in the database

End of status report

==== Log checksum 31CB02E1B27C2CA63C663BC9A1FD8A0076CF570199DDCBEB36D969E0A4DD7CC8 ====

foobar2000 1.2 / Dynamic Range Meter 1.1.1
log date: 2015-01-13 17:19:06

––––––––––––––––––––––––––––––––––––––––
Analyzed: Oasis / Lyla (EICP 722)
––––––––––––––––––––––––––––––––––––––––

DR Peak RMS Duration Track
––––––––––––––––––––––––––––––––––––––––
DR5 -0.09 dB -6.42 dB 5:13 01-Lyla
DR6 -0.09 dB -6.60 dB 2:48 02-Eyeball Tickler
DR6 -0.09 dB -6.78 dB 2:48 03-Won't Let You Down
––––––––––––––––––––––––––––––––––––––––

Number of tracks: 3
Official DR value: DR5

Samplerate: 44100 Hz
Channels: 2
Bits per sample: 16
Bitrate: 1006 kbps
Codec: FLAC
================================================================================




Oasis - Complete Singles Collection '94-'05 (2006) 25CD Japanese Limited Edition Box Set [Re-Up]

Oasis - The Importance Of Being Idle (2005)
EAC | FLAC | Image (Cue&Log) ~ 71 Mb | Mp3 (CBR320) ~ 24 Mb
Label: Epic/Sony | # EICP 723 | Time: 00:09:33 | Scans included

"The Importance of Being Idle" is a song by Oasis from their sixth album, Don't Believe the Truth, written and sung by lead guitarist Noel Gallagher. It was the second single released from the album in the UK, on 22 August 2005, where it debuted at number one. It was also the first time that Oasis earned two successive number ones in the same calendar year. "The Importance of Being Idle" would prove to be the band's last UK No. 1 hit prior to their 2009 break up. It was written by Gallagher in the summer of 2004, before the band made their final attempt at recording what would become Don't Believe the Truth. He got the title from the book of the same name, which he found whilst cleaning out a garage (it belonged not to him, but to girlfriend Sara McDonald).

Tracklist:

01. The Importance Of Being Idle (03:42)
02. Pass Me Down The Wine (03:51)
03. The Quiet Ones (01:59)


Exact Audio Copy V1.0 beta 3 from 29. August 2011

EAC extraction logfile from 29. September 2014, 15:51

Oasis / The Importance Of Being Idle (EICP 723)

Used drive : ASUS DRW-24F1ST Adapter: 2 ID: 1

Read mode : Secure
Utilize accurate stream : Yes
Defeat audio cache : Yes
Make use of C2 pointers : No

Read offset correction : 6
Overread into Lead-In and Lead-Out : No
Fill up missing offset samples with silence : Yes
Delete leading and trailing silent blocks : No
Null samples used in CRC calculations : Yes
Used interface : Native Win32 interface for Win NT & 2000

Used output format : Internal WAV Routines
Sample format : 44.100 Hz; 16 Bit; Stereo


TOC of the extracted CD

Track | Start | Length | Start sector | End sector
––––––––––––––––––––––––––––-
1 | 0:00.00 | 3:42.30 | 0 | 16679
2 | 3:42.30 | 3:51.08 | 16680 | 34012
3 | 7:33.38 | 1:59.47 | 34013 | 42984


Range status and errors

Selected range

Filename D:\Le Snow\Oasis - The Importance Of Being Idle (EICP 723).wav

Peak level 98.9 %
Extraction speed 1.9 X
Range quality 100.0 %
Test CRC 921A1921
Copy CRC 921A1921
Copy OK

No errors occurred


AccurateRip summary

Track 1 not present in database
Track 2 not present in database
Track 3 not present in database

None of the tracks are present in the AccurateRip database

End of status report

==== Log checksum 1C8A418FFF883EBF27EA25E5C826E66AC1A69A1A94D909C0BCF95752D7E21383 ====

foobar2000 1.2 / Dynamic Range Meter 1.1.1
log date: 2015-01-13 17:19:09

––––––––––––––––––––––––––––––––––––––––
Analyzed: Oasis / The Importance Of Being Idle (EICP 723)
––––––––––––––––––––––––––––––––––––––––

DR Peak RMS Duration Track
––––––––––––––––––––––––––––––––––––––––
DR6 -0.09 dB -7.00 dB 3:42 01-The Importance Of Being Idle
DR5 -0.09 dB -5.89 dB 3:51 02-Pass Me Down The Wine
DR6 -0.09 dB -7.07 dB 2:00 03-The Quiet Ones
––––––––––––––––––––––––––––––––––––––––

Number of tracks: 3
Official DR value: DR5

Samplerate: 44100 Hz
Channels: 2
Bits per sample: 16
Bitrate: 1004 kbps
Codec: FLAC
================================================================================




Oasis - Complete Singles Collection '94-'05 (2006) 25CD Japanese Limited Edition Box Set [Re-Up]

Oasis - Let There Be Love (2005)
EAC | FLAC | Image (Cue&Log) ~ 107 Mb | Mp3 (CBR320) ~ 36 Mb
Label: Epic/Sony | # EICP 724 | Time: 00:15:15 | Scans included

"Let There Be Love" is a song by Oasis from their sixth studio album, Don't Believe the Truth. Written by Noel Gallagher, it is the third Oasis song to feature Liam and Noel on lead vocals, the first being the B-side "Acquiesce", and the second being "Put Yer Money Where Yer Mouth Is". It was released on 28 November 2005 as the third single from the album in the UK (see 2005 in British music), and the second single in the US. It reached number two in the UK charts, capping a very successful year for the band. Many critics cited this song as proof that Oasis had returned to the form seen in the mid-90s.

Tracklist:

01. Let There Be Love (05:30)
02. Sittin' Here In Silence (On My Own) (01:58)
03. Rock 'n' Roll Star (Live At City Of Manchester Stadium July '05) (07:47)


Exact Audio Copy V1.0 beta 3 from 29. August 2011

EAC extraction logfile from 28. September 2014, 19:00

Oasis / Let There Be Love (EICP 724)

Used drive : ASUS DRW-24F1ST Adapter: 2 ID: 1

Read mode : Secure
Utilize accurate stream : Yes
Defeat audio cache : Yes
Make use of C2 pointers : No

Read offset correction : 6
Overread into Lead-In and Lead-Out : No
Fill up missing offset samples with silence : Yes
Delete leading and trailing silent blocks : No
Null samples used in CRC calculations : Yes
Used interface : Native Win32 interface for Win NT & 2000

Used output format : Internal WAV Routines
Sample format : 44.100 Hz; 16 Bit; Stereo


TOC of the extracted CD

Track | Start | Length | Start sector | End sector
––––––––––––––––––––––––––––-
1 | 0:00.00 | 5:30.27 | 0 | 24776
2 | 5:30.27 | 1:58.20 | 24777 | 33646
3 | 7:28.47 | 7:47.02 | 33647 | 68673


Range status and errors

Selected range

Filename D:\Le Snow\Oasis - Let There Be Love (EICP 724).wav

Peak level 98.9 %
Extraction speed 2.1 X
Range quality 99.9 %
Test CRC 6304CA07
Copy CRC 6304CA07
Copy OK

No errors occurred


AccurateRip summary

Track 1 cannot be verified as accurate (confidence 10) [5CFD2A6D], AccurateRip returned [ECD011BA] (AR v2)
Track 2 cannot be verified as accurate (confidence 11) [6016F264], AccurateRip returned [193F2799] (AR v2)
Track 3 cannot be verified as accurate (confidence 10) [6381B040], AccurateRip returned [26DBD063] (AR v2)

No tracks could be verified as accurate
You may have a different pressing from the one(s) in the database

End of status report

==== Log checksum CFDC9E128925C4EF256B23FF4059DBB1B26A7B0E8ACEC48C15FB0836EEF6DD24 ====

foobar2000 1.2 / Dynamic Range Meter 1.1.1
log date: 2015-01-13 17:19:14

––––––––––––––––––––––––––––––––––––––––
Analyzed: Oasis / Let There Be Love (EICP 724)
––––––––––––––––––––––––––––––––––––––––

DR Peak RMS Duration Track
––––––––––––––––––––––––––––––––––––––––
DR6 -0.09 dB -8.51 dB 5:30 01-Let There Be Love
DR6 -0.09 dB -9.04 dB 1:58 02-Sittin' Here In Silence (On My Own)
DR6 -0.09 dB -6.60 dB 7:47 03-Rock 'n' Roll Star (Live At City Of Manchester Stadium July '05)
––––––––––––––––––––––––––––––––––––––––

Number of tracks: 3
Official DR value: DR6

Samplerate: 44100 Hz
Channels: 2
Bits per sample: 16
Bitrate: 964 kbps
Codec: FLAC
================================================================================



Oasis - Complete Singles Collection '94-'05 (2006) 25CD Japanese Limited Edition Box Set [Re-Up]

Oasis - Complete Singles Collection '94-'05 (2006) 25CD Japanese Limited Edition Box Set [Re-Up]

All thanks to original releasers - KOIII & Le Snow

More interesting music in My Blog