Subcategories

Odyssice - Moon Drive plus (2003)

Posted By: gribovar
Odyssice - Moon Drive plus (2003)

Odyssice - Moon Drive plus (2003)
EAC Rip | FLAC (image+.cue+log) - 262 MB | MP3 CBR 320 kbps (LAME 3.93) - 88 MB | Covers - 19 MB
Genre: Instrumental Progressive Rock | RAR 3% Rec. | Label: Cyclops Records (CYCL 109)

Odyssice's first album, 'Moondrive', was originally released in 1996, comprising a 30 minute suite divided into five songs. This has now been remastered and reissued by Cyclops, along with bonus songs. Odyssice are an instrumental quartet and while drummer Menno Boomsa and bassist Pascal van de Pol keep it all together, there is no doubt that the melody stakes belong to keyboardist Jeroen van der Wiel and guitarist Bastiaan Peeters. While Jeroen trades licks with Bastiaan, he also does a fine job of providing a curtain of keyboards as a backdrop so that Bastiaan can provide Andy Latimer/David Gilmour/Gary Chandler -style lead lines against them.
Although there are no vocals they aren't missed just because there doesn't appear to be any room for them. This is extremely polished, with each musician knowing their place and working together to produce an album that is quite beautiful in some respects, and very interesting and enjoyable throughout. This isn't an album that is hard to listen to, the music flows and ebbs, but always with plenty of melody and a simple complexity. This isn't about playing music at the speed of light, or showing off as to how quickly things can be done but instead playing the music that suits the mood and the piece. An album for progheads who don't always want to be blown away or have to work at their listening pleasure.

Tracklist:
01. Frustrations
02. And So Am I
03. Different Questions
04. The Final decision
Bonus Tracks
05. Losing Her (from LP 'Exposion 1988')
06. Power Loc (live in Hedon, Zwolle 1998)

Total time: 37:38

Exact Audio Copy V1.0 beta 3 from 29. August 2011

EAC extraction logfile from 20. July 2012, 19:37

Odyssice / Moon Drive plus

Used drive : ASUS DRW-24B1LT Adapter: 4 ID: 0

Read mode : Secure
Utilize accurate stream : Yes
Defeat audio cache : Yes
Make use of C2 pointers : No

Read offset correction : 6
Overread into Lead-In and Lead-Out : No
Fill up missing offset samples with silence : Yes
Delete leading and trailing silent blocks : No
Null samples used in CRC calculations : Yes
Used interface : Native Win32 interface for Win NT & 2000

Used output format : User Defined Encoder
Selected bitrate : 1024 kBit/s
Quality : High
Add ID3 tag : Yes
Command line compressor : C:\Program Files (x86)\FLAC\flac.exe
Additional command line options : -6 -V -T "ARTIST=%artist%" -T "TITLE=%title%" -T "ALBUM=%albumtitle%" -T "DATE=%year%" -T "TRACKNUMBER=%tracknr%" -T "GENRE=%genre%" -T "COMMENT=%comment%" %source% -o %dest%


TOC of the extracted CD

Track | Start | Length | Start sector | End sector
––––––––––––––––––––––––––––-
1 | 0:00.00 | 8:14.07 | 0 | 37056
2 | 8:14.07 | 5:09.13 | 37057 | 60244
3 | 13:23.20 | 5:35.43 | 60245 | 85412
4 | 18:58.63 | 6:22.22 | 85413 | 114084
5 | 25:21.10 | 6:16.38 | 114085 | 142322
6 | 31:37.48 | 6:00.39 | 142323 | 169361
7 | 40:10.12 | 20:18.61 | 180762 | 272172


Range status and errors

Selected range

Filename Y:\EAC\wurensh\Odyssice\Odyssice - Moon Drive plus.wav

Peak level 99.7 %
Extraction speed 7.0 X
Range quality 100.0 %
Test CRC 1066122F
Copy CRC 1066122F
Copy OK

No errors occurred


AccurateRip summary

Track 1 accurately ripped (confidence 1) [475410E0] (AR v1)
Track 2 accurately ripped (confidence 1) [08B0B0EE] (AR v1)
Track 3 accurately ripped (confidence 1) [FC42C82F] (AR v1)
Track 4 accurately ripped (confidence 1) [7FBD2FEF] (AR v1)
Track 5 accurately ripped (confidence 1) [B60A5E3A] (AR v1)
Track 6 accurately ripped (confidence 1) [C9BA7E89] (AR v1)

All tracks accurately ripped

End of status report

–– CUETools DB Plugin V2.1.3

[CTDB TOCID: M_krDr0QGnqDahJHn6nxr467fgY-] disk not present in database, Submit result: M_krDr0QGnqDahJHn6nxr467fgY- has been uploaded

[CUETools log; Date: 18.05.2018 22:25:11; Version: 2.1.4]
CD-Extra data track length 20:18:61.
[CTDB TOCID: M_krDr0QGnqDahJHn6nxr467fgY-] found.
Track | CTDB Status
1 | (3/3) Accurately ripped
2 | (3/3) Accurately ripped
3 | (3/3) Accurately ripped
4 | (3/3) Accurately ripped
5 | (3/3) Accurately ripped
6 | (3/3) Accurately ripped
[AccurateRip ID: 000ada80-003be83c-570e2c07] found.
Track [ CRC | V2 ] Status
01 [475410e0|a24760a4] (2+0/2) Accurately ripped
02 [08b0b0ee|b8d203de] (2+0/2) Accurately ripped
03 [fc42c82f|3e84d65e] (2+0/2) Accurately ripped
04 [7fbd2fef|a93cc2d6] (2+0/2) Accurately ripped
05 [b60a5e3a|7d83b7e6] (2+0/2) Accurately ripped
06 [c9ba7e89|c794fd06] (1+1/2) Accurately ripped

Track Peak [ CRC32 ] [W/O NULL] [ LOG ]
– 99,7 [1066122F] [5FFE986F] CRC32
01 99,7 [90726E76] [5D9A959F]
02 99,7 [65E9FF1C] [9E5E870B]
03 99,7 [35D8C896] [7D166FA0]
04 99,7 [A2E2D506] [DFD29AD6]
05 99,7 [DA16C942] [CDC7A99C]
06 98,3 [79B38224] [F98B67EB]

Thanks to wurensh

See also:
Odyssice - Impression (2000) [2CD Reissue 2012]