Subcategories

Ofra Haza - Albums & Singles Collection 1987-2008 (8CD)

Posted By: Designol
Ofra Haza - Albums & Singles Collection 1987-2008 (8CD)

Ofra Haza - Albums & Singles Collection 1987-2008 (8CD)
EAC | FLAC | Image (Cue&Log) ~ 2.46 Gb | Mp3 (CBR320) ~ 1 Gb | Complete Scans
Genre: Worldbeat, Ethnic Pop, Middle Eastern Traditions | Time: 05:42:29

Collection includes: Im Nin 'alu (Played In Full Mix) (1987) Maxi-Single; Shaday (1988); 5 Tracks (1989) Japan Only EP; Desert Wind (1989); Kirya (1992); Ofra Haza (1997); Forever Ofra Haza: Her Greatest Songs Remixed (2008).

Long one of Israel's most popular singers, Ofra Haza broke through to international recognition during the mid-'80s when her traditional music found favor on the U.K. club circuit, its success leading to a series of unlikely pop projects. Born in Tel Aviv on November 19, 1959, Haza was the daughter of Yemenite parents forced to flee from their native country's Muslim regime; at the age of 12 she joined the renowned Hatikva theatrical troupe, and with that group, cut a number of award-winning records before serving a compulsory two-year tour of duty in the Israeli army. Upon her discharge, in 1979 she mounted a solo career, becoming a star not only at home but also in neighboring Arab nations; in 1983, her recording of "Chai!" placed second in the annual Eurovision Song Contest.

Inspired by the ancient melodies taught to her by her mother, Haza recorded Yemenite Songs in 1985, which featured traditional instruments as well as lyrics drawn from the 16th century poetry of Shalom Shabazi; not only a major hit at home, the album was a worldbeat smash in England, as well. With 1988's Shaday, she turned away from traditional sounds to pursue more dance-flavored material, and the single "Im Nin'Al" even reached the Top 20 on the U.K. pop charts, additionally becoming a club favorite in the U.S. Haza's music was also sampled on the Eric B. & Rakim rap classic "Paid in Full," and her vocals later found their way into M/A/R/R/S' seminal "Pump Up the Volume" as well.

Released in 1989, Desert Wind was sung largely in English, and its release corresponded with Haza's first American tour. For 1992's Grammy-nominated Kirya, she teamed with producer Don Was and welcomed guests Iggy Pop and Lou Reed; that same year, Haza also recorded the single "Temple of Love" with British goth rockers the Sisters of Mercy. Despite her success, however, she was silent throughout the middle of the decade, finally resurfacing in 1997 with a self-titled LP issued on her new label, BMG Ariola. Haza died unexpectedly of AIDS-related complications on February 23, 2000.

Jason Ankeny, Allmusic.com
Ofra Haza - Albums & Singles Collection 1987-2008 (8CD)





Ofra Haza - Albums & Singles Collection 1987-2008 (8CD)

Ofra Haza - Im Nin 'alu (Played In Full Mix) (1987) Maxi-Single 1988
EAC | FLAC | Image (Cue&Log) ~ 137 Mb | Mp3 (CBR320) ~ 70 Mb
Label: TELDEC | # 8.20884 | Time: 00:16:32 | Scans included

Ofra Haza first performed this song with the Shechunat Hatikva Workshop Theatre, appearing on television on IBA's General Television in 1978. She went on to become famous in Europe with the song in the year 1988, when a remixed version thereof, produced by Izhar Ashdot, reached the Top Ten in various countries and number one in several of these, most notably in West Germany where it topped the charts for nine weeks in the summer of 1988. In the UK the track was a Top 20 hit, peaking at #15 and in the U.S. it reached #15 on Billboard's Hot Dance Club Play chart and #18 on Hot Modern Rock Tracks.

Tracklist:

01. Im Nin 'alu (Played In Full Mix) (05:48)
02. Im Nin 'alu (7' English Mix) (04:07)
03. Im Nin 'alu (Extended Mix) (06:37)


Exact Audio Copy V0.99 prebeta 4 from 23. January 2008

EAC Auslese-Logdatei vom 17. Juni 2009, 0:15

Ofra Haza / Im Nin 'alu (Played In Full Mix) (3"/5")

Benutztes Laufwerk : HL-DT-STDVD-ROM GDR-H30N Adapter: 0 ID: 1

Lesemodus : Sicher
Benutze Accurate Stream : Ja
Audio Puffer abgeschaltet : Ja
Benutze C2 Fehlerinformationen : Nein

Leseoffset Korrektur : 6
Ьberlesen in das Lead-In und Lead-Out : Nein
Fьlle fehlende Offsetsample mit Stille auf : Ja
Lцsche fьhrende und nachfolgende stille Blцcke : Nein
Null Samples gehen in CRC Berechnungen ein : Ja
Benutzte Schnittstelle : Installierte externe ASPI Schnittstelle

Benutztes Ausgabeformat : Interne WAV Routinen
Sampleformat : 44.100 Hz; 16 Bit; Stereo


TOC der ausgelesenen CD

Track | Start | Lдnge | Startsektor | Endsektor
–––––––––––––––––––––––––––-
1 | 0:00.32 | 5:48.13 | 32 | 26144
2 | 5:48.45 | 4:07.00 | 26145 | 44669
3 | 9:55.45 | 6:37.25 | 44670 | 74469


Bereichsstatus und Fehler

Gewдhlter Bereich

Dateiname K:\Ofra Haza - Im Nin' Alu\Ofra Haza - Im Nin 'alu (Played In Full Mix) (3 5 ).wav

Spitzenpegel 98.2 %
Bereichsqualitдt 100.0 %
Kopie CRC 0131867A
Kopie OK

Keine Fehler aufgetreten


AccurateRip Ьbersicht

Track 1 akkurat gelesen (Zuversicht 5) [D28C393C]
Track 2 akkurat gelesen (Zuversicht 4) [6FA8B2FB]
Track 3 akkurat gelesen (Zuversicht 5) [D01442FA]

Alle Tracks wurden akkurat gelesen

Ende des Statusreports

foobar2000 1.2 / Dynamic Range Meter 1.1.1
log date: 2014-06-18 16:05:18

––––––––––––––––––––––––––––––––––––––––
Analyzed: Ofra Haza / Im Nin 'alu (Played In Full Mix) (3'/5')
––––––––––––––––––––––––––––––––––––––––

DR Peak RMS Duration Track
––––––––––––––––––––––––––––––––––––––––
DR13 -0.64 dB -16.22 dB 5:48 01-Im Nin 'alu (Played In Full Mix)
DR12 -1.90 dB -17.68 dB 4:07 02-Im Nin 'alu (7' English Mix)
DR12 -0.15 dB -15.28 dB 6:37 03-Im Nin 'alu (Extended Mix)
––––––––––––––––––––––––––––––––––––––––

Number of tracks: 3
Official DR value: DR12

Samplerate: 44100 Hz
Channels: 2
Bits per sample: 16
Bitrate: 856 kbps
Codec: FLAC
================================================================================




Ofra Haza - Albums & Singles Collection 1987-2008 (8CD)

Ofra Haza - Shaday (1988)
EAC | FLAC | Image (Cue&Log) ~ 298 Mb | Mp3 (CBR320) ~ 144 Mb
Label: TELDEC | # 243845-2, 8. 26841 ZP | Time: 00:37:59 | Scans included

This CD made Haza a household name throughout Europe because it was her first to sell millions of copies there, earning her the nickname "the Israeli Madonna." She combines Hebrew, Yemenite, and English in prayers and original compositions with a driving European dance beat. Included is the international hits "Im Nin Alu" and "Galbi" (later made famous after rap stars Eric B. & Rakim sampled it for one of their hits). It's also available domestically on Sire with bonus remixes of the above tracks.

Phil Fink, Allmusic.com

Tracklist:

01. Im Nin'alu (03:32)
02. Eshal (03:58)
03. Da'ale Da'ale (03:24)
04. My Aching Heart (05:50)
05. Love Song (02:29)
06. Galbi (03:16)
07. Face To Face (04:54)
08. Take Me To Paradise (04:52)
09. Shaday (05:40)


Exact Audio Copy V0.99 prebeta 3 from 28. July 2007

EAC Auslese-Logdatei vom 25. Mдrz 2008, 17:10

Ofra Haza / Shaday

Benutztes Laufwerk : SONY DVD RW DW-Q31A Adapter: 0 ID: 0

Lesemodus : Sicher
Benutze Accurate Stream : Ja
Audio Puffer abgeschaltet : Ja
Benutze C2 Fehlerinformationen : Nein

Leseoffset Korrektur : 6
Ьberlesen in das Lead-In und Lead-Out : Nein
Fьlle fehlende Offsetsample mit Stille auf : Ja
Lцsche fьhrende und nachfolgende stille Blцcke : Nein
Null Samples gehen in CRC Berechnungen ein : Ja
Benutzte Schnittstelle : Installierte externe ASPI Schnittstelle

Benutztes Ausgabeformat : Interne WAV Routinen
Sampleformat : 44.100 Hz; 16 Bit; Stereo


TOC der ausgelesenen CD

Track | Start | Lдnge | Startsektor | Endsektor
–––––––––––––––––––––––––––-
1 | 0:00.00 | 3:32.00 | 0 | 15899
2 | 3:32.00 | 3:58.30 | 15900 | 33779
3 | 7:30.30 | 3:24.67 | 33780 | 49146
4 | 10:55.22 | 5:50.33 | 49147 | 75429
5 | 16:45.55 | 2:29.55 | 75430 | 86659
6 | 19:15.35 | 3:16.05 | 86660 | 101364
7 | 22:31.40 | 4:54.00 | 101365 | 123414
8 | 27:25.40 | 4:52.45 | 123415 | 145359
9 | 32:18.10 | 5:40.17 | 145360 | 170876


Bereichsstatus und Fehler

Gewдhlter Bereich

Dateiname D:\Ofra Haza - 6 Albums\1988 - Shaday\Ofra Haza - Shaday.wav

Spitzenpegel 100.0 %
Bereichsqualitдt 100.0 %
Kopie CRC E09FEDDC
Kopie OK

Keine Fehler aufgetreten


AccurateRip Ьbersicht

Track 1 akkurat gelesen (Zuversicht 2) [0FB8F4A8]
Track 2 akkurat gelesen (Zuversicht 2) [6A23E18B]
Track 3 akkurat gelesen (Zuversicht 2) [1A8B672D]
Track 4 akkurat gelesen (Zuversicht 2) [5E770F6C]
Track 5 akkurat gelesen (Zuversicht 2) [B458D122]
Track 6 akkurat gelesen (Zuversicht 2) [46891533]
Track 7 akkurat gelesen (Zuversicht 2) [14497177]
Track 8 akkurat gelesen (Zuversicht 2) [DA70CEB6]
Track 9 akkurat gelesen (Zuversicht 2) [6F060EA9]

Alle Tracks wurden akkurat gelesen

Ende des Statusreports

foobar2000 1.2 / Dynamic Range Meter 1.1.1
log date: 2014-06-18 14:34:06

––––––––––––––––––––––––––––––––––––––––
Analyzed: Ofra Haza / Shaday
––––––––––––––––––––––––––––––––––––––––

DR Peak RMS Duration Track
––––––––––––––––––––––––––––––––––––––––
DR13 0.00 dB -15.63 dB 3:32 01-Im Nin'alu
DR13 0.00 dB -14.86 dB 3:58 02-Eshal
DR13 -0.22 dB -15.03 dB 3:25 03-Da'ale Da'ale
DR13 0.00 dB -15.74 dB 5:50 04-My Aching Heart
DR11 -4.63 dB -21.40 dB 2:30 05-Love Song
DR12 0.00 dB -14.49 dB 3:16 06-Galbi
DR14 0.00 dB -16.13 dB 4:54 07-Face To Face
DR14 -0.45 dB -16.39 dB 4:53 08-Take Me To Paradise
DR13 -0.01 dB -15.91 dB 5:40 09-Shaday
––––––––––––––––––––––––––––––––––––––––

Number of tracks: 9
Official DR value: DR13

Samplerate: 44100 Hz
Channels: 2
Bits per sample: 16
Bitrate: 861 kbps
Codec: FLAC
================================================================================


––––––––––––––––––––––––––––––––––––––––-


Ofra Haza - Albums & Singles Collection 1987-2008 (8CD)

Ofra Haza - 5 Tracks (1989) Japan Only EP
EAC | FLAC | Image (Cue&Log) ~ Mb | Mp3 (CBR320) ~ Mb
Label: TELDEC | # 20P2 2899 | Time: 00:35:41 | Scans included


Tracklist:

01. IM NIN@ ALU (Played In Full Mix) (05:48)
02. IM NIN` ALU (Extended Mix) (06:40)
03. GALBI (12' - Long Version) (07:26)
04. GALBI (The Emillo Pasquez Mix) (06:17)
05. SHADAI (Extended Version) (09:28)


Exact Audio Copy V0.99 prebeta 5 from 4. May 2009

EAC Auslese-Logdatei vom 4. November 2010, 19:19

Ofra Haza / 5 Tracks

Benutztes Laufwerk : HL-DT-STDVD-ROM GDR-H30N Adapter: 0 ID: 1

Lesemodus : Sicher
Benutze Accurate Stream : Ja
Audio Puffer abgeschaltet : Ja
Benutze C2 Fehlerinformationen : Nein

Leseoffset Korrektur : 6
Ьberlesen in das Lead-In und Lead-Out : Nein
Fьlle fehlende Offsetsample mit Stille auf : Ja
Lцsche fьhrende und nachfolgende stille Blцcke : Nein
Null Samples gehen in CRC Berechnungen ein : Ja
Benutzte Schnittstelle : Installierte externe ASPI Schnittstelle

Benutztes Ausgabeformat : Interne WAV Routinen
Sampleformat : 44.100 Hz; 16 Bit; Stereo


TOC der ausgelesenen CD

Track | Start | Lдnge | Startsektor | Endsektor
–––––––––––––––––––––––––––-
1 | 0:00.00 | 5:48.40 | 0 | 26139
2 | 5:48.40 | 6:40.05 | 26140 | 56144
3 | 12:28.45 | 7:26.52 | 56145 | 89646
4 | 19:55.22 | 6:17.18 | 89647 | 117939
5 | 26:12.40 | 9:28.50 | 117940 | 160589


Bereichsstatus und Fehler

Gewдhlter Bereich

Dateiname M:\Audio\Ofra Haza\1989 - 5 Tracks\Ofra Haza - 5 Tracks.wav

Spitzenpegel 99.9 %
Bereichsqualitдt 100.0 %
Kopie CRC E2CBAB2F
Kopie OK

Keine Fehler aufgetreten


AccurateRip Ьbersicht

Track 1 nicht in Datenbank enthalten
Track 2 nicht in Datenbank enthalten
Track 3 nicht in Datenbank enthalten
Track 4 nicht in Datenbank enthalten
Track 5 nicht in Datenbank enthalten

Keiner der Tracks ist in der AccurateRip Datenbank vorhanden

Ende des Statusreports

foobar2000 1.2 / Dynamic Range Meter 1.1.1
log date: 2014-06-18 16:05:28

––––––––––––––––––––––––––––––––––––––––
Analyzed: Ofra Haza / 5 Tracks
––––––––––––––––––––––––––––––––––––––––

DR Peak RMS Duration Track
––––––––––––––––––––––––––––––––––––––––
DR13 -0.63 dB -16.26 dB 5:49 01-IM NIN@ ALU (Played In Full Mix)
DR12 -0.15 dB -15.32 dB 6:40 02-IM NIN` ALU (Extended Mix)
DR14 0.00 dB -18.27 dB 7:27 03-GALBI (12' - Long Version)
DR12 -0.10 dB -15.38 dB 6:17 04-GALBI (The Emillo Pasquez Mix)
DR12 -0.63 dB -14.89 dB 9:29 05-SHADAI (Extended Version)
––––––––––––––––––––––––––––––––––––––––

Number of tracks: 5
Official DR value: DR13

Samplerate: 44100 Hz
Channels: 2
Bits per sample: 16
Bitrate: 844 kbps
Codec: FLAC
================================================================================




Ofra Haza - Albums & Singles Collection 1987-2008 (8CD)

Ofra Haza - Desert Wind (1989)
EAC | FLAC | Image (Cue&Log) ~ 375 Mb | Mp3 (CBR320) ~ 165 Mb
Label: WEA | # 2292-46249-2 | Time: 00:49:20 | Scans included

The followup to Ofra Haza's landmark Shaday is a solid effort by Israel's late and great desert angel.

The darbuka which made Shaday's "Im Nin Alu" so exotic is done to great effect in "Ya Ba Ye." The mid-paced "I Want To Fly" has the same sound without the darbuka.

The best song by far and the most painfully relevant is "Middle East." Terrorism and fanaticism plague her beloved homeland, and the fanaticism runs rampant on both faiths (e.g. the groups Hamas and Hezbollah on one hand, Meir Kahane and Baruch Goldstein on the other). She truly wishes for peace between the two races, which unfortunately at this date, is like the song's two parallel lines that are destined never meet. This is a dance tune, by the way, and a catchy one at that.

More leaning towards the Israelis are the plight of Jews in Ethiopia and Yemen who cannot emigrate to Israel and too often are forced to convert to Islam by the people there. That is the topic of "Mm'mma." Being allowed to leave to practice one's faith is one thing, but being prevented to do that, that's something else.

The songs are more danceable here than on Shaday, such as "In Ta" and "Wish Me Luck." The latter song is an optimistic note on what the morrow will bring, happiness or sorrow.

Her soaring melodic voices are at their best in the ballads, such as the mournfully beautiful "Kaddish" and "Slave Dream." As explained in the notes before the song lyrics, the kaddish is a prayer said on someone's death. The desert trek songs "Fata Morgana" and "Da'asa" are also showcases for her voice. The trek from Yemen to Israel was after all, what defined her family's life and as such, remain special to Ofra Haza. Even her mother makes a guest vocal appearance on the former song.

In closing, a kaddish to the victims of the current Middle East violence, both Israeli and Arab, and a special one to Ofra Haza, who made two truly great albums, this one and Shaday.

Daniel J. Hamlow, Allmusic.com

Tracklist:

01. Wish Me Luck (04:10)
02. Ya Baye (05:07)
03. Middle East (04:40)
04. I Want To Fly (04:27)
05. Slave Dream (04:48)
06. Taw Shi (03:28)
07. Mm'mma (My Brothers Are There) (04:26)
08. In Ta (05:54)
09. Fata Morgana (Mirage) (05:00)
10. Da'asa (02:42)
11. Kaddish (04:34)


Exact Audio Copy V0.99 prebeta 3 from 28. July 2007

EAC Auslese-Logdatei vom 25. Mдrz 2008, 17:54

Ofra Haza / Desert Wind

Benutztes Laufwerk : SONY DVD RW DW-Q31A Adapter: 0 ID: 0

Lesemodus : Sicher
Benutze Accurate Stream : Ja
Audio Puffer abgeschaltet : Ja
Benutze C2 Fehlerinformationen : Nein

Leseoffset Korrektur : 6
Ьberlesen in das Lead-In und Lead-Out : Nein
Fьlle fehlende Offsetsample mit Stille auf : Ja
Lцsche fьhrende und nachfolgende stille Blцcke : Nein
Null Samples gehen in CRC Berechnungen ein : Ja
Benutzte Schnittstelle : Installierte externe ASPI Schnittstelle

Benutztes Ausgabeformat : Interne WAV Routinen
Sampleformat : 44.100 Hz; 16 Bit; Stereo


TOC der ausgelesenen CD

Track | Start | Lдnge | Startsektor | Endsektor
–––––––––––––––––––––––––––-
1 | 0:00.00 | 4:10.23 | 0 | 18772
2 | 4:10.23 | 5:07.32 | 18773 | 41829
3 | 9:17.55 | 4:40.35 | 41830 | 62864
4 | 13:58.15 | 4:27.18 | 62865 | 82907
5 | 18:25.33 | 4:48.32 | 82908 | 104539
6 | 23:13.65 | 3:28.10 | 104540 | 120149
7 | 26:42.00 | 4:26.25 | 120150 | 140124
8 | 31:08.25 | 5:54.33 | 140125 | 166707
9 | 37:02.58 | 4:59.72 | 166708 | 189204
10 | 42:02.55 | 2:42.13 | 189205 | 201367
11 | 44:44.68 | 4:34.47 | 201368 | 221964


Bereichsstatus und Fehler

Gewдhlter Bereich

Dateiname D:\Ofra Haza - 6 Albums\1989 - Desert Wind\Ofra Haza - Desert Wind.wav

Spitzenpegel 100.0 %
Bereichsqualitдt 100.0 %
Kopie CRC A3F41E10
Kopie OK

Keine Fehler aufgetreten


AccurateRip Ьbersicht

Track 1 akkurat gelesen (Zuversicht 5) [197789CB]
Track 2 akkurat gelesen (Zuversicht 5) [71D22808]
Track 3 akkurat gelesen (Zuversicht 5) [2F991A0C]
Track 4 akkurat gelesen (Zuversicht 5) [78593DCA]
Track 5 akkurat gelesen (Zuversicht 5) [70226347]
Track 6 akkurat gelesen (Zuversicht 5) [911DAEA3]
Track 7 akkurat gelesen (Zuversicht 5) [09B61A15]
Track 8 akkurat gelesen (Zuversicht 5) [06D4C131]
Track 9 akkurat gelesen (Zuversicht 5) [FDFD25C8]
Track 10 akkurat gelesen (Zuversicht 5) [ADE83598]
Track 11 akkurat gelesen (Zuversicht 5) [553CBE97]

Alle Tracks wurden akkurat gelesen

Ende des Statusreports

foobar2000 1.2 / Dynamic Range Meter 1.1.1
log date: 2014-06-18 14:34:24

––––––––––––––––––––––––––––––––––––––––
Analyzed: Ofra Haza / Desert Wind
––––––––––––––––––––––––––––––––––––––––

DR Peak RMS Duration Track
––––––––––––––––––––––––––––––––––––––––
DR14 0.00 dB -15.12 dB 4:10 01-Wish Me Luck
DR12 -1.87 dB -16.20 dB 5:07 02-Ya Baye
DR13 -0.01 dB -15.48 dB 4:40 03-Middle East
DR14 0.00 dB -16.84 dB 4:27 04-I Want To Fly
DR12 -2.10 dB -19.16 dB 4:48 05-Slave Dream
DR13 -0.06 dB -14.77 dB 3:28 06-Taw Shi
DR13 -0.01 dB -15.11 dB 4:26 07-Mm'mma (My Brothers Are There)
DR14 0.00 dB -16.35 dB 5:54 08-In Ta
DR12 -1.50 dB -16.55 dB 5:00 09-Fata Morgana (Mirage)
DR12 -4.26 dB -18.12 dB 2:42 10-Da'asa
DR11 -4.92 dB -19.62 dB 4:35 11-Kaddish
––––––––––––––––––––––––––––––––––––––––

Number of tracks: 11
Official DR value: DR13

Samplerate: 44100 Hz
Channels: 2
Bits per sample: 16
Bitrate: 885 kbps
Codec: FLAC
================================================================================




Ofra Haza - Albums & Singles Collection 1987-2008 (8CD)

Ofra Haza - Desert Wind (1989) Japanese Press
EAC | FLAC | Image (Cue&Log) ~ 329 Mb | Mp3 (CBR320) ~ 118 Mb
Label: Warner-Pioneer/TELDEC | # 22P2-3075 | Time: 00:49:21 | Scans ~ 203 Mb


Tracklist:

01. Wish Me Luck (04:10)
02. Ya Baye (05:07)
03. Middle East (04:40)
04. I Want To Fly (04:27)
05. Slave Dream (04:48)
06. Taw Shi (03:27)
07. Mm'mma (My Brothers Are There) (04:26)
08. In Ta (05:54)
09. Fata Morgana (Mirage) (05:00)
10. Da'asa (02:42)
11. Kaddish (04:36)


Exact Audio Copy V0.99 prebeta 5 from 4. May 2009

EAC extraction logfile from 4. April 2010, 20:02

Ofra Haza / Desert Wind

Used drive : ASUS DRW-1608P Adapter: 2 ID: 1

Read mode : Secure
Utilize accurate stream : Yes
Defeat audio cache : Yes
Make use of C2 pointers : No

Read offset correction : 48
Overread into Lead-In and Lead-Out : No
Fill up missing offset samples with silence : Yes
Delete leading and trailing silent blocks : No
Null samples used in CRC calculations : Yes
Used interface : Installed external ASPI interface

Used output format : User Defined Encoder
Selected bitrate : 1024 kBit/s
Quality : High
Add ID3 tag : No
Command line compressor : C:\Program Files (x86)\Exact Audio Copy\Flac\flac.exe
Additional command line options : -5 -V -T "ARTIST=%a" -T "TITLE=%t" -T "ALBUM=%g" -T "DATE=%y" -T "TRACKNUMBER=%n" -T "GENRE=%m" -T "COMMENT=EAC FLAC -5" %s


TOC of the extracted CD

Track | Start | Length | Start sector | End sector
––––––––––––––––––––––––––––-
1 | 0:00.00 | 4:10.07 | 0 | 18756
2 | 4:10.07 | 5:07.35 | 18757 | 41816
3 | 9:17.42 | 4:40.33 | 41817 | 62849
4 | 13:58.00 | 4:27.25 | 62850 | 82899
5 | 18:25.25 | 4:48.47 | 82900 | 104546
6 | 23:13.72 | 3:27.63 | 104547 | 120134
7 | 26:41.60 | 4:26.25 | 120135 | 140109
8 | 31:08.10 | 5:54.35 | 140110 | 166694
9 | 37:02.45 | 4:59.72 | 166695 | 189191
10 | 42:02.42 | 2:42.08 | 189192 | 201349
11 | 44:44.50 | 4:36.00 | 201350 | 222049


Range status and errors

Selected range

Filename F:\Ofra Hasa - Desert Wind - 1989 (Japan)\Ofra Haza - Desert Wind.wav

Peak level 100.0 %
Range quality 100.0 %
Test CRC 7454D281
Copy CRC 7454D281
Copy OK

No errors occurred


AccurateRip summary

Track 1 not present in database
Track 2 not present in database
Track 3 not present in database
Track 4 not present in database
Track 5 not present in database
Track 6 not present in database
Track 7 not present in database
Track 8 not present in database
Track 9 not present in database
Track 10 not present in database
Track 11 not present in database

None of the tracks are present in the AccurateRip database

End of status report

foobar2000 1.2 / Dynamic Range Meter 1.1.1
log date: 2014-06-18 14:35:06

––––––––––––––––––––––––––––––––––––––––
Analyzed: Ofra Haza / Desert Wind
––––––––––––––––––––––––––––––––––––––––

DR Peak RMS Duration Track
––––––––––––––––––––––––––––––––––––––––
DR14 0.00 dB -15.12 dB 4:10 01-Wish Me Luck
DR12 -1.87 dB -16.20 dB 5:07 02-Ya Baye
DR13 -0.01 dB -15.48 dB 4:40 03-Middle East
DR14 0.00 dB -16.84 dB 4:27 04-I Want To Fly
DR12 -2.10 dB -19.16 dB 4:49 05-Slave Dream
DR13 -0.06 dB -14.77 dB 3:28 06-Taw Shi
DR13 -0.01 dB -15.11 dB 4:26 07-Mm'mma (My Brothers Are There)
DR14 0.00 dB -16.35 dB 5:54 08-In Ta
DR12 -1.50 dB -16.55 dB 5:00 09-Fata Morgana (Mirage)
DR12 -4.26 dB -18.12 dB 2:42 10-Da'asa
DR11 -4.92 dB -19.62 dB 4:36 11-Kaddish
––––––––––––––––––––––––––––––––––––––––

Number of tracks: 11
Official DR value: DR13

Samplerate: 44100 Hz
Channels: 2
Bits per sample: 16
Bitrate: 889 kbps
Codec: FLAC
================================================================================




Ofra Haza - Albums & Singles Collection 1987-2008 (8CD)

Ofra Haza - Kirya (1992)
EAC | FLAC | Image (Cue&Log) ~ 328 Mb | Mp3 (CBR320) ~ 157 Mb
Label: EastWest | # 9031-76127-2 | Time: 00:43:54 | Scans included

Kirya, Ofra Haza's 1992 release, is a more sombre affair after the danceable Desert Wind. It's more thematic of Israel itself, its past history and current legacy as a Middle Eastern warzone.

Her soaring vocals are still in effect in the Hebrew-sung title track. As she explains in a note before the lyrics, Kirya is an ancient Hebrew nickname for Jerusalem. It's a song praising Jerusalem as incomparable in beauty, but a city where so many of Israel's sons die everyday because of her, something that continues still today.

"Horashoot (The Bridge)" implies crossing the bridge together, in a relationship like marriage, for a better tomorrow. This song is in reference to the Middle East situation, where neither side wants to cross that bridge, yet Ofra believes that "we can cross the bridge together/to cross the bridge forever." The musical tone is purely Middle Eastern, except she uses synthesizers instead of the darbouka which made Shaday such an exotic album.

"Innocent" is a hymn to the refugees torn apart by war, bereft of hope, and in the case of children, bereft of parents. The chorus sung in Hebrew and puts Ofra's vocals to great effect: "Oh my god, I want to be wherever you are." It ends with a chorus of backing vocalists going "Na na na na na na. etc."

The bleakest but best song on Kirya is "Trains Of No Return". This song is a reference to the trains carrying Jews to their destinations in Auschwitz, Dachau, and Buchenwald. She sings of the trains "Don't let them roll again" and "we need the rain…to wash the trains." This is song half in English. The elegiac violin adds to the song's desolateness in a way Itzhak Perlman's violin would do in Schindler's List.

Another half-English song, "Mystery Fate and Love" has a mystical ambience about it, as she asks her god to "give me a hand to hold on to."

Set in "ancient time", presumably Old Testament days, "Daw Da Hiya" is a young, beautiful, and passionate girl who violated the taboos of her time by taking a man without her father's permission, becoming pregnant out of wedlock, shamed her family, and ending up condemned to death. Iggy Pop does the English vocal narration while Ofra sings in Hebrew. It calls for progress in women's rights, as Iggy narrates: "In a time and place, where a woman can't show her face, her life is ruled by men. That shouldn't happen again." With the guitar, the music has a tinge of Spanish as well as Hebrew.

"Don't Forsake Me" is a plea against abandonment in old age but also the realization of mortality. She sings "Don't cast me away when I start to fade, when my mind's unmade. At one point, the synthesizers have that Middle Eastern sound that made "Im Nin Alu" a hit. Mostly English lyrics.

"Barefoot" is a slow samba-kind of number with Spanish guitar sung totally in Hebrew. "Take 7/8" is a Middle-Eastern flavoured dance song that figured in celebrations and wedding parties. The sax and ut, a bagpipe/violin like instrument figure here. When peace finally comes, let's all dance to this.

Ofra's voice is still robust and lovely. Kirya had no hint of the drastic change that would come with what would be her last album. Yet compared to Shaday and Desert Wind, it's definitely bleaker, despite having upbeat numbers. That may be because it came on the heels of the intifadeh of the late 80's/early 90's.

So the next time Israelis wonder why there should be peace, maybe they should remind themselves by the title track.

Daniel J. Hamlow, Amazon.com

Tracklist:

01. Kirya (06:13)
02. Innocent - A Requiem For Refugees (04:47)
03. Daw Da Hiya (04:55)
04. Mystery, Fate and Love (05:25)
05. Horashoot - The Bridge (03:48)
06. Donґt Forsake Me (04:36)
07. Barefoot (05:13)
08. Trains Of No Return (04:17)
09. Take 7-8 (04:35)


Exact Audio Copy V0.99 prebeta 3 from 28. July 2007

EAC Auslese-Logdatei vom 25. Mдrz 2008, 18:15

Ofra Haza / Kirya

Benutztes Laufwerk : SONY DVD RW DW-Q31A Adapter: 0 ID: 0

Lesemodus : Sicher
Benutze Accurate Stream : Ja
Audio Puffer abgeschaltet : Ja
Benutze C2 Fehlerinformationen : Nein

Leseoffset Korrektur : 6
Ьberlesen in das Lead-In und Lead-Out : Nein
Fьlle fehlende Offsetsample mit Stille auf : Ja
Lцsche fьhrende und nachfolgende stille Blцcke : Nein
Null Samples gehen in CRC Berechnungen ein : Ja
Benutzte Schnittstelle : Installierte externe ASPI Schnittstelle

Benutztes Ausgabeformat : Interne WAV Routinen
Sampleformat : 44.100 Hz; 16 Bit; Stereo


TOC der ausgelesenen CD

Track | Start | Lдnge | Startsektor | Endsektor
–––––––––––––––––––––––––––-
1 | 0:00.00 | 6:13.23 | 0 | 27997
2 | 6:13.23 | 4:46.70 | 27998 | 49517
3 | 11:00.18 | 4:55.65 | 49518 | 71707
4 | 15:56.08 | 5:25.35 | 71708 | 96117
5 | 21:21.43 | 3:48.65 | 96118 | 113282
6 | 25:10.33 | 4:36.57 | 113283 | 134039
7 | 29:47.15 | 5:13.65 | 134040 | 157579
8 | 35:01.05 | 4:17.60 | 157580 | 176914
9 | 39:18.65 | 4:35.10 | 176915 | 197549


Bereichsstatus und Fehler

Gewдhlter Bereich

Dateiname D:\Ofra Haza - 6 Albums\1992 - Kirya\Ofra Haza - Kirya.wav

Spitzenpegel 99.9 %
Bereichsqualitдt 100.0 %
Kopie CRC 65CC9D72
Kopie OK

Keine Fehler aufgetreten


AccurateRip Ьbersicht

Track 1 akkurat gelesen (Zuversicht 1) [8EEDFD65]
Track 2 akkurat gelesen (Zuversicht 1) [B750165B]
Track 3 akkurat gelesen (Zuversicht 1) [1810D992]
Track 4 akkurat gelesen (Zuversicht 1) [C5515324]
Track 5 akkurat gelesen (Zuversicht 1) [2B213621]
Track 6 akkurat gelesen (Zuversicht 1) [EFA2385D]
Track 7 akkurat gelesen (Zuversicht 1) [6636C68D]
Track 8 akkurat gelesen (Zuversicht 1) [21429DF2]
Track 9 akkurat gelesen (Zuversicht 1) [2D1EFB35]

Alle Tracks wurden akkurat gelesen

Ende des Statusreports

foobar2000 1.2 / Dynamic Range Meter 1.1.1
log date: 2014-06-18 14:34:39

––––––––––––––––––––––––––––––––––––––––
Analyzed: Ofra Haza / Kirya
––––––––––––––––––––––––––––––––––––––––

DR Peak RMS Duration Track
––––––––––––––––––––––––––––––––––––––––
DR13 -2.23 dB -17.66 dB 6:13 01-Kirya
DR12 -0.54 dB -16.04 dB 4:47 02-Innocent - A Requiem For Refugees
DR13 0.00 dB -14.88 dB 4:56 03-Daw Da Hiya
DR11 -2.50 dB -18.18 dB 5:25 04-Mystery, Fate and Love
DR13 -0.65 dB -15.87 dB 3:49 05-Horashoot - The Bridge
DR12 -0.45 dB -16.28 dB 4:37 06-Donґt Forsake Me
DR12 -1.26 dB -16.50 dB 5:14 07-Barefoot
DR13 -1.43 dB -18.15 dB 4:18 08-Trains Of No Return
DR12 -0.48 dB -15.30 dB 4:35 09-Take 7-8
––––––––––––––––––––––––––––––––––––––––

Number of tracks: 9
Official DR value: DR12

Samplerate: 44100 Hz
Channels: 2
Bits per sample: 16
Bitrate: 840 kbps
Codec: FLAC
================================================================================




Ofra Haza - Albums & Singles Collection 1987-2008 (8CD)

Ofra Haza - Ofra Haza (1997)
EAC | FLAC | Image (Cue&Log) ~ 365 Mb | Mp3 (CBR320) ~ 124 Mb
Label: BMG, Ariola | # 74321 44096 2 | Time: 00:51:36 | Scans included

The final disc from Israeli diva Ofra Haza, recorded in 1997, prior to her too early death from AIDS-related complications, showcases her multifaceted pop styles. It might be more mainstream than her earlier work, but it expands her horizons, and the powerful opener, "Show Me," harks back to that work with Middle Eastern instruments. "Im Nin Alu 2000" updates her best-known piece, although the major change from the original is just a pounding bass synth that powers the tune along. "Give Me a Sign" is sung in English, with a French spoken word interlude, with echoes of overblown Sarah Brightman to the arrangement and performance (which is also unfortunately true of "Sixth Sense," where the idea works better). Musically, "You" is gloriously atmospheric, from the eerie cello to Haza's haunted vocal. The cover of Carole King's "You Got a Friend" works perhaps better than it should, with a very heartfelt performance. Looking in retrospect, "One Day" makes for a poignant ending to the disc. While there's perhaps too great a reliance on keyboard and orchestra, the record rises above all that, and shows the singer Haza would probably have become, had time allowed. The sadness is that she didn't achieve the greater international acclaim her talent warranted, but this stands as a wonderful swan song.

Chris Nickson, Allmusic.com

Tracklist:

01. Show me (04:13)
02. Amore (04:31)
03. Im Nin Alu-2000 (03:38)
04. Sixth Sense (04:12)
05. My Ethiopian Boy (04:38)
06. Ahava (06:56)
07. No Time to Hate (04:24)
08. You've Got a Friend (05:17)
09. You (05:06)
10. Give Me a Sign (04:20)
11. One Day (04:17)


Exact Audio Copy V0.99 prebeta 3 from 28. July 2007

EAC Auslese-Logdatei vom 25. Mдrz 2008, 18:42

Ofra Haza / Ofra Haza

Benutztes Laufwerk : SONY DVD RW DW-Q31A Adapter: 0 ID: 0

Lesemodus : Sicher
Benutze Accurate Stream : Ja
Audio Puffer abgeschaltet : Ja
Benutze C2 Fehlerinformationen : Nein

Leseoffset Korrektur : 6
Ьberlesen in das Lead-In und Lead-Out : Nein
Fьlle fehlende Offsetsample mit Stille auf : Ja
Lцsche fьhrende und nachfolgende stille Blцcke : Nein
Null Samples gehen in CRC Berechnungen ein : Ja
Benutzte Schnittstelle : Installierte externe ASPI Schnittstelle

Benutztes Ausgabeformat : Interne WAV Routinen
Sampleformat : 44.100 Hz; 16 Bit; Stereo


TOC der ausgelesenen CD

Track | Start | Lдnge | Startsektor | Endsektor
–––––––––––––––––––––––––––-
1 | 0:00.32 | 4:13.55 | 32 | 19061
2 | 4:14.12 | 4:31.23 | 19062 | 39409
3 | 8:45.35 | 3:38.30 | 39410 | 55789
4 | 12:23.65 | 4:12.20 | 55790 | 74709
5 | 16:36.10 | 4:38.00 | 74710 | 95559
6 | 21:14.10 | 6:56.57 | 95560 | 126816
7 | 28:10.67 | 4:24.10 | 126817 | 146626
8 | 32:35.02 | 5:16.70 | 146627 | 170396
9 | 37:51.72 | 5:06.35 | 170397 | 193381
10 | 42:58.32 | 4:20.15 | 193382 | 212896
11 | 47:18.47 | 4:17.58 | 212897 | 232229


Bereichsstatus und Fehler

Gewдhlter Bereich

Dateiname D:\Ofra Haza - 6 Albums\1997 - Ofra Haza\Ofra Haza - Ofra Haza.wav

Spitzenpegel 99.6 %
Bereichsqualitдt 100.0 %
Kopie CRC 477A5496
Kopie OK

Keine Fehler aufgetreten


AccurateRip Ьbersicht

Track 1 kann nicht als akkurat verifiziert werden (Zuversicht 1) [394FF659], AccurateRip lieferte [A8A781D4]
Track 2 kann nicht als akkurat verifiziert werden (Zuversicht 1) [A139129F], AccurateRip lieferte [92FC5597]
Track 3 kann nicht als akkurat verifiziert werden (Zuversicht 1) [534418B8], AccurateRip lieferte [840F9463]
Track 4 kann nicht als akkurat verifiziert werden (Zuversicht 1) [9F146A15], AccurateRip lieferte [EC30D823]
Track 5 kann nicht als akkurat verifiziert werden (Zuversicht 1) [710C3706], AccurateRip lieferte [C58687D5]
Track 6 kann nicht als akkurat verifiziert werden (Zuversicht 1) [A2F8650F], AccurateRip lieferte [184AE215]
Track 7 kann nicht als akkurat verifiziert werden (Zuversicht 1) [A2D47CCE], AccurateRip lieferte [45E60128]
Track 8 kann nicht als akkurat verifiziert werden (Zuversicht 1) [F02FF068], AccurateRip lieferte [6EA620B4]
Track 9 kann nicht als akkurat verifiziert werden (Zuversicht 1) [773E2BA3], AccurateRip lieferte [8103FAC4]
Track 10 kann nicht als akkurat verifiziert werden (Zuversicht 1) [55D6EA8C], AccurateRip lieferte [5E33A8A6]
Track 11 kann nicht als akkurat verifiziert werden (Zuversicht 1) [9DDB1840], AccurateRip lieferte [FEAFF4CC]

Kein Track konnte als akkurat verifiziert werden
Es kцnnte sich um eine andere Pressung als von der in der Datenbank vorhandenen handeln

Ende des Statusreports

foobar2000 1.2 / Dynamic Range Meter 1.1.1
log date: 2014-06-18 16:05:43

––––––––––––––––––––––––––––––––––––––––
Analyzed: Ofra Haza / Ofra Haza
––––––––––––––––––––––––––––––––––––––––

DR Peak RMS Duration Track
––––––––––––––––––––––––––––––––––––––––
DR9 -0.08 dB -10.75 dB 4:14 01-Show me
DR9 -0.06 dB -10.61 dB 4:31 02-Amore
DR8 -0.08 dB -10.19 dB 3:38 03-Im Nin Alu-2000
DR9 -0.11 dB -10.46 dB 4:12 04-Sixth Sense
DR10 -0.03 dB -11.26 dB 4:38 05-My Ethiopian Boy
DR7 -0.09 dB -9.59 dB 6:57 06-Ahava
DR9 -0.07 dB -11.13 dB 4:24 07-No Time to Hate
DR9 -0.13 dB -11.28 dB 5:17 08-You've Got a Friend
DR9 -0.17 dB -11.32 dB 5:06 09-You
DR9 -0.09 dB -11.08 dB 4:20 10-Give Me a Sign
DR11 -0.16 dB -13.12 dB 4:18 11-One Day
––––––––––––––––––––––––––––––––––––––––

Number of tracks: 11
Official DR value: DR9

Samplerate: 44100 Hz
Channels: 2
Bits per sample: 16
Bitrate: 940 kbps
Codec: FLAC
================================================================================




Ofra Haza - Albums & Singles Collection 1987-2008 (8CD)

Ofra Haza - Forever Ofra Haza: Her Greatest Songs Remixed (2008) [Repost]
EAC | FLAC | Image (Cue&Log) ~ 408 Mb | Mp3 (CBR320) ~ 139 Mb
Label: Edel Records | # 0188482ERE | Time: 00:58:02 | Scans ~ 156 Mb

Forever Ofra Haza – Her Greatest Songs Remixed is a 2008 greatest hits album of recordings by Israeli singer Ofra Haza, released on the Edel Records label. The compilation features remixed versions by production team Ferris Bueller and Kai Panschow of tracks from Haza's international albums, mainly focussing on material from the bestselling Shaday (1988) and Desert Wind (1989), including some of her best-known songs like "Im Nin' Alu", "Galbi", "Shaday", "Love Song", "Ya Ba Ye", "Fatamorgana" and "Kaddish" as well as the previously unreleased recording "The Poem".

Tracklist:

01. Shaday (05:44)
02. Galbi (03:31)
03. Im Nin Alu (Version 2008) (03:07)
04. Fatamorgana (04:11)
05. Eshal (04:12)
06. Ya Hil We (03:17)
07. Asalk (04:33)
08. Ya Ba Ye (03:24)
09. Love Song (The Biblical Song Of Songs) (06:59)
10. La Fa La (04:07)
11. Taw Shee (02:57)
12. Kaddish (05:13)
13. The Poem (New Track) (03:37)
14. Im Nin Alu (Unplugged Mix) (03:04)


Exact Audio Copy V0.99 prebeta 3 from 28. July 2007

EAC Auslese-Logdatei vom 25. Mдrz 2008, 16:41

Ofra Haza / Forever

Benutztes Laufwerk : SONY DVD RW DW-Q31A Adapter: 0 ID: 0

Lesemodus : Sicher
Benutze Accurate Stream : Ja
Audio Puffer abgeschaltet : Ja
Benutze C2 Fehlerinformationen : Nein

Leseoffset Korrektur : 6
Ьberlesen in das Lead-In und Lead-Out : Nein
Fьlle fehlende Offsetsample mit Stille auf : Ja
Lцsche fьhrende und nachfolgende stille Blцcke : Nein
Null Samples gehen in CRC Berechnungen ein : Ja
Benutzte Schnittstelle : Installierte externe ASPI Schnittstelle

Benutztes Ausgabeformat : Interne WAV Routinen
Sampleformat : 44.100 Hz; 16 Bit; Stereo


TOC der ausgelesenen CD

Track | Start | Lдnge | Startsektor | Endsektor
–––––––––––––––––––––––––––-
1 | 0:00.00 | 5:44.17 | 0 | 25816
2 | 5:44.17 | 3:31.25 | 25817 | 41666
3 | 9:15.42 | 3:07.50 | 41667 | 55741
4 | 12:23.17 | 4:11.48 | 55742 | 74614
5 | 16:34.65 | 4:12.23 | 74615 | 93537
6 | 20:47.13 | 3:17.36 | 93538 | 108348
7 | 24:04.49 | 4:33.20 | 108349 | 128843
8 | 28:37.69 | 3:24.10 | 128844 | 144153
9 | 32:02.04 | 6:59.05 | 144154 | 175583
10 | 39:01.09 | 4:07.60 | 175584 | 194168
11 | 43:08.69 | 2:57.22 | 194169 | 207465
12 | 46:06.16 | 5:13.29 | 207466 | 230969
13 | 51:19.45 | 3:37.12 | 230970 | 247256
14 | 54:56.57 | 3:04.41 | 247257 | 261097


Bereichsstatus und Fehler

Gewдhlter Bereich

Dateiname D:\Ofra Haza - 6 Albums\2008 - Forever\Ofra Haza - Forever.wav

Spitzenpegel 100.0 %
Bereichsqualitдt 100.0 %
Kopie CRC 764A9BD5
Kopie OK

Keine Fehler aufgetreten


AccurateRip Ьbersicht

Track 1 nicht in Datenbank enthalten
Track 2 nicht in Datenbank enthalten
Track 3 nicht in Datenbank enthalten
Track 4 nicht in Datenbank enthalten
Track 5 nicht in Datenbank enthalten
Track 6 nicht in Datenbank enthalten
Track 7 nicht in Datenbank enthalten
Track 8 nicht in Datenbank enthalten
Track 9 nicht in Datenbank enthalten
Track 10 nicht in Datenbank enthalten
Track 11 nicht in Datenbank enthalten
Track 12 nicht in Datenbank enthalten
Track 13 nicht in Datenbank enthalten
Track 14 nicht in Datenbank enthalten

Keiner der Tracks ist in der AccurateRip Datenbank vorhanden

Ende des Statusreports

foobar2000 1.2 / Dynamic Range Meter 1.1.1
log date: 2014-06-18 16:06:07

––––––––––––––––––––––––––––––––––––––––
Analyzed: Ofra Haza / Forever
––––––––––––––––––––––––––––––––––––––––

DR Peak RMS Duration Track
––––––––––––––––––––––––––––––––––––––––
DR7 -1.00 dB -8.99 dB 5:44 01-Shaday
DR8 0.00 dB -9.92 dB 3:31 02-Galbi
DR6 -1.68 dB -11.01 dB 3:08 03-Im Nin Alu (Version 2008)
DR8 -1.67 dB -9.80 dB 4:12 04-Fatamorgana
DR7 0.00 dB -7.43 dB 4:12 05-Eshal
DR8 0.00 dB -9.70 dB 3:17 06-Ya Hil We
DR8 0.00 dB -8.74 dB 4:33 07-Asalk
DR9 0.00 dB -10.13 dB 3:24 08-Ya Ba Ye
DR7 0.00 dB -9.13 dB 6:59 09-Love Song (The Biblical Song Of Songs)
DR10 0.00 dB -10.78 dB 4:08 10-La Fa La
DR8 0.00 dB -9.52 dB 2:57 11-Taw Shee
DR8 0.00 dB -9.16 dB 5:13 12-Kaddish
DR9 -0.80 dB -11.18 dB 3:37 13-The Poem (New Track)
DR8 -0.67 dB -10.68 dB 3:05 14-Im Nin Alu (Unplugged Mix)
––––––––––––––––––––––––––––––––––––––––

Number of tracks: 14
Official DR value: DR8

Samplerate: 44100 Hz
Channels: 2
Bits per sample: 16
Bitrate: 935 kbps
Codec: FLAC
================================================================================