Subcategories

Ofra Haza - Greatest Hits: Volume 2 (2004) 3 CD Set [Re-Up]

Posted By: Designol
Ofra Haza - Greatest Hits: Volume 2 (2004) 3 CD Set [Re-Up]

Ofra Haza - Greatest Hits: Volume 2 (2004) 3 CD Set
EAC | FLAC | Image (Cue&Log) ~ 1.48 Gb | Mp3 (CBR320) ~ 527 Mb | Scans ~ 414 Mb
Genre: Ethnic Pop, Worldbeat | Label: Hed-Arzi | # 64471 | Time: 03:49:28

Ofra Haza was quite possibly the most beloved singer in Israel's history, and one of Israel's most recognizable faces and voices worldwide. As a daughter of immigrants from Yemen's Jewish community and as an international superstar, she incorporated many styles into her repertoire. This wonderful collection contains 53 of her most popular songs in Hebrew, Arabic, and English.

Melody of the Heart " aka "Greatest Hits 2"

You have here a three CD set, each with its own booklet.

CD1 is the 1990 Montreux Jazz Festival CD.

Ofra's vocal track was redubbed in the studio for this.
It gives a more polished performance but the track, I deduce, was used to redub the much later DVD. That was a disaster.

This starts with a Yemenite set - a short " Im Nin'Alu, Hilwi, Eshal, Asalk.
Next comes the jazz set: a rocking "Taw Shi" and the smooth "Fata Morgana"("Mirage" - 'Morgana' alludes to legendary sorceress Morgan-le-fay who could make herself disappear at will)
Centrepiece is a 16 minute jam session based on Galbi and other numbers. This is used by Ofra to showcase the musicians in her band.
Eric Person on soprano sax, Danny Sidouvnik on bongs,etc., Tzour Ben Zev on bass guitar, Jim Mussen on drums, Haim Cotton on keyboards. This part really misses the visuals of the original TV shows with Ofra's dancing.
Ofra duetting with a bass guitar is special.

CD2 is a kind of 'One-offs and Rarities' collection of Hebrew songs. The most notable is the beautiful "Scheharchoret" ("Dark Girl")

CD3 is a collection made up of most of the unpublished 1995 "Queen in Exile" album, a few singles and collaborations, padded with a few tracks off other albums.

The "Queen In Exile" tracks kick off with "Kashmir" which is a spectacular mystical Middle-eastern treatment of Led Zeppelin's song. This is not the straight rendition she recorded on the "Mata Hari" single. This has Ofra's voice multi-tracked about five times. Close your eyes and the sounds wash across you in colours. it is a complete reworking of the song with a spectacular result.
"Queen In Exile" is next - smooth and creamy with a moody arabic chant near the end. This is not the original title track - this is "Queen In A Dream of Exile" retitled.
I am so disappointed that the original title track, with its rap section and throbbing heartbeat drum throughout, did not make it on to this CD. A hit recoird missed, a hit album missed, in my opinion.
"Jerusalem" - an ode to King Solomon with an African choir backing and pounding drumbeat.
"Love is a Shelter" - for me this brings Ofra's native Hebrew rock style to the English language.
"Genesis" - a prayer for harmony and equality.
"Separate Ways", Gary Moore's much-covered classic given the mystical Middle-eastern Ofra Haza treatment. Toe-curlingly smooth.
Ofra's voice deeper, moodier than usual - almost a touch of Karen Carpenter about her tone. I declare Ofra Haza to be a genius of musical interpretation of emotion and mood. This song is a case in point.
"Mata Hari" - disc-beating story of the spy legend.
"Scheherzade" - ode to the central figure of 1001 nights.
Intersperse with these are "Temple of Love" Ofra's collaboration with goth-rock band 'Sisters of Mercy'. Ofra was game for anything musical - as an Ofra Haza, fan I am proud of her for that. This made No.4 in the Uk charts - top hit for Ofra.
"Today I'll Pray" made in Italy live, Ofra singing in English, Hebrew and a bit of Italian.
"Love is in Vain" (Jenseite Von Liebe") with Stephan Waggerhausen. Large man, small voice, small woman, MASSIVE voice.
"Open Yor Heart" cover of Madonna song. If Madonna heard this, I think that she would need to find a hole to crawl into because this version lays waste to Madonna's singing efforts. Give a song to a supreme talent like Ofra and she WILL make something special of it.
The remaining tracks are of sonssg from other albums Kirya, 1997, etc culminating in "Nous N'Irons Plus".

Ofra Haza was a fabulous and mystical singer who belongs in the halls of fame. She was the best of her time, perhaps of all time.

Review by Mr. K. N. James, Amazon.com

Ofra Haza - Greatest Hits: Volume 2 (2004) 3 CD Set [Re-Up]



Tracklist:

CD1:

01. Im Nin Alu (04:00)
02. Hilwi (03:55)
03. Eshal (04:31)
04. Asalk (05:13)
05. Taw Shi (04:07)
06. Fatamorgana (04:48)
07. Medley: Galbi - Wen Esalam - Ayooma (16:03)
08. Dassa (03:03)
09. Shaday (06:21)
10. La Fa La (08:29)
11. Love Song (02:57)
12. Ya Ba Ye (04:49)
13. Kaddish (05:39)

CD2:

01. Repentance (03:35)
02. Amgels' Tears (04:13)
03. Longings (03:15)
04. Dark Girl (02:56)
05. No Time To Wander (04:30)
06. It Will Come Suddenly (03:47)
07. Mami (03:25)
08. Broken Days (04:04)
09. Paintbox (03:54)
10. You Promised (03:30)
11. About Our Loves (04:01)
12. Let's Talk (03:38)
13. Temorary Song For The Rich (03:25)
14. Song Of Songs With Fun (02:32)
15. Sabbath The Queen (03:12)
16. Crossroads (04:01)
17. The Flower Seller (02:23)
18. Kisses At The Sea (02:39)
19. Ballad For The King (02:32)
20. Oh No, Father (04:02)
21. Irises (03:38)
22. The Flute (03:51)

CD3:

01. Kashmir (04:47)
02. Queen In Exile (04:32)
03. Jerusalem (03:39)
04. Temple Of Love (04:21)
05. Today I'll Pray (04:16)
06. Love Is In Vain (Jenseite von liebe) (06:13)
07. Open Your Heart (04:57)
08. Love Is A Shelter (04:39)
09. Genesis (04:17)
10. Separate Ways (04:16)
11. Innocent - Requiem For Return (04:45)
12. Trains Of No Return (04:12)
13. Mata Hari (03:54)
14. Fat Fa Ta (03:39)
15. Fantasy (02:40)
16. Scheherzade (04:50)
17. Give Me A Signe (04:16)
18. Nous N'irons Plus (02:52)


Exact Audio Copy V0.99 prebeta 4 from 23. January 2008

EAC Auslese-Logdatei vom 4. April 2012, 22:42

Ofra Haza / Greatest Hits Vol 2 Disk 1

Benutztes Laufwerk : HL-DT-STDVD-ROM GDR-H30N Adapter: 0 ID: 1

Lesemodus : Sicher
Benutze Accurate Stream : Ja
Audio Puffer abgeschaltet : Ja
Benutze C2 Fehlerinformationen : Nein

Leseoffset Korrektur : 6
Ьberlesen in das Lead-In und Lead-Out : Nein
Fьlle fehlende Offsetsample mit Stille auf : Ja
Lцsche fьhrende und nachfolgende stille Blцcke : Nein
Null Samples gehen in CRC Berechnungen ein : Ja
Benutzte Schnittstelle : Installierte externe ASPI Schnittstelle

Benutztes Ausgabeformat : Interne WAV Routinen
Sampleformat : 44.100 Hz; 16 Bit; Stereo


TOC der ausgelesenen CD

Track | Start | Lдnge | Startsektor | Endsektor
–––––––––––––––––––––––––––-
1 | 0:00.00 | 4:00.50 | 0 | 18049
2 | 4:00.50 | 3:55.45 | 18050 | 35719
3 | 7:56.20 | 4:31.40 | 35720 | 56084
4 | 12:27.60 | 5:13.20 | 56085 | 79579
5 | 17:41.05 | 4:07.10 | 79580 | 98114
6 | 21:48.15 | 4:48.45 | 98115 | 119759
7 | 26:36.60 | 16:03.47 | 119760 | 192031
8 | 42:40.32 | 3:03.68 | 192032 | 205824
9 | 45:44.25 | 6:21.35 | 205825 | 234434
10 | 52:05.60 | 8:29.25 | 234435 | 272634
11 | 60:35.10 | 2:57.60 | 272635 | 285969
12 | 63:32.70 | 4:49.40 | 285970 | 307684
13 | 68:22.35 | 5:39.15 | 307685 | 333124


Bereichsstatus und Fehler

Gewдhlter Bereich

Dateiname L:\Audio\Pop\Ofra Haza\2004 - Greatest Hits Vol. 2 (3 CD)\Ofra Haza - Greatest Hits Vol 2 Disk 1.wav

Spitzenpegel 98.9 %
Bereichsqualitдt 100.0 %
Kopie CRC 6D872D74
Kopie OK

Keine Fehler aufgetreten


AccurateRip Ьbersicht

Track 1 nicht in Datenbank enthalten
Track 2 nicht in Datenbank enthalten
Track 3 nicht in Datenbank enthalten
Track 4 nicht in Datenbank enthalten
Track 5 nicht in Datenbank enthalten
Track 6 nicht in Datenbank enthalten
Track 7 nicht in Datenbank enthalten
Track 8 nicht in Datenbank enthalten
Track 9 nicht in Datenbank enthalten
Track 10 nicht in Datenbank enthalten
Track 11 nicht in Datenbank enthalten
Track 12 nicht in Datenbank enthalten
Track 13 nicht in Datenbank enthalten

Keiner der Tracks ist in der AccurateRip Datenbank vorhanden

Ende des Statusreports

foobar2000 1.2 / Dynamic Range Meter 1.1.1
log date: 2014-06-16 16:22:43

––––––––––––––––––––––––––––––––––––––––
Analyzed: Ofra Haza / Greatest Hits Vol 2 Disk 1
––––––––––––––––––––––––––––––––––––––––

DR Peak RMS Duration Track
––––––––––––––––––––––––––––––––––––––––
DR9 -0.10 dB -11.59 dB 4:01 01-Im Nin Alu
DR9 -0.10 dB -10.94 dB 3:56 02-Hilwi
DR8 -0.10 dB -10.91 dB 4:32 03-Eshal
DR10 -0.10 dB -11.56 dB 5:13 04-Asalk
DR9 -0.10 dB -10.33 dB 4:07 05-Taw Shi
DR10 -0.10 dB -12.33 dB 4:49 06-Fatamorgana
DR9 -0.10 dB -11.24 dB 16:04 07-Medley: Galbi - Wen Esalam - Ayooma
DR15 -0.10 dB -19.31 dB 3:04 08-Dassa
DR10 -0.10 dB -13.14 dB 6:21 09-Shaday
DR9 -0.10 dB -10.51 dB 8:29 10-La Fa La
DR9 -0.10 dB -12.86 dB 2:58 11-Love Song
DR8 -0.10 dB -11.18 dB 4:50 12-Ya Ba Ye
DR9 -0.10 dB -12.62 dB 5:39 13-Kaddish
––––––––––––––––––––––––––––––––––––––––

Number of tracks: 13
Official DR value: DR9

Samplerate: 44100 Hz
Channels: 2
Bits per sample: 16
Bitrate: 933 kbps
Codec: FLAC
================================================================================


Exact Audio Copy V0.99 prebeta 4 from 23. January 2008

EAC Auslese-Logdatei vom 4. April 2012, 22:55

Ofra Haza / Greatest Hits Vol 2 Disk 2

Benutztes Laufwerk : HL-DT-STDVD-ROM GDR-H30N Adapter: 0 ID: 1

Lesemodus : Sicher
Benutze Accurate Stream : Ja
Audio Puffer abgeschaltet : Ja
Benutze C2 Fehlerinformationen : Nein

Leseoffset Korrektur : 6
Ьberlesen in das Lead-In und Lead-Out : Nein
Fьlle fehlende Offsetsample mit Stille auf : Ja
Lцsche fьhrende und nachfolgende stille Blцcke : Nein
Null Samples gehen in CRC Berechnungen ein : Ja
Benutzte Schnittstelle : Installierte externe ASPI Schnittstelle

Benutztes Ausgabeformat : Interne WAV Routinen
Sampleformat : 44.100 Hz; 16 Bit; Stereo


TOC der ausgelesenen CD

Track | Start | Lдnge | Startsektor | Endsektor
–––––––––––––––––––––––––––-
1 | 0:00.00 | 3:37.59 | 0 | 16333
2 | 3:37.59 | 4:15.44 | 16334 | 35502
3 | 7:53.28 | 3:16.35 | 35503 | 50237
4 | 11:09.63 | 2:58.54 | 50238 | 63641
5 | 14:08.42 | 4:31.13 | 63642 | 83979
6 | 18:39.55 | 3:49.10 | 83980 | 101164
7 | 22:28.65 | 3:25.68 | 101165 | 116607
8 | 25:54.58 | 4:06.13 | 116608 | 135070
9 | 30:00.71 | 3:56.26 | 135071 | 152796
10 | 33:57.22 | 3:31.42 | 152797 | 168663
11 | 37:28.64 | 4:03.11 | 168664 | 186899
12 | 41:32.00 | 3:40.57 | 186900 | 203456
13 | 45:12.57 | 3:26.71 | 203457 | 218977
14 | 48:39.53 | 2:34.43 | 218978 | 230570
15 | 51:14.21 | 3:13.74 | 230571 | 245119
16 | 54:28.20 | 4:03.60 | 245120 | 263404
17 | 58:32.05 | 2:25.03 | 263405 | 274282
18 | 60:57.08 | 2:41.15 | 274283 | 286372
19 | 63:38.23 | 2:33.46 | 286373 | 297893
20 | 66:11.69 | 4:03.74 | 297894 | 316192
21 | 70:15.68 | 3:40.31 | 316193 | 332723
22 | 73:56.24 | 3:51.68 | 332724 | 350116


Bereichsstatus und Fehler

Gewдhlter Bereich

Dateiname L:\Audio\Pop\Ofra Haza\2004 - Greatest Hits Vol. 2 (3 CD)\Ofra Haza - Greatest Hits Vol 2 Disk 2.wav

Spitzenpegel 100.0 %
Bereichsqualitдt 100.0 %
Kopie CRC E3DA337E
Kopie OK

Keine Fehler aufgetreten


AccurateRip Ьbersicht

Track 1 akkurat gelesen (Zuversicht 1) [0CA6C043]
Track 2 akkurat gelesen (Zuversicht 1) [AC74E9BB]
Track 3 akkurat gelesen (Zuversicht 1) [3EE5B6C4]
Track 4 akkurat gelesen (Zuversicht 1) [967F90B2]
Track 5 akkurat gelesen (Zuversicht 1) [C2A0D26F]
Track 6 akkurat gelesen (Zuversicht 1) [E0AE483D]
Track 7 akkurat gelesen (Zuversicht 1) [A17805E6]
Track 8 akkurat gelesen (Zuversicht 1) [25700582]
Track 9 akkurat gelesen (Zuversicht 1) [714E9F66]
Track 10 akkurat gelesen (Zuversicht 1) [293B6CC0]
Track 11 akkurat gelesen (Zuversicht 1) [10E20210]
Track 12 akkurat gelesen (Zuversicht 1) [AED40C28]
Track 13 akkurat gelesen (Zuversicht 1) [B4EC7245]
Track 14 akkurat gelesen (Zuversicht 1) [82998381]
Track 15 akkurat gelesen (Zuversicht 1) [9804381F]
Track 16 akkurat gelesen (Zuversicht 1) [37490355]
Track 17 akkurat gelesen (Zuversicht 1) [1D3FF658]
Track 18 akkurat gelesen (Zuversicht 1) [0A6077AE]
Track 19 akkurat gelesen (Zuversicht 1) [51EA1BD3]
Track 20 akkurat gelesen (Zuversicht 1) [56B4E8C6]
Track 21 akkurat gelesen (Zuversicht 1) [9E8709A0]
Track 22 akkurat gelesen (Zuversicht 1) [009F5A67]

Alle Tracks wurden akkurat gelesen

Ende des Statusreports

foobar2000 1.2 / Dynamic Range Meter 1.1.1
log date: 2014-06-16 16:23:07

––––––––––––––––––––––––––––––––––––––––
Analyzed: Ofra Haza / Greatest Hits Vol 2 Disk 2
––––––––––––––––––––––––––––––––––––––––

DR Peak RMS Duration Track
––––––––––––––––––––––––––––––––––––––––
DR8 -0.10 dB -10.53 dB 3:38 01-Repentance
DR8 -0.60 dB -11.19 dB 4:16 02-Amgels' Tears
DR8 -1.30 dB -11.63 dB 3:16 03-Longings
DR8 -0.10 dB -9.25 dB 2:59 04-Dark Girl
DR8 -0.09 dB -10.26 dB 4:31 05-No Time To Wander
DR8 -0.59 dB -10.83 dB 3:49 06-It Will Come Suddenly
DR8 -0.09 dB -10.32 dB 3:26 07-Mami
DR9 -0.10 dB -10.13 dB 4:06 08-Broken Days
DR8 -0.80 dB -11.35 dB 3:56 09-Paintbox
DR8 0.00 dB -10.75 dB 3:32 10-You Promised
DR7 -0.07 dB -9.84 dB 4:03 11-About Our Loves
DR9 -0.10 dB -11.04 dB 3:41 12-Let's Talk
DR8 -0.10 dB -9.78 dB 3:27 13-Temorary Song For The Rich
DR8 -0.50 dB -9.82 dB 2:35 14-Song Of Songs With Fun
DR7 -0.60 dB -9.70 dB 3:14 15-Sabbath The Queen
DR8 -0.10 dB -9.56 dB 4:04 16-Crossroads
DR8 -0.70 dB -10.70 dB 2:25 17-The Flower Seller
DR8 -0.10 dB -9.62 dB 2:41 18-Kisses At The Sea
DR7 -0.40 dB -9.48 dB 2:34 19-Ballad For The King
DR7 -0.60 dB -9.46 dB 4:04 20-Oh No, Father
DR7 -0.10 dB -9.16 dB 3:40 21-Irises
DR8 -0.80 dB -11.42 dB 3:52 22-The Flute
––––––––––––––––––––––––––––––––––––––––

Number of tracks: 22
Official DR value: DR8

Samplerate: 44100 Hz
Channels: 2
Bits per sample: 16
Bitrate: 907 kbps
Codec: FLAC
================================================================================


Exact Audio Copy V0.99 prebeta 4 from 23. January 2008

EAC Auslese-Logdatei vom 4. April 2012, 23:13

Ofra Haza / Greatest Hits Vol 2 Disk 3

Benutztes Laufwerk : HL-DT-STDVD-ROM GDR-H30N Adapter: 0 ID: 1

Lesemodus : Sicher
Benutze Accurate Stream : Ja
Audio Puffer abgeschaltet : Ja
Benutze C2 Fehlerinformationen : Nein

Leseoffset Korrektur : 6
Ьberlesen in das Lead-In und Lead-Out : Nein
Fьlle fehlende Offsetsample mit Stille auf : Ja
Lцsche fьhrende und nachfolgende stille Blцcke : Nein
Null Samples gehen in CRC Berechnungen ein : Ja
Benutzte Schnittstelle : Installierte externe ASPI Schnittstelle

Benutztes Ausgabeformat : Interne WAV Routinen
Sampleformat : 44.100 Hz; 16 Bit; Stereo


TOC der ausgelesenen CD

Track | Start | Lдnge | Startsektor | Endsektor
–––––––––––––––––––––––––––-
1 | 0:00.00 | 4:48.09 | 0 | 21608
2 | 4:48.09 | 4:33.42 | 21609 | 42125
3 | 9:21.51 | 3:41.10 | 42126 | 58710
4 | 13:02.61 | 4:23.61 | 58711 | 78496
5 | 17:26.47 | 4:18.11 | 78497 | 97857
6 | 21:44.58 | 6:14.53 | 97858 | 125960
7 | 27:59.36 | 4:58.38 | 125961 | 148348
8 | 32:57.74 | 4:40.51 | 148349 | 169399
9 | 37:38.50 | 4:19.34 | 169400 | 188858
10 | 41:58.09 | 4:17.54 | 188859 | 208187
11 | 46:15.63 | 4:46.67 | 208188 | 229704
12 | 51:02.55 | 4:14.02 | 229705 | 248756
13 | 55:16.57 | 3:55.56 | 248757 | 266437
14 | 59:12.38 | 3:40.48 | 266438 | 282985
15 | 62:53.11 | 2:42.16 | 282986 | 295151
16 | 65:35.27 | 4:51.54 | 295152 | 317030
17 | 70:27.06 | 4:17.74 | 317031 | 336379
18 | 74:45.05 | 2:52.65 | 336380 | 349344


Bereichsstatus und Fehler

Gewдhlter Bereich

Dateiname L:\Audio\Pop\Ofra Haza\2004 - Greatest Hits Vol. 2 (3 CD)\Ofra Haza - Greatest Hits Vol 2 Disk 3.wav

Spitzenpegel 98.9 %
Bereichsqualitдt 100.0 %
Kopie CRC 8ABB4411
Kopie OK

Keine Fehler aufgetreten


AccurateRip Ьbersicht

Track 1 akkurat gelesen (Zuversicht 1) [23672B21]
Track 2 akkurat gelesen (Zuversicht 1) [C991E83C]
Track 3 akkurat gelesen (Zuversicht 1) [27F5C615]
Track 4 akkurat gelesen (Zuversicht 1) [06246CD3]
Track 5 akkurat gelesen (Zuversicht 1) [ABBBE999]
Track 6 akkurat gelesen (Zuversicht 1) [44E3B4BF]
Track 7 akkurat gelesen (Zuversicht 1) [3371916C]
Track 8 akkurat gelesen (Zuversicht 1) [9EF8D6D6]
Track 9 akkurat gelesen (Zuversicht 1) [5BCFA44C]
Track 10 akkurat gelesen (Zuversicht 1) [39AC1609]
Track 11 akkurat gelesen (Zuversicht 1) [CCD627BD]
Track 12 akkurat gelesen (Zuversicht 1) [A01C9121]
Track 13 akkurat gelesen (Zuversicht 1) [7471B76A]
Track 14 akkurat gelesen (Zuversicht 1) [6CFCB09D]
Track 15 akkurat gelesen (Zuversicht 1) [84D09C1C]
Track 16 akkurat gelesen (Zuversicht 1) [B56E3567]
Track 17 akkurat gelesen (Zuversicht 1) [197ADA36]
Track 18 akkurat gelesen (Zuversicht 1) [DC38B308]

Alle Tracks wurden akkurat gelesen

Ende des Statusreports

foobar2000 1.2 / Dynamic Range Meter 1.1.1
log date: 2014-06-16 16:23:31

––––––––––––––––––––––––––––––––––––––––
Analyzed: Ofra Haza / Greatest Hits Vol 2 Disk 3
––––––––––––––––––––––––––––––––––––––––

DR Peak RMS Duration Track
––––––––––––––––––––––––––––––––––––––––
DR7 -0.10 dB -10.16 dB 4:48 01-Kashmir
DR8 -0.10 dB -9.88 dB 4:34 02-Queen In Exile
DR8 -0.30 dB -9.63 dB 3:41 03-Jerusalem
DR7 -0.10 dB -8.46 dB 4:24 04-Temple Of Love
DR9 -0.10 dB -11.88 dB 4:18 05-Today I'll Pray
DR8 -0.69 dB -10.33 dB 6:15 06-Love Is In Vain (Jenseite von liebe)
DR8 -0.10 dB -9.74 dB 4:59 07-Open Your Heart
DR8 -0.39 dB -9.63 dB 4:41 08-Love Is A Shelter
DR8 -0.19 dB -10.03 dB 4:19 09-Genesis
DR9 -0.09 dB -10.89 dB 4:18 10-Separate Ways
DR8 -0.59 dB -10.21 dB 4:47 11-Innocent - Requiem For Return
DR8 -0.09 dB -11.20 dB 4:14 12-Trains Of No Return
DR9 -0.09 dB -10.70 dB 3:56 13-Mata Hari
DR7 -1.10 dB -10.70 dB 3:41 14-Fat Fa Ta
DR8 -0.79 dB -10.63 dB 2:42 15-Fantasy
DR8 -0.59 dB -9.92 dB 4:52 16-Scheherzade
DR9 -0.09 dB -11.02 dB 4:18 17-Give Me A Signe
DR8 -0.09 dB -10.32 dB 2:53 18-Nous N'irons Plus
––––––––––––––––––––––––––––––––––––––––

Number of tracks: 18
Official DR value: DR8

Samplerate: 44100 Hz
Channels: 2
Bits per sample: 16
Bitrate: 928 kbps
Codec: FLAC
================================================================================

Ofra Haza - Greatest Hits: Volume 2 (2004) 3 CD Set [Re-Up]

Ofra Haza - Greatest Hits: Volume 2 (2004) 3 CD Set [Re-Up]