Subcategories

Ohio Players - Ouch! (1981) [2000, Reissue]

Posted By: BlondStyle
Ohio Players - Ouch! (1981) [2000, Reissue]

Ohio Players - Ouch! (1981) [2000, Reissue]
R&B, Soul/Funk | EAC Rip | FLAC, Tracks+CUE + LOG + Full Artwork-600dpi (JPEG) | 39:07 Min | 270,87 Mb
Label: Reach Entertainment, Inc. / Boardwalk Music (USA) | Released: 2000, August, 22

In the early 1980s, hardcore fans of would have loved to see the funksters come out with a truly great album and return to the top of the charts. But that didn't happen - there wouldn't be another , and it was obvious that the band was past their prime. The second of two little-known albums that recorded for in 1981, was a slight improvement over its forgettable predecessor , but it's disappointing nonetheless. Thist LP was produced by , a talented vocalist/songwriter/producer, to be sure, but is hardly his finest hour and isn't among ' more memorable releases. While had done most of their own writing in the 1970s, almost all of the writing on was done by and . For all of its flaws, this album has its moments. ' cover of 's isn't bad, and some of the more likable tunes that and contribute include the -ish the romantic ballad and the -ish All things considered, however, is an LP that only completists and diehard collectors would be interested in.

Ohio Players - Ouch! (1981) [2000, Reissue]


Ohio Players - Ouch! (1981) [2000, Reissue]


Release of the album: 1981 [LP The Boardwalk Entertainment Co, Cat.# [url="http://www.discogs.com/Ohio-Players-Ouch/release/1913069"]NB1-33247, USA]
Release of this CD: 2000, August, 22 [CD Reach Entertainment, Inc./RKO Records (USA), Cat.# [url="http://www.discogs.com/Ohio-Players-Ouch/release/6794466"]BOA1039 / UPC: 660191103920]
℗ & © 2000 Reach Entertainment, Inc. for all packaging and artwork
Manufactured by Reach Entertainment, Inc.

Bass – Marshall Jones
Coordinator [Production Coordinator] – Belinda Wilson
Guitar, Lead Vocals – Leroy 'Sugar' Bonner
Producer – Richard 'Dimples' Fields
Trumpet, Tenor Saxophone, Alto Saxophone – Ralph 'Pee Wee' Middlebrooks
Trumpet, Valve Trombone, Flugelhorn – Marvin 'Merv' Pierce


Tracklist:

01. "Do Your Thing" (05:10)
(Charles Wright)
02. "The Star Of The Party" (04:10)
(Richard "Dimples" Fields, Belinda Wilson)
03. "Sweet Lil' Lady" (03:41)
(Richard "Dimples" Fields, Belinda Wilson)
04. "Everybody Dance" (05:34)
(Richard "Dimples" Fields, Belinda Wilson)
05. "My Baby Gets The Best Of My Love" (03:26)
(Richard "Dimples" Fields, Belinda Wilson)
06. "Just Me" (04:42)
(Leroy "Sugarfoot" Bonner)
07. "Thinkin' 'Bout You" (04:27)
(Richard "Dimples" Fields, Belinda Wilson)
08. "Devoted" (03:45)
(Richard "Dimples" Fields)
09. "I'd Better Take A Coffee Break" (04:15)
(Richard "Dimples" Fields, Belinda Wilson)

Exact Audio Copy V0.99 prebeta 5 from 4. May 2009

EAC extraction logfile from 6. March 2010, 22:07

Ouch! / Ohio Players

Used drive : ASUS CB-5216A Adapter: 0 ID: 1

Read mode : Secure
Utilize accurate stream : Yes
Defeat audio cache : Yes
Make use of C2 pointers : No

Read offset correction : 6
Overread into Lead-In and Lead-Out : No
Fill up missing offset samples with silence : Yes
Delete leading and trailing silent blocks : No
Null samples used in CRC calculations : Yes
Used interface : Native Win32 interface for Win NT & 2000
Gap handling : Appended to previous track

Used output format : User Defined Encoder
Selected bitrate : 320 kBit/s
Quality : High
Add ID3 tag : No
Command line compressor : C:\Program Files\FLAC\flac.exe
Additional command line options : -5 -V -T "ARTIST=%a" -T "TITLE=%t" -T "ALBUM=%g" -T "DATE=%y" -T "TRACKNUMBER=%n" -T "GENRE=%m" -T "COMMENT=Ripped By andygrakoff aka yetiisyou" %s


TOC of the extracted CD

Track | Start | Length | Start sector | End sector
––––––––––––––––––––––––––––-
1 | 0:00.00 | 5:09.62 | 0 | 23236
2 | 5:09.62 | 4:09.58 | 23237 | 41969
3 | 9:19.45 | 3:40.50 | 41970 | 58519
4 | 13:00.20 | 5:33.47 | 58520 | 83541
5 | 18:33.67 | 3:25.65 | 83542 | 98981
6 | 21:59.57 | 4:41.53 | 98982 | 120109
7 | 26:41.35 | 4:26.70 | 120110 | 140129
8 | 31:08.30 | 3:44.47 | 140130 | 156976
9 | 34:53.02 | 4:14.48 | 156977 | 176074


Track 1

Filename E:\!Rips\FUNK @ SOUL\Ohio Players - OUCH! (BOA1039)\01. Ouch! – Do Your Thing.wav

Pre-gap length 0:00:02.00

Peak level 98.5 %
Track quality 99.9 %
Test CRC 6A57F6D3
Copy CRC 6A57F6D3
Track not present in AccurateRip database
Copy OK

Track 2

Filename E:\!Rips\FUNK @ SOUL\Ohio Players - OUCH! (BOA1039)\02. Ouch! – Star Of The Party.wav

Pre-gap length 0:00:01.16

Peak level 98.1 %
Track quality 100.0 %
Test CRC BAA0BDAA
Copy CRC BAA0BDAA
Track not present in AccurateRip database
Copy OK

Track 3

Filename E:\!Rips\FUNK @ SOUL\Ohio Players - OUCH! (BOA1039)\03. Ouch! – Sweet Lil' Lady.wav

Pre-gap length 0:00:01.80

Peak level 99.9 %
Track quality 100.0 %
Test CRC E3EEDFF6
Copy CRC E3EEDFF6
Track not present in AccurateRip database
Copy OK

Track 4

Filename E:\!Rips\FUNK @ SOUL\Ohio Players - OUCH! (BOA1039)\04. Ouch! – Everybody Dance.wav

Pre-gap length 0:00:01.06

Peak level 99.3 %
Track quality 100.0 %
Test CRC 7DA4CC86
Copy CRC 7DA4CC86
Track not present in AccurateRip database
Copy OK

Track 5

Filename E:\!Rips\FUNK @ SOUL\Ohio Players - OUCH! (BOA1039)\05. Ouch! – My Baby Gets The Best Of My Love.wav

Pre-gap length 0:00:01.09

Peak level 98.6 %
Track quality 99.9 %
Test CRC C5CDE2B1
Copy CRC C5CDE2B1
Track not present in AccurateRip database
Copy OK

Track 6

Filename E:\!Rips\FUNK @ SOUL\Ohio Players - OUCH! (BOA1039)\06. Ouch! – Just Me.wav

Pre-gap length 0:00:01.46

Peak level 99.1 %
Track quality 100.0 %
Test CRC 8468AD56
Copy CRC 8468AD56
Track not present in AccurateRip database
Copy OK

Track 7

Filename E:\!Rips\FUNK @ SOUL\Ohio Players - OUCH! (BOA1039)\07. Ouch! – Thinkin' 'bout You.wav

Pre-gap length 0:00:01.33

Peak level 99.6 %
Track quality 100.0 %
Test CRC 480542E2
Copy CRC 480542E2
Track not present in AccurateRip database
Copy OK

Track 8

Filename E:\!Rips\FUNK @ SOUL\Ohio Players - OUCH! (BOA1039)\08. Ouch! – Devoted.wav

Pre-gap length 0:00:01.84

Peak level 98.3 %
Track quality 100.0 %
Test CRC 71979A95
Copy CRC 71979A95
Track not present in AccurateRip database
Copy OK

Track 9

Filename E:\!Rips\FUNK @ SOUL\Ohio Players - OUCH! (BOA1039)\09. Ouch! – I'd Better Take A Coffee Break.wav

Pre-gap length 0:00:01.42

Peak level 98.6 %
Track quality 100.0 %
Test CRC F118AB1A
Copy CRC F118AB1A
Track not present in AccurateRip database
Copy OK


None of the tracks are present in the AccurateRip database

No errors occurred

End of status report

foobar2000 1.3.7 / Dynamic Range Meter 1.1.1
log date: 2015-10-07 22:22:13

––––––––––––––––––––––––––––––––––––––––
Analyzed: Ouch! / Ohio Players
––––––––––––––––––––––––––––––––––––––––

DR Peak RMS Duration Track
––––––––––––––––––––––––––––––––––––––––
DR12 -0.13 dB -13.66 dB 5:10 01-Do Your Thing
DR13 -0.16 dB -15.15 dB 4:10 02-Star Of The Party
DR12 0.00 dB -13.77 dB 3:41 03-Sweet Lil' Lady
DR13 -0.06 dB -14.74 dB 5:34 04-Everybody Dance
DR12 -0.11 dB -13.65 dB 3:26 05-My Baby Gets The Best Of My Love
DR13 -0.07 dB -15.19 dB 4:42 06-Just Me
DR12 -0.03 dB -14.36 dB 4:27 07-Thinkin' 'bout You
DR11 -0.14 dB -13.30 dB 3:45 08-Devoted
DR11 -0.12 dB -13.15 dB 4:15 09-I'd Better Take A Coffee Break
––––––––––––––––––––––––––––––––––––––––

Number of tracks: 9
Official DR value: DR12

Samplerate: 44100 Hz
Channels: 2
Bits per sample: 16
Bitrate: 873 kbps
Codec: FLAC
================================================================================


All thanks to - funky_cat & Аndy
password: BlondStyle

Uploadable