Subcategories

Ohio Players - Pain (1972) {Westbound}

Posted By: tiburon
Ohio Players - Pain (1972) {Westbound}

Ohio Players - Pain (1972) {Westbound}
EAC 0.95b3 | FLAC tracks level 8 | Cue+Log+M3U | Full Scans 400dpi | 295MB + 5% Recovery
MP3 CBR 320 Kbps | 152MB + 5% Recovery
Genre: Funk, Soul

Creatively, commercially, and conceptually, Pain was a major step forward for the Ohio Players. This 1971 album was quite a departure from their previous work – in the late-'60s, the Midwesterners' forte had been raw, hard-edged Southern-style soul along the lines of Sam & Dave, Rufus Thomas, and Wilson Pickett. But with Pain, they became a lot more experimental and unveiled an interesting, distinctive brand of funk that incorporated elements of jazz and blues as well as rock. The jazz influence is especially strong on "Never Had a Dream," "Singing in the Morning," and the hit title song, while "The Reds" is a progressive blues number that draws on jazz as well as psychedelic rock.
Track List
01. Pain 6:12
02. Never Had A Dream 4:33
03. Players Balling (Players Doin' Their Own Thing) 4:20
04. I Wanna Hear from You
05. Reds 5:02
06. Singing In The Morning 6:56

Bonus Tracks
07. Climax aka Theme from 69 4:15
08. What's Going On? 5:59
09. Time And Space 1:45
10. Feelin' Alright 3:07
11. If You Were My Woman 4:13
12. Ain't That Loving You 5:42
13. Proud Mary 5:33

Produced by the Ohio Players


EAC extraction logfile from 21. March 2008, 22:37 for CD
Ohio Players / Pain

Used drive : PLEXTOR DVDR PX-712A Adapter: 0 ID: 0
Read mode : Secure with NO C2, accurate stream, disable cache
Read offset correction : 30
Overread into Lead-In and Lead-Out : No

Used output format : C:\Program\FLAC\flac.exe (User Defined Encoder)
320 kBit/s
Additional command line options : -V -8 -T "artist=%a" -T "title=%t" -T "album=%g" -T "date=%y" -T "tracknumber=%n" -T "genre=%m" %s

Other options :
Fill up missing offset samples with silence : Yes
Delete leading and trailing silent blocks : No
Installed external ASPI interface


Track 1
Filename D:\Ohio Players - Pain\01 - Pain.wav

Pre-gap length 0:00:02.00

Peak level 95.2 %
Track quality 100.0 %
Test CRC 7EBE2084
Copy CRC 7EBE2084
Copy OK

Track 2
Filename D:\Ohio Players - Pain\02 - Never Had A Dream.wav

Pre-gap length 0:00:02.10

Peak level 97.1 %
Track quality 100.0 %
Test CRC DA886667
Copy CRC DA886667
Copy OK

Track 3
Filename D:\Ohio Players - Pain\03 - Player's Balling (Players Doin' Their Own Thing).wav

Pre-gap length 0:00:02.58

Peak level 97.1 %
Track quality 100.0 %
Test CRC B97CB83F
Copy CRC B97CB83F
Copy OK

Track 4
Filename D:\Ohio Players - Pain\04 - I Wanna Hear From You.wav

Pre-gap length 0:00:02.18

Peak level 97.1 %
Track quality 100.0 %
Test CRC 90F5BF4B
Copy CRC 90F5BF4B
Copy OK

Track 5
Filename D:\Ohio Players - Pain\05 - The Reds.wav

Pre-gap length 0:00:02.32

Peak level 97.1 %
Track quality 100.0 %
Test CRC 91E59EF3
Copy CRC 91E59EF3
Copy OK

Track 6
Filename D:\Ohio Players - Pain\06 - Singing in the Morning.wav

Pre-gap length 0:00:02.52

Peak level 97.1 %
Track quality 100.0 %
Test CRC 56FF2B2C
Copy CRC 56FF2B2C
Copy OK

Track 7
Filename D:\Ohio Players - Pain\07 - Climax, a.k.a. Theme From 69.wav

Pre-gap length 0:00:01.96

Peak level 94.1 %
Track quality 100.0 %
Test CRC AEE29F86
Copy CRC AEE29F86
Copy OK

Track 8
Filename D:\Ohio Players - Pain\08 - What's Going On.wav

Pre-gap length 0:00:01.64

Peak level 97.1 %
Track quality 100.0 %
Test CRC F1E127D7
Copy CRC F1E127D7
Copy OK

Track 9
Filename D:\Ohio Players - Pain\09 - Time And Space.wav

Pre-gap length 0:00:01.21

Peak level 82.4 %
Track quality 100.0 %
Test CRC 5495CB0F
Copy CRC 5495CB0F
Copy OK

Track 10
Filename D:\Ohio Players - Pain\10 - Feelin' Alright.wav

Pre-gap length 0:00:01.90

Peak level 95.9 %
Track quality 99.9 %
Test CRC 34FDE763
Copy CRC 34FDE763
Copy OK

Track 11
Filename D:\Ohio Players - Pain\11 - If You Were My Woman.wav

Pre-gap length 0:00:02.00

Peak level 97.1 %
Track quality 100.0 %
Test CRC 5B105394
Copy CRC 5B105394
Copy OK

Track 12
Filename D:\Ohio Players - Pain\12 - Ain't That Loving You.wav

Pre-gap length 0:00:01.34

Peak level 97.1 %
Track quality 99.9 %
Test CRC BB05DD4A
Copy CRC BB05DD4A
Copy OK

Track 13
Filename D:\Ohio Players - Pain\13 - Proud Mary.wav

Pre-gap length 0:00:01.96

Peak level 97.2 %
Track quality 100.0 %
Test CRC DEE14EB1
Copy CRC DEE14EB1
Copy OK

No errors occured


End of status report


––––––––––––––––––––––––––––––––––––––––
Analyzed: Ohio Players / Pain
––––––––––––––––––––––––––––––––––––––––

DR Peak RMS Duration Track
––––––––––––––––––––––––––––––––––––––––
DR11 -0.42 dB -14.04 dB 6:15 01-Pain
DR10 -0.25 dB -14.13 dB 4:36 02-Never Had A Dream
DR10 -0.25 dB -12.73 dB 4:23 03-Player's Balling (Players Doin' Their Own Thing)
DR11 -0.25 dB -13.37 dB 2:54 04-I Wanna Hear From You
DR13 -0.25 dB -15.57 dB 5:05 05-The Reds
DR10 -0.25 dB -12.27 dB 6:59 06-Singing in the Morning
DR11 -0.52 dB -13.38 dB 4:18 07-Climax, a.k.a. Theme From 69
DR9 -0.25 dB -10.79 dB 6:01 08-What's Going On
DR12 -1.67 dB -20.32 dB 1:47 09-Time And Space
DR11 -0.36 dB -13.25 dB 3:10 10-Feelin' Alright
DR9 -0.25 dB -11.38 dB 4:15 11-If You Were My Woman
DR10 -0.25 dB -11.71 dB 5:44 12-Ain't That Loving You
DR11 -0.24 dB -13.58 dB 5:33 13-Proud Mary
––––––––––––––––––––––––––––––––––––––––

Number of tracks: 13
Official DR value: DR11

Samplerate: 44100 Hz
Channels: 2
Bits per sample: 16
Bitrate: 388 kbps
Codec: FLAC
================================================================================

Ohio Players - Pain (1972) {Westbound}
Ohio Players - Pain (1972) {Westbound}
Ohio Players - Pain (1972) {Westbound}


Thanks for the rip to Spooncan