Subcategories

Öken - Öken (2015)

Posted By: Necromandus
Öken - Öken (2015)

Öken - Öken (2015)
EAC Rip | FLAC, IMG+CUE+LOG | 430 MB | MP3 CBR 320 Kbps | 150 MB | Complete HQ Scans | PNG -> 30 MB
Stoner Rock/Doom | Label: Ozium Records ‎#Ozium007| RAR 3% Rec. | IcerBox.com

Öken from Skövde with its debut of Ozium Records plays progressive stoner rock / doom with roots from the 70s psychedelica rock. Adrian Kjellgren (guitar and vocals), Jonathan Holmström (guitar), Jesper Sundell (drums), Arvid Qvick (bass and vocals). They only leave a year, but has already found its own unique sound with a little jam time they have. They are now ready to conquer the world with its desert fuzzy jam cozy doomy music. For fans of: Lugnoro, Jethro Tull and Dungen aswell If and sleep. Krautprogbikermetal !!
Tracklist :

1. Ol' Me Scrooge - 7:06
2. Crimson Moon - 5:14
3. Ferrûle - 6:02
4. Väktaren - 6:21
5. De Trenne - 5:50
6. Timboholm - 8:18
7. Under Vår Sol - 11:05
8. Cuauhtémoc - 12:25

Exact Audio Copy V1.3 from 2. September 2016

EAC extraction logfile from 11. August 2017, 15:23

Oken / Oken

Used drive : TSSTcorpCDDVDW SH-S223F Adapter: 1 ID: 0

Read mode : Secure
Utilize accurate stream : Yes
Defeat audio cache : Yes
Make use of C2 pointers : No

Read offset correction : 6
Overread into Lead-In and Lead-Out : No
Fill up missing offset samples with silence : Yes
Delete leading and trailing silent blocks : No
Null samples used in CRC calculations : Yes
Used interface : Native Win32 interface for Win NT & 2000

Used output format : Internal WAV Routines
Sample format : 44.100 Hz; 16 Bit; Stereo


TOC of the extracted CD

Track | Start | Length | Start sector | End sector
––––––––––––––––––––––––––––-
1 | 0:00.00 | 7:06.10 | 0 | 31959
2 | 7:06.10 | 5:14.10 | 31960 | 55519
3 | 12:20.20 | 6:02.10 | 55520 | 82679
4 | 18:22.30 | 6:21.35 | 82680 | 111289
5 | 24:43.65 | 5:49.47 | 111290 | 137511
6 | 30:33.37 | 8:18.37 | 137512 | 174898
7 | 38:51.74 | 11:05.10 | 174899 | 224783
8 | 49:57.09 | 12:24.54 | 224784 | 280637


Range status and errors

Selected range

Filename Z:\by Necromandus\Oken - Oken.wav

Peak level 97.7 %
Extraction speed 7.3 X
Range quality 100.0 %
Test CRC B464F467
Copy CRC B464F467
Copy OK

No errors occurred


AccurateRip summary

Track 1 not present in database
Track 2 not present in database
Track 3 not present in database
Track 4 not present in database
Track 5 not present in database
Track 6 not present in database
Track 7 not present in database
Track 8 not present in database

None of the tracks are present in the AccurateRip database

End of status report

–– CUETools DB Plugin V2.1.6

[CTDB TOCID: kESkJk3ih8.m2r6wHb..tYSUOtY-] found
Submit result: kESkJk3ih8.m2r6wHb..tYSUOtY- has been confirmed
Track | CTDB Status
1 | (1/1) Accurately ripped
2 | (1/1) Accurately ripped
3 | (1/1) Accurately ripped
4 | (1/1) Accurately ripped
5 | (1/1) Accurately ripped
6 | (1/1) Accurately ripped
7 | (1/1) Accurately ripped
8 | (1/1) Accurately ripped


==== Log checksum DADA339CAFFB0389D168C467BA77994BC0C13880774E88C3385DE2BF2BC58144 ====

• Adrian Kjellgren - Vocals, guitars
• Jonathan Holmström - Guitars
• Arvid Qvick - Bass
• Jesper Sundell - Drums

Recorded at Hoborec Studio a weekend during a snowstorm in Jannari