Subcategories

Old Crow Medicine Show - Best Of (2017)

Posted By: SERTiL
Old Crow Medicine Show - Best Of (2017)

Old Crow Medicine Show - Best Of
EAC Rip | FLAC (tracks)+cue, log, m3u, front cover | 45:24 min | 277 MB
Label: Nettwerk - 311092 | Tracks: 14 | Rls.date: 2017
Bluegrass, Folk, Alt-Country

Two-time Grammy Award winners and Grand Ole Opry members Old Crow Medicine Show release Best Of, which features 12 of the most memorable and beloved songs from O.C.M.S. (2004), Big Iron World (2006), Tennessee Pusher (2008) including Wagon Wheel" as well as two previously unreleased tracks: Black Haired Quebecoise and Heart Up In The Sky.

TRACKLIST
01. Wagon Wheel 03:53
02. Tell It to Me 02:48
03. Down Home Girl 03:48
04. Alabama High-Test 02:23
05. Big Time in the Jungle 02:50
06. CC Rider 03:50
07. Take 'Em Away 03:36
08. Humdinger 02:27
09. Fall on My Knees 02:15
10. My Good Gal 04:18
11. I Hear Them All 03:06
12. Caroline 03:35
13. Black-Haired Quebecoise 02:52
14. Heart up in the Sky 03:43

Exact Audio Copy V1.3 from 2. September 2016

EAC extraction logfile from 30. May 2017, 17:06

Old Crow Medicine Show / Best of Old Crow Medicine Show

Used drive : HL-DT-STDVDRAM GP60NB50 Adapter: 1 ID: 1

Read mode : Secure
Utilize accurate stream : Yes
Defeat audio cache : Yes
Make use of C2 pointers : No

Read offset correction : 6
Overread into Lead-In and Lead-Out : No
Fill up missing offset samples with silence : Yes
Delete leading and trailing silent blocks : No
Null samples used in CRC calculations : Yes
Used interface : Native Win32 interface for Win NT & 2000
Gap handling : Appended to previous track

Used output format : User Defined Encoder
Selected bitrate : 1024 kBit/s
Quality : High
Add ID3 tag : No
Command line compressor : C:\Program Files (x86)\Exact Audio Copy\Flac\flac.exe
Additional command line options : -8 -e -V -T "ARTIST=%artist%" -T "TITLE=%title%" -T "ALBUM=%albumtitle%" -T "DATE=%year%" -T "TRACKNUMBER=%tracknr%" -T "GENRE=%genre%" -T "PERFORMER=%albuminterpret%" -T "COMPOSER=%composer%" %haslyrics%–tag-from-file=LYRICS="%lyricsfile%"%haslyrics% -T "ALBUMARTIST=%albumartist%" -T "DISCNUMBER=%cdnumber%" -T "TOTALDISCS=%totalcds%" -T "TOTALTRACKS=%numtracks%" -T "COMMENT=%comment%" %source% -o %dest%


TOC of the extracted CD

Track | Start | Length | Start sector | End sector
––––––––––––––––––––––––––––-
1 | 0:00.00 | 3:53.53 | 0 | 17527
2 | 3:53.53 | 2:48.67 | 17528 | 30194
3 | 6:42.45 | 3:48.49 | 30195 | 47343
4 | 10:31.19 | 2:23.70 | 47344 | 58138
5 | 12:55.14 | 2:50.63 | 58139 | 70951
6 | 15:46.02 | 3:50.54 | 70952 | 88255
7 | 19:36.56 | 3:36.17 | 88256 | 104472
8 | 23:12.73 | 2:27.44 | 104473 | 115541
9 | 25:40.42 | 2:15.51 | 115542 | 125717
10 | 27:56.18 | 4:18.24 | 125718 | 145091
11 | 32:14.42 | 3:06.22 | 145092 | 159063
12 | 35:20.64 | 3:35.14 | 159064 | 175202
13 | 38:56.03 | 2:52.67 | 175203 | 188169
14 | 41:48.70 | 3:43.71 | 188170 | 204965


Track 1

Filename C:\EAC\Old Crow Medicine Show - Best of Old Crow Medicine Show (2017) {Nettwerk 311092} [FLAC]\01 - Wagon Wheel.wav

Pre-gap length 0:00:02.00

Peak level 97.7 %
Extraction speed 1.0 X
Track quality 99.9 %
Test CRC 33B7DA74
Copy CRC 33B7DA74
Accurately ripped (confidence 1) [978F4F26] (AR v2)
Copy OK

Track 2

Filename C:\EAC\Old Crow Medicine Show - Best of Old Crow Medicine Show (2017) {Nettwerk 311092} [FLAC]\02 - Tell It to Me.wav

Peak level 97.7 %
Extraction speed 1.1 X
Track quality 100.0 %
Test CRC 5C7ACAEC
Copy CRC 5C7ACAEC
Accurately ripped (confidence 1) [8630D14E] (AR v2)
Copy OK

Track 3

Filename C:\EAC\Old Crow Medicine Show - Best of Old Crow Medicine Show (2017) {Nettwerk 311092} [FLAC]\03 - Down Home Girl.wav

Peak level 95.8 %
Extraction speed 1.3 X
Track quality 100.0 %
Test CRC EDD0F996
Copy CRC EDD0F996
Accurately ripped (confidence 1) [0733808C] (AR v2)
Copy OK

Track 4

Filename C:\EAC\Old Crow Medicine Show - Best of Old Crow Medicine Show (2017) {Nettwerk 311092} [FLAC]\04 - Alabama High-Test.wav

Peak level 94.4 %
Extraction speed 1.3 X
Track quality 100.0 %
Test CRC 9892B2ED
Copy CRC 9892B2ED
Accurately ripped (confidence 1) [E655B9F5] (AR v2)
Copy OK

Track 5

Filename C:\EAC\Old Crow Medicine Show - Best of Old Crow Medicine Show (2017) {Nettwerk 311092} [FLAC]\05 - Big Time in the Jungle.wav

Peak level 97.7 %
Extraction speed 1.4 X
Track quality 100.0 %
Test CRC A4F26A4D
Copy CRC A4F26A4D
Accurately ripped (confidence 1) [0964491D] (AR v2)
Copy OK

Track 6

Filename C:\EAC\Old Crow Medicine Show - Best of Old Crow Medicine Show (2017) {Nettwerk 311092} [FLAC]\06 - CC Rider.wav

Peak level 97.7 %
Extraction speed 1.4 X
Track quality 99.9 %
Test CRC 70B4DA2D
Copy CRC 70B4DA2D
Accurately ripped (confidence 1) [4492AABA] (AR v2)
Copy OK

Track 7

Filename C:\EAC\Old Crow Medicine Show - Best of Old Crow Medicine Show (2017) {Nettwerk 311092} [FLAC]\07 - Take 'Em Away.wav

Peak level 97.7 %
Extraction speed 1.6 X
Track quality 100.0 %
Test CRC 99BC60EE
Copy CRC 99BC60EE
Accurately ripped (confidence 1) [83140F4C] (AR v2)
Copy OK

Track 8

Filename C:\EAC\Old Crow Medicine Show - Best of Old Crow Medicine Show (2017) {Nettwerk 311092} [FLAC]\08 - Humdinger.wav

Peak level 94.4 %
Extraction speed 1.6 X
Track quality 100.0 %
Test CRC 76DD5697
Copy CRC 76DD5697
Accurately ripped (confidence 1) [4FE09910] (AR v2)
Copy OK

Track 9

Filename C:\EAC\Old Crow Medicine Show - Best of Old Crow Medicine Show (2017) {Nettwerk 311092} [FLAC]\09 - Fall on My Knees.wav

Peak level 99.8 %
Extraction speed 1.6 X
Track quality 100.0 %
Test CRC 1271A40A
Copy CRC 1271A40A
Accurately ripped (confidence 1) [5415B13D] (AR v2)
Copy OK

Track 10

Filename C:\EAC\Old Crow Medicine Show - Best of Old Crow Medicine Show (2017) {Nettwerk 311092} [FLAC]\10 - My Good Gal.wav

Peak level 97.7 %
Extraction speed 1.7 X
Track quality 99.9 %
Test CRC 2119F2B7
Copy CRC 2119F2B7
Accurately ripped (confidence 1) [91BD4339] (AR v2)
Copy OK

Track 11

Filename C:\EAC\Old Crow Medicine Show - Best of Old Crow Medicine Show (2017) {Nettwerk 311092} [FLAC]\11 - I Hear Them All.wav

Peak level 97.7 %
Extraction speed 1.8 X
Track quality 100.0 %
Test CRC CEC873A3
Copy CRC CEC873A3
Accurately ripped (confidence 1) [A3F09211] (AR v2)
Copy OK

Track 12

Filename C:\EAC\Old Crow Medicine Show - Best of Old Crow Medicine Show (2017) {Nettwerk 311092} [FLAC]\12 - Caroline.wav

Peak level 97.7 %
Extraction speed 1.9 X
Track quality 100.0 %
Test CRC 15CA1155
Copy CRC 15CA1155
Accurately ripped (confidence 1) [6D83F62B] (AR v2)
Copy OK

Track 13

Filename C:\EAC\Old Crow Medicine Show - Best of Old Crow Medicine Show (2017) {Nettwerk 311092} [FLAC]\13 - Black Haired Québécoise.wav

Peak level 100.0 %
Extraction speed 1.9 X
Track quality 100.0 %
Test CRC 1836B6D2
Copy CRC 1836B6D2
Accurately ripped (confidence 1) [E5F9F75E] (AR v2)
Copy OK

Track 14

Filename C:\EAC\Old Crow Medicine Show - Best of Old Crow Medicine Show (2017) {Nettwerk 311092} [FLAC]\14 - Heart Up in the Sky.wav

Peak level 100.0 %
Extraction speed 2.1 X
Track quality 100.0 %
Test CRC 2D954197
Copy CRC 2D954197
Accurately ripped (confidence 1) [5577BE79] (AR v2)
Copy OK


All tracks accurately ripped

No errors occurred

End of status report

–– CUETools DB Plugin V2.1.6

[CTDB TOCID: R23pmQbXNQjIuwbLTYv940ExaIc-] found
Submit result: R23pmQbXNQjIuwbLTYv940ExaIc- has been confirmed
Track | CTDB Status
1 | (13/13) Accurately ripped
2 | (13/13) Accurately ripped
3 | (13/13) Accurately ripped
4 | (13/13) Accurately ripped
5 | (13/13) Accurately ripped
6 | (13/13) Accurately ripped
7 | (13/13) Accurately ripped
8 | (13/13) Accurately ripped
9 | (13/13) Accurately ripped
10 | (13/13) Accurately ripped
11 | (13/13) Accurately ripped
12 | (13/13) Accurately ripped
13 | (13/13) Accurately ripped
14 | (13/13) Accurately ripped


==== Log checksum 2FDA917B0E530EF28F8EED584A56AF9750D6B58CE62C6F7D49380A43D6B347FD ====


Old Crow Medicine Show - Best Of (2017)


Thanks to the Original customer.