Subcategories

Oliver Shanti & Friends - Listening to the Heart (1987) [Reissue 2007]

Posted By: gribovar
Oliver Shanti & Friends - Listening to the Heart (1987) [Reissue 2007]

Oliver Shanti & Friends - Listening to the Heart (1987) [Reissue 2007]
EAC Rip | FLAC (tracks+.cue+log) - 223 MB | MP3 CBR 320 kbps (LAME 3.93) - 114 MB | Covers - 132 MB
Genre: New Age | RAR 3% Rec. | Label: Правительство Звука (ПРЗ CD56335)

Oliver Shanti, also known as Oliver Serano-Alve, is a New Age musician, best known for his work with the bands "Oliver Shanti & Friends" and "Inkarnation". "Oliver Shanti & Friends" is a collaborative New Age project led by Oliver Shanti together with his wife Margot Vogl and ever changing lineup of guest musicians from all over the world. Also a part of first regular lineup keyboard player Veit Wayman left in 1998. The project existed till 2003 and was effectively dissolved following the escape of Oliver Shanti during his prosecution.
Tracklist:
01. Waves of Symphony
02. Beating Heart
03. Listening to the Heart
04. Rainbow Liberty
05. Mirror Sea Reflects the Mind
06. Maha Maha Maha Deva
07. Kriya Galaxy

Total time: 48:45

Exact Audio Copy V1.0 beta 3 from 29. August 2011

EAC extraction logfile from 25. December 2011, 12:10

Oliver Shanti & Friends / Listening to the Heart

Used drive : HL-DT-STDVDRAM GH22NS70 Adapter: 2 ID: 0

Read mode : Secure
Utilize accurate stream : Yes
Defeat audio cache : Yes
Make use of C2 pointers : No

Read offset correction : 667
Overread into Lead-In and Lead-Out : No
Fill up missing offset samples with silence : Yes
Delete leading and trailing silent blocks : No
Null samples used in CRC calculations : Yes
Used interface : Native Win32 interface for Win NT & 2000
Gap handling : Appended to previous track

Used output format : User Defined Encoder
Selected bitrate : 1024 kBit/s
Quality : High
Add ID3 tag : No
Command line compressor : C:\Program Files\Exact Audio Copy\Flac\flac.exe
Additional command line options : -V -8 -T "Genre=%genre%" -T "Artist=%artist%" -T "Title=%title%" -T "Album=%albumtitle%" -T "Date=%year%" -T "Tracknumber=%tracknr%" -T "Comment=%comment%" %source%


TOC of the extracted CD

Track | Start | Length | Start sector | End sector
––––––––––––––––––––––––––––-
1 | 0:00.00 | 6:47.35 | 0 | 30559
2 | 6:47.35 | 5:24.67 | 30560 | 54926
3 | 12:12.27 | 5:52.13 | 54927 | 81339
4 | 18:04.40 | 6:48.22 | 81340 | 111961
5 | 24:52.62 | 11:37.35 | 111962 | 164271
6 | 36:30.22 | 5:02.70 | 164272 | 186991
7 | 41:33.17 | 7:12.13 | 186992 | 219404


Track 1

Filename D:\Arh\Artworks\Oliver Shanti & Friends - Listening to the Heart(1987) [flac]\01 Oliver Shanti & Friends - Waves of Synphony.wav

Pre-gap length 0:00:02.00

Peak level 87.4 %
Extraction speed 1.1 X
Track quality 100.0 %
Test CRC FD68B2A5
Copy CRC FD68B2A5
Track not present in AccurateRip database
Copy OK

Track 2

Filename D:\Arh\Artworks\Oliver Shanti & Friends - Listening to the Heart(1987) [flac]\02 Oliver Shanti & Friends - Beating Heart.wav

Peak level 76.2 %
Extraction speed 1.3 X
Track quality 100.0 %
Test CRC 838896DD
Copy CRC 838896DD
Track not present in AccurateRip database
Copy OK

Track 3

Filename D:\Arh\Artworks\Oliver Shanti & Friends - Listening to the Heart(1987) [flac]\03 Oliver Shanti & Friends - Listening to the Heart.wav

Peak level 70.1 %
Extraction speed 1.4 X
Track quality 100.0 %
Test CRC A9F79450
Copy CRC A9F79450
Track not present in AccurateRip database
Copy OK

Track 4

Filename D:\Arh\Artworks\Oliver Shanti & Friends - Listening to the Heart(1987) [flac]\04 Oliver Shanti & Friends - Rainbow Liberty.wav

Peak level 88.4 %
Extraction speed 1.6 X
Track quality 100.0 %
Test CRC A2318711
Copy CRC A2318711
Track not present in AccurateRip database
Copy OK

Track 5

Filename D:\Arh\Artworks\Oliver Shanti & Friends - Listening to the Heart(1987) [flac]\05 Oliver Shanti & Friends - Mirror Sea Reflects the Mind.wav

Peak level 86.2 %
Extraction speed 1.9 X
Track quality 100.0 %
Test CRC AF3EA54D
Copy CRC AF3EA54D
Track not present in AccurateRip database
Copy OK

Track 6

Filename D:\Arh\Artworks\Oliver Shanti & Friends - Listening to the Heart(1987) [flac]\06 Oliver Shanti & Friends - Maha Maha Maha Deva.wav

Peak level 67.1 %
Extraction speed 1.9 X
Track quality 100.0 %
Test CRC 9B3A8966
Copy CRC 9B3A8966
Track not present in AccurateRip database
Copy OK

Track 7

Filename D:\Arh\Artworks\Oliver Shanti & Friends - Listening to the Heart(1987) [flac]\07 Oliver Shanti & Friends - Kriya Galaxy.wav

Peak level 70.7 %
Extraction speed 2.1 X
Track quality 100.0 %
Test CRC C9DC028B
Copy CRC C9DC028B
Track not present in AccurateRip database
Copy OK


None of the tracks are present in the AccurateRip database

No errors occurred

End of status report

==== Log checksum 4FF18A721196CE4B9BF19DDAA662CC27E7A5D409801C899E5D596D7F8F7984DB ====

[CUETools log; Date: 11.09.2017 15:34:32; Version: 2.1.4]
[CTDB TOCID: bpfo9z8BBao7jekzmsr1SYVY7Ts-] found.
Track | CTDB Status
1 | (33/35) Accurately ripped, or (1/35) differs in 178 samples @00:03:66-00:03:67,00:08:03,00:08:11,00:14:43,00:14:59-00:14:60,00:14:68-00:14:69,00:16:03,00:23:46-00:23:47,00:26:10,00:27:36,02:35:59,02:36:02-02:36:03,02:36:12,02:36:30,02:36:57-02:36:58,02:37:01,02:37:10,02:37:19,02:37:28-02:37:29,02:37:46-02:37:47,02:37:65,02:37:74,02:38:08-02:38:09
2 | (34/35) Accurately ripped
3 | (34/35) Accurately ripped
4 | (34/35) Accurately ripped
5 | (33/35) Accurately ripped
6 | (33/35) Accurately ripped, or (1/35) differs in 13 samples @01:00:41,01:00:74,04:08:30
7 | (32/35) Accurately ripped, or (1/35) differs in 174 samples @00:27:50,02:37:38,02:37:55,02:37:73,02:38:32,02:39:09,02:39:25-02:39:26,02:39:43-02:39:44,02:39:60-02:39:61,02:40:02-02:40:03,02:40:20,02:40:37,02:40:54,02:40:72,02:41:13,02:41:48,02:41:66,02:42:42,02:42:59,02:43:02,02:43:71,02:44:13,02:44:30,02:51:58,02:52:00,03:07:52,03:11:29
[AccurateRip ID: 000cf632-004ebfb8-600b6d07] found.
Track [ CRC | V2 ] Status
01 [c0b42f15|a923f725] (00+00/18) No match
02 [c76c65bd|3b264830] (00+00/19) No match
03 [7c57b4d0|f849b2da] (00+00/20) No match
04 [40b6b4e8|54708c35] (00+00/18) No match
05 [6da8ae24|3fa315b5] (00+00/18) No match
06 [8e4aa7f4|fa1c2a96] (00+00/17) No match
07 [ba103285|26aec47e] (00+00/17) No match
Offsetted by 730:
01 [df335d10] (03/18) Accurately ripped
02 [10f32722] (03/19) Accurately ripped
03 [688111be] (03/20) Accurately ripped
04 [4b9ef5a0] (03/18) Accurately ripped
05 [7749aee0] (03/18) Accurately ripped
06 [64958246] (03/17) Accurately ripped
07 [590b4fbb] (03/17) Accurately ripped
Offsetted by 1394:
01 [934fa34c] (06/18) Accurately ripped
02 [76918de6] (06/19) Accurately ripped
03 [f9e0e806] (07/20) Accurately ripped
04 [b43a1ac0] (05/18) Accurately ripped
05 [e88cdff0] (05/18) Accurately ripped
06 [f07b8b5c] (05/17) Accurately ripped
07 [7475eb85] (05/17) Accurately ripped

Track Peak [ CRC32 ] [W/O NULL] [ LOG ]
– 88,4 [74970C2E] [791C8097]
01 87,4 [FD68B2A5] [310E3708] CRC32
02 76,2 [838896DD] [D134B500] CRC32
03 70,1 [A9F79450] [2ACC5B96] CRC32
04 88,4 [A2318711] [832671D2] CRC32
05 86,2 [AF3EA54D] [B8F6421D] CRC32
06 67,1 [9B3A8966] [931553DF] CRC32
07 70,7 [C9DC028B] [0AD22EDA] CRC32

Thanks to ser_

See also:
Oliver Shanti & Friends - Well Balanced (1995) [Reissue 2007]