Subcategories

Olivia Newton-John - Country Girl (1998) *Re-Up* *New Rip*

Posted By: BlondStyle
Olivia Newton-John - Country Girl (1998) *Re-Up* *New Rip*

Olivia Newton-John - Country Girl (1998)
Pop/Rock, Soft Rock, Country | EAC Rip | FLAC, Img+CUE+LOG+Scans (PNG) | 66:51 Min | 461,96 Mb
Label: EMI Records Ltd. (EU) | Cat.# 7243 4 94970 2 3 | Released: 1998-05-25

This very nicely mastered UK album covers Olivia Newton John's early career, the pre-Grease era. Her voice is crystal clear and in great shape. Her own versions of "If We Only Have Love" & "The Air That I Breathe" are unsurpassed. The album also features two tracks written by Olivia: "Changes" & "Rosewater". Both tracks are stand out recordings showcasing Olivia's early songwriting abilities. Her kindness and love shine on this album. The CD also features great linear notes with a nice biography of Olivia.
Olivia Newton-John - Country Girl (1998) *Re-Up* *New Rip*

Olivia Newton-John - Country Girl (1998) *Re-Up* *New Rip*


Release of this CD: 1998, May, 25 [CD EMI Records Ltd. (EU), Cat.# 7243 4 94970 2 3 / UPC: 724349497023]
℗ 1971, 72, 73, 74 Tracks 1-16 & 19. The copyright in these sound recordings is owned by Festival Records International Limited, under exclusive licence to EMI Records Ltd.
℗ 1975 Tracks 17, 18, & 20. The copyright in these sound recordings is owned by EMI Records Ltd.
℗ 1998 The copyright in this compilation is owned by EMI Records Ltd. © 1998 EMI Records Ltd.
Made in the E.U.

Credits:

Compiled By – Helen Kembery, Richard Mudhar
Coordinator [Project Co-ordination] – Mike McNally, Sarah Greig
Design – Jason/Nic
Engineer – Greg Baggott
Sleeve Notes – Ted Carfrae


Tracklist:

01. Love Song (03:47)
(Lesley Duncan)
02. Banks Of The Ohio (03:17)
(Trad., Arr. Bruce Welch / John Farrar)
03. If Not For You (02:53)
(Bob Dylan)
04. If You Could Read My Mind (03:42)
(Gordon Lightfoot)
05. Lullaby (03:00)
(Lesley Duncan)
06. It’s So Hard To Say Goodbye (04:04)
(Ray Cameron / Alan Hawkshaw)
07. Winterwood (02:51)
(Don McLean)
08. What Is Life (03:23)
(George Harrison)
09. Changes (02:31)
(Olivia Newton-John)
10. Living In Harmony (02:51)
(Alan Tarney / Trevor Spencer)
11. If We Only Have Love (03:23)
(Jacques Brel / Mort Shuman)
12. Take Me Home, Country Roads (03:19)
(Bill Danoff / Taffy Nivert / John Denver)
13. I Love You, I Honestly Love You (03:39)
(Peter Allen / Jeff Barry)
14. Music Makes My Day (03:12)
(John Farrar)
15. Rosewater (03:57)
(Olivia Newton-John)
16. Let Me Be There (03:01)
(John Rostill)
17. Please Mr. Please (03:25)
(Bruce Welch / John Rostill)
18. The Air That I Breathe (03:51)
(Albert Hammond / Michael Hazlewood)
19. If You Love Me (Let Me Know) (03:15)
(John Rostill)
20. Have You Never Been Mellow (03:30)
(John Farrar)

Exact Audio Copy V1.3 from 2. September 2016

EAC extraction logfile from 24. September 2017, 16:18

Olivia Newton-John / Country Girl

Used drive : PIONEER BD-RW BDR-208D Adapter: 1 ID: 0

Read mode : Secure
Utilize accurate stream : Yes
Defeat audio cache : Yes
Make use of C2 pointers : No

Read offset correction : 667
Overread into Lead-In and Lead-Out : No
Fill up missing offset samples with silence : Yes
Delete leading and trailing silent blocks : No
Null samples used in CRC calculations : Yes
Used interface : Native Win32 interface for Win NT & 2000

Used output format : Internal WAV Routines
Sample format : 44.100 Hz; 16 Bit; Stereo


TOC of the extracted CD

Track | Start | Length | Start sector | End sector
––––––––––––––––––––––––––––-
1 | 0:00.00 | 3:46.42 | 0 | 16991
2 | 3:46.42 | 3:16.68 | 16992 | 31759
3 | 7:03.35 | 2:53.20 | 31760 | 44754
4 | 9:56.55 | 3:42.17 | 44755 | 61421
5 | 13:38.72 | 3:00.25 | 61422 | 74946
6 | 16:39.22 | 4:04.30 | 74947 | 93276
7 | 20:43.52 | 2:50.40 | 93277 | 106066
8 | 23:34.17 | 3:23.28 | 106067 | 121319
9 | 26:57.45 | 2:31.17 | 121320 | 132661
10 | 29:28.62 | 2:50.53 | 132662 | 145464
11 | 32:19.40 | 3:23.20 | 145465 | 160709
12 | 35:42.60 | 3:18.42 | 160710 | 175601
13 | 39:01.27 | 3:39.03 | 175602 | 192029
14 | 42:40.30 | 3:12.02 | 192030 | 206431
15 | 45:52.32 | 3:56.58 | 206432 | 224189
16 | 49:49.15 | 3:00.62 | 224190 | 237751
17 | 52:50.02 | 3:24.45 | 237752 | 253096
18 | 56:14.47 | 3:51.00 | 253097 | 270421
19 | 60:05.47 | 3:14.60 | 270422 | 285031
20 | 63:20.32 | 3:30.18 | 285032 | 300799


Range status and errors

Selected range

Filename D:\BlondStyle\Olivia Newton-John - Country Girl.wav

Peak level 99.9 %
Extraction speed 4.4 X
Range quality 100.0 %
Test CRC E3A664A6
Copy CRC E3A664A6
Copy OK

No errors occurred


AccurateRip summary

Track 1 accurately ripped (confidence 2) [44A5933C] (AR v2)
Track 2 accurately ripped (confidence 2) [AB4B7264] (AR v2)
Track 3 accurately ripped (confidence 2) [1C71CE26] (AR v2)
Track 4 accurately ripped (confidence 2) [65CDDE49] (AR v2)
Track 5 accurately ripped (confidence 2) [ACA2E84B] (AR v2)
Track 6 accurately ripped (confidence 2) [0470AA1A] (AR v2)
Track 7 accurately ripped (confidence 2) [8EE838D3] (AR v2)
Track 8 accurately ripped (confidence 2) [42F01787] (AR v2)
Track 9 accurately ripped (confidence 2) [6D64E4EF] (AR v2)
Track 10 accurately ripped (confidence 2) [7FE6988C] (AR v2)
Track 11 accurately ripped (confidence 2) [0886D241] (AR v2)
Track 12 accurately ripped (confidence 2) [CE3DA22E] (AR v2)
Track 13 accurately ripped (confidence 2) [3050B8E3] (AR v2)
Track 14 accurately ripped (confidence 2) [D9CE52DD] (AR v2)
Track 15 accurately ripped (confidence 2) [E5C7814E] (AR v2)
Track 16 accurately ripped (confidence 2) [B850E926] (AR v2)
Track 17 cannot be verified as accurate (confidence 3) [A2C4D056], AccurateRip returned [4F334803] (AR v2)
Track 18 accurately ripped (confidence 2) [A4212354] (AR v2)
Track 19 accurately ripped (confidence 2) [240C7054] (AR v2)
Track 20 accurately ripped (confidence 2) [B1AD91F6] (AR v2)

19 track(s) accurately ripped
1 track(s) could not be verified as accurate

Some tracks could not be verified as accurate

End of status report

–– CUETools DB Plugin V2.1.6

[CTDB TOCID: R5L9IWjfqfZCu3lj1IqrWaOdQdo-] found
Submit result: R5L9IWjfqfZCu3lj1IqrWaOdQdo- has been confirmed
Track | CTDB Status
1 | (11/11) Accurately ripped
2 | (11/11) Accurately ripped
3 | (11/11) Accurately ripped
4 | (11/11) Accurately ripped
5 | (11/11) Accurately ripped
6 | (11/11) Accurately ripped
7 | (11/11) Accurately ripped
8 | (11/11) Accurately ripped
9 | (11/11) Accurately ripped
10 | (11/11) Accurately ripped
11 | (11/11) Accurately ripped
12 | (11/11) Accurately ripped
13 | (11/11) Accurately ripped
14 | (11/11) Accurately ripped
15 | (11/11) Accurately ripped
16 | (11/11) Accurately ripped
17 | ( 1/11) Accurately ripped, or (10/11) differs in 1695 samples @00:47:14-00:47:15,00:47:34,00:48:37-00:48:38,00:49:21-00:49:22,00:51:09-00:51:10,00:51:48-00:51:49,00:52:52,02:15:10-02:15:11,02:15:70-02:15:71,02:16:15,02:16:35,02:16:54-02:16:55,02:16:74-02:17:00,02:17:19-02:17:20,02:17:39-02:17:40,02:18:04,02:18:24,02:19:08-02:19:09,02:19:28-02:19:29,02:19:48-02:19:49,02:19:68,02:20:13,02:20:32-02:20:33
18 | (11/11) Accurately ripped
19 | (11/11) Accurately ripped
20 | (11/11) Accurately ripped
If you are sure that your rip contains errors, you can use CUETools to repair it.


==== Log checksum 30F36FC847AD61C087F937096F3D236DAE0F69575B2AE62403EF6935D3006AC9 ====

––––––––––––––––––––––––––––––––––––––––
Analyzed: Olivia Newton-John / Country Girl
––––––––––––––––––––––––––––––––––––––––

DR Peak RMS Duration Track
––––––––––––––––––––––––––––––––––––––––
DR11 -0.34 dB -14.78 dB 3:47 01-Love Song
DR10 -0.44 dB -13.89 dB 3:17 02-Banks Of The Ohio
DR12 -0.71 dB -15.58 dB 2:53 03-If Not For You
DR9 -0.79 dB -13.17 dB 3:42 04-If You Could Read My Mind
DR9 -1.44 dB -13.60 dB 3:00 05-Lullaby
DR10 -0.51 dB -13.33 dB 4:04 06-It's So Hard To Say Goodbye
DR11 0.00 dB -13.95 dB 2:51 07-Winterwood
DR12 0.00 dB -14.02 dB 3:23 08-What Is Life
DR11 -1.49 dB -15.67 dB 2:31 09-Changes
DR12 0.00 dB -13.25 dB 2:51 10-Living In Harmony
DR9 -1.03 dB -14.96 dB 3:23 11-If We Only Have Love
DR11 0.00 dB -13.68 dB 3:19 12-Take Me Home, Country Roads
DR13 -0.29 dB -18.76 dB 3:39 13-I Love You, I Honestly Love You
DR10 -3.14 dB -15.92 dB 3:12 14-Music Makes My Day
DR10 -2.72 dB -16.42 dB 3:57 15-Rosewater
DR12 -0.98 dB -14.89 dB 3:01 16-Let Me Be There
DR12 -0.18 dB -16.94 dB 3:25 17-Please Mr. Please
DR12 0.00 dB -18.65 dB 3:51 18-The Air That I Breathe
DR12 0.00 dB -14.89 dB 3:15 19-If You Love Me (Let Me Know)
DR11 -0.59 dB -15.71 dB 3:30 20-Have You Never Been Mellow
––––––––––––––––––––––––––––––––––––––––

Number of tracks: 20
Official DR value: DR11

Samplerate: 44100 Hz
Channels: 2
Bits per sample: 16
Bitrate: 831 kbps
Codec: FLAC
================================================================================

See also:


password: BlondStyle