Subcategories

Olivia Newton-John - Let Me Be There (1973) [1998, Digitally Remastered] *Re-Up* *New Rip*

Posted By: BlondStyle
Olivia Newton-John - Let Me Be There (1973) [1998, Digitally Remastered] *Re-Up* *New Rip*

Olivia Newton-John - Let Me Be There (1973) [1998, Digitally Remastered]
Pop/Rock, Country | EAC Rip | FLAC, Img+CUE+LOG+Scans (PNG) | 42:15 Min | 445,83 Mb
Label: Festival Records/Warner Music Australia (AU) | Cat.# D35026 (D21035) | Released: 1998 (1973-03-20)
Olivia Newton-John - Let Me Be There (1973) [1998, Digitally Remastered] *Re-Up* *New Rip*

"Let Me Be There" is the third studio album album by Olivia Newton-John, released in 1973. It consisted of her performances of a collection of 11 cover songs, plus "Let Me Be There", a new song first recorded by Newton-John herself. Outside the United States, it was called "Music Makes My Day" and it was published in the United Kingdom by Pye International, with some different songs, including the noted song "Music Makes My Day" a non-US release. It was produced by Bruce Welch, John Farrar and Alan Hawkshaw. The American publication of the album by MCA Records used the cover art from Olivia's 1972 LP record Olivia, which was not released by MCA. Some of its songs were taken for the US publication, such as song titles from the British publications of the albums "If Not for You" and "Olivia". Though the title song was a commercial failure in England, it was Olivia Newton-John's first American top ten hit, successfully boosting her singing career in North America. She had previously charted in the Billboard Top 40 with the song "If Not for You". In the United States, the album was released with artwork from her 1972 Olivia album and some different songs from this and some earlier Newton-John albums. The album was released to capitalise on the success of its title track that had earned Newton-John a Grammy for Best Country Female. The album was certified Gold by the RIAA in 1974, and it peaked at #54 on the US Pop chart and at #1 (for two weeks) on the Country chart.
~Wikipedia

Olivia Newton-John - Let Me Be There (1973) [1998, Digitally Remastered] *Re-Up* *New Rip*

Olivia Newton-John - Let Me Be There (1973) [1998, Digitally Remastered] *Re-Up* *New Rip*


Release of the album: 1973, March, 20 [LP Pye International, Cat.# NSPL 28185, UK]
Release of this CD: 1998 [CD Festival Records/Warner Music Australia (AU), Cat.# D35026 (D21035) / UPC: 9399603502624]
Note: Re-Mastering 1998 Festival Records Australia
℗ 1974 Festival International Ltd.
© 1998 Festival Records Pty Ltd (Aust).
Manufactured and Distributed by Warner Music Australia
A Warner Music Group Company


Credits:

Arranged By – Alan Hawkshaw (tracks: 9, 11), John Farrar (tracks: 1 to 8, 10, 12)
Artwork – Alan Burrows Limited.
Backing Vocals – Alan Tarney, Jean Hawker, John Farrar, Margo Newman, Mike Sammes, Olivia Newton-John, Pat Carroll, Vicki Brown
Bass – Alan Tarney, Mo Foster
Drums – Brian Bennett, Trevor Spencer
Guitar – Bruce Welch, John Farrar, Kevin Peek, Mark Warner, Terry Britten
Photography By [Sleeve] – Patrick Litchfield
Piano – Alan Hawkshaw, Cliff Hall, Dave Macrae
Producer – Bruce Welch (tracks: 9), John Farrar
Remastered By [Engineer] – William Bowden
Supervised By [Re-Mastering] – Glenn "Magoo" Aird


Tracklist:

01. "Take Me Home, Country Roads" (03:22)
(Bill Danoff, Taffy Nivert, John Denver)
02. "Amoureuse" (03:40)
(Véronique Sanson, Gary Osborne)
03. "Brotherly Love" (03:21)
(John Farrar)
04. "Heartbreaker" (02:33)
(Russ Ballard)
05. "Rosewater" (05:05)
(Olivia Newton-John)
06. "You Ain't Got The Right" (03:31)
(Dennis Locorriere, Ray Sawyer, Ron Haffkine)
07. "Feeling Best" (03:22)
(Glenn Shorrock)
08. "Being on the Losing End" (03:44)
(Carl Groszman)
09. "Let Me Be There" (03:04)
(John Rostill)
10. "Music Makes My Day" (03:15)
(John Farrar)
11. "Leaving" (03:53)
(Doug Flett, Guy Fletcher)
12. "If We Try" (03:25)
(Don McLean)

Exact Audio Copy V1.3 from 2. September 2016

EAC extraction logfile from 9. September 2017, 13:30

Olivia Newton-John / Let Me Be There

Used drive : PIONEER BD-RW BDR-208D Adapter: 1 ID: 0

Read mode : Secure
Utilize accurate stream : Yes
Defeat audio cache : Yes
Make use of C2 pointers : No

Read offset correction : 667
Overread into Lead-In and Lead-Out : No
Fill up missing offset samples with silence : Yes
Delete leading and trailing silent blocks : No
Null samples used in CRC calculations : Yes
Used interface : Native Win32 interface for Win NT & 2000

Used output format : Internal WAV Routines
Sample format : 44.100 Hz; 16 Bit; Stereo


TOC of the extracted CD

Track | Start | Length | Start sector | End sector
––––––––––––––––––––––––––––-
1 | 0:00.00 | 3:22.22 | 0 | 15171
2 | 3:22.22 | 3:40.10 | 15172 | 31681
3 | 7:02.32 | 3:21.25 | 31682 | 46781
4 | 10:23.57 | 2:32.40 | 46782 | 58221
5 | 12:56.22 | 5:05.03 | 58222 | 81099
6 | 18:01.25 | 3:31.27 | 81100 | 96951
7 | 21:32.52 | 3:22.05 | 96952 | 112106
8 | 24:54.57 | 3:43.58 | 112107 | 128889
9 | 28:38.40 | 3:03.47 | 128890 | 142661
10 | 31:42.12 | 3:14.58 | 142662 | 157269
11 | 34:56.70 | 3:52.67 | 157270 | 174736
12 | 38:49.62 | 3:24.65 | 174737 | 190101


Range status and errors

Selected range

Filename D:\BlondStyle\Olivia Newton-John - Let Me Be There.wav

Peak level 99.9 %
Extraction speed 6.6 X
Range quality 100.0 %
Test CRC 362BE984
Copy CRC 362BE984
Copy OK

No errors occurred


AccurateRip summary

Track 1 accurately ripped (confidence 12) [02B026B3] (AR v2)
Track 2 accurately ripped (confidence 11) [4B143959] (AR v2)
Track 3 accurately ripped (confidence 11) [C3718DFF] (AR v2)
Track 4 accurately ripped (confidence 11) [F27351F7] (AR v2)
Track 5 accurately ripped (confidence 11) [09F0C9CF] (AR v2)
Track 6 accurately ripped (confidence 11) [F072583F] (AR v2)
Track 7 accurately ripped (confidence 11) [F151C504] (AR v2)
Track 8 accurately ripped (confidence 11) [323B4E89] (AR v2)
Track 9 accurately ripped (confidence 12) [8564B90B] (AR v2)
Track 10 accurately ripped (confidence 11) [02512605] (AR v2)
Track 11 accurately ripped (confidence 12) [F15D5FA6] (AR v2)
Track 12 accurately ripped (confidence 11) [70B9E6EA] (AR v2)

All tracks accurately ripped

End of status report

–– CUETools DB Plugin V2.1.6

[CTDB TOCID: 0DTYVgHpQy1vSnyFIlYqSfCO.B8-] found
Submit result: already submitted
Track | CTDB Status
1 | (10/10) Accurately ripped
2 | (10/10) Accurately ripped
3 | (10/10) Accurately ripped
4 | (10/10) Accurately ripped
5 | (10/10) Accurately ripped
6 | (10/10) Accurately ripped
7 | (10/10) Accurately ripped
8 | (10/10) Accurately ripped
9 | (10/10) Accurately ripped
10 | (10/10) Accurately ripped
11 | (10/10) Accurately ripped
12 | (10/10) Accurately ripped


==== Log checksum 9DEF437CD63D46513C73A2D9E72A790A59F568914615EED74A1CA2BE23828F69 ====

[Disc ID: 0012dade-00b03f37-9909e60c]
Track [ CRC ] Status
01 [4b05903c] (05/17) Accurately ripped as in pressing(s) #2
02 [b5937a75] (05/16) Accurately ripped as in pressing(s) #2
03 [7af18460] (05/16) Accurately ripped as in pressing(s) #2
04 [4f746652] (05/16) Accurately ripped as in pressing(s) #2
05 [edd44ac1] (05/16) Accurately ripped as in pressing(s) #2
06 [dc03f7c1] (05/16) Accurately ripped as in pressing(s) #2
07 [de8e30e4] (05/16) Accurately ripped as in pressing(s) #2
08 [e870ace0] (05/16) Accurately ripped as in pressing(s) #2
09 [834f3fa1] (05/17) Accurately ripped as in pressing(s) #2
10 [528bfa6b] (05/16) Accurately ripped as in pressing(s) #2
11 [8212e26f] (05/17) Accurately ripped as in pressing(s) #2
12 [2706527e] (05/16) Accurately ripped as in pressing(s) #2

––––––––––––––––––––––––––––––––––––––––
Analyzed: Olivia Newton-John / Let Me Be There
––––––––––––––––––––––––––––––––––––––––

DR Peak RMS Duration Track
––––––––––––––––––––––––––––––––––––––––
DR7 -0.37 dB -9.51 dB 3:22 01-Take Me Home Country Roads
DR8 -0.41 dB -12.15 dB 3:40 02-Amoureuse
DR8 -0.33 dB -9.93 dB 3:21 03-Brotherly Love
DR9 -0.44 dB -11.58 dB 2:33 04-Heartbreaker
DR9 -0.26 dB -12.62 dB 5:05 05-Rosewater
DR6 -0.64 dB -9.96 dB 3:31 06-You Ain't Got The Right
DR7 -0.56 dB -9.19 dB 3:22 07-Feeling Best
DR8 -0.36 dB -11.13 dB 3:44 08-Being On The Loosing End
DR7 -0.77 dB -9.68 dB 3:04 09-Let Me Be There
DR8 0.00 dB -9.91 dB 3:15 10-Music Makes My Day
DR7 -0.21 dB -10.25 dB 3:53 11-Leaving
DR7 -0.81 dB -10.19 dB 3:25 12-If We Try
––––––––––––––––––––––––––––––––––––––––

Number of tracks: 12
Official DR value: DR8

Samplerate: 44100 Hz
Channels: 2
Bits per sample: 16
Bitrate: 950 kbps
Codec: FLAC
================================================================================

See also:


password: BlondStyle