Subcategories

Olivia Newton-John - Long Live Love (1974) [1998, Digitally Remastered] *Re-Up* *New Rip*

Posted By: BlondStyle
Olivia Newton-John - Long Live Love (1974) [1998, Digitally Remastered] *Re-Up* *New Rip*

Olivia Newton-John - Long Live Love (1974) [1998, Digitally Remastered]
Pop/Rock, Country | EAC Rip | FLAC, Img+CUE+LOG+Scans (PNG) | 36:44 Min | 386,10 Mb
Label: Warner Music Australia (AU) | Cat.# D35230 (D21036) | Released: 1998-10-03 (1974-02-15)
Olivia Newton-John - Long Live Love (1974) [1998, Digitally Remastered] *Re-Up* *New Rip*

"Long Live Love" is a studio album by Olivia Newton-John, released in 1974 by EMI Records. It was not released in the US. The song "I Honestly Love You" was her first #1 single in the US, released on the album "If You Love Me, Let Me Know". The title track was the song Newton-John performed for the 1974 Eurovision Song Contest when she represented the UK. The song was first released as a 45 RPM single by Pye International, her first UK label before switching to EMI later in that year with a nod given to her Australian label as "A Festival International Production (England)", a mention which was given for most of her early releases from 1971-74. Along with the title track, five other tracks from the LP had been the six shortlisted songs for the UK selection for Eurovision. The song that placed second, "Angeleyes", was released on the B-side of the "Long Live Love" single. "The River's Too Wide" was also recorded by Jim Mundy, whose version was a Top 20 hit on Hot Country Songs in 1973.
~Wikipedia

Olivia Newton-John - Long Live Love (1974) [1998, Digitally Remastered] *Re-Up* *New Rip*

Olivia Newton-John - Long Live Love (1974) [1998, Digitally Remastered] *Re-Up* *New Rip*


Release of the album: 1974, February, 15 [LP EMI Records, Cat.# EMC 3028, UK]
Release of this CD: 1998, October, 3 [CD Warner Music Australia (AU), Cat.# D35230 (D21036) / UPC: 9399603523025]
Note: Re-Mastering 1998 Festival Records Australia.
Manufactured and Distributed by Warner Music Australia
A Warner Music Group Company

Credits:

Arranged By – Alan Hawkshaw (tracks: 3, 10), Brian Bennett (tracks: 6, 10), John Farrar (tracks: 1, 5, 7, 11), Nick Ingman (tracks: 2, 4, 8, 12)
Design – Brian Palmer
Engineer – Peter Vince, Simon Skolfield
Photography By – John Kelly
Producer – John Farrar


Tracklist:

01. "Free The People" (03:20)
(Barbara Keith)
02. "Angel Eyes" (02:45)
(Tony Macaulay, Keith Potger)
03. "Country Girl" (03:50)
(Alan Hawkshaw, Peter Gosling)
04. "Someday" (02:58)
(Gary Benson, David Mindel)
05. "God Only Knows" (02:49)
(Brian Wilson, Tony Asher)
06. "Loving You Ain't Easy" (02:47)
(Stuart Leathwood, Bob Saker, Gary Sulsh)
07. "Home Ain't Home Anymore" (02:53)
(John Farrar, Peter Robinson)
08. "Have Love Will Travel" (02:46)
(Roger Greenaway, Geoff Stephens)
09. "I Honestly Love You" (03:38)
(Peter Allen, Jeff Barry)
10. "Hands Across The Sea" (02:56)
(Ben Findon, Geoff Wilkins)
11. "The River's Too Wide" (03:16)
(Bob Morrison)
12. "Long Live Love" (02:47)
(Valerie Avon, Harold Spiro)

Exact Audio Copy V1.3 from 2. September 2016

EAC extraction logfile from 26. September 2017, 22:13

Olivia Newton-John / Long Live Love

Used drive : PIONEER BD-RW BDR-208D Adapter: 1 ID: 0

Read mode : Secure
Utilize accurate stream : Yes
Defeat audio cache : Yes
Make use of C2 pointers : No

Read offset correction : 667
Overread into Lead-In and Lead-Out : No
Fill up missing offset samples with silence : Yes
Delete leading and trailing silent blocks : No
Null samples used in CRC calculations : Yes
Used interface : Native Win32 interface for Win NT & 2000

Used output format : Internal WAV Routines
Sample format : 44.100 Hz; 16 Bit; Stereo


TOC of the extracted CD

Track | Start | Length | Start sector | End sector
––––––––––––––––––––––––––––-
1 | 0:00.00 | 3:20.32 | 0 | 15031
2 | 3:20.32 | 2:45.13 | 15032 | 27419
3 | 6:05.45 | 3:49.67 | 27420 | 44661
4 | 9:55.37 | 2:57.65 | 44662 | 58001
5 | 12:53.27 | 2:48.40 | 58002 | 70641
6 | 15:41.67 | 2:47.13 | 70642 | 83179
7 | 18:29.05 | 2:52.40 | 83180 | 96119
8 | 21:21.45 | 2:45.50 | 96120 | 108544
9 | 24:07.20 | 3:38.37 | 108545 | 124931
10 | 27:45.57 | 2:55.60 | 124932 | 138116
11 | 30:41.42 | 3:16.00 | 138117 | 152816
12 | 33:57.42 | 2:46.53 | 152817 | 165319


Range status and errors

Selected range

Filename D:\BlondStyle\Olivia Newton-John - Long Live Love.wav

Peak level 91.4 %
Extraction speed 6.3 X
Range quality 100.0 %
Test CRC FB7A0CA2
Copy CRC FB7A0CA2
Copy OK

No errors occurred


AccurateRip summary

Track 1 accurately ripped (confidence 8) [A89FCEEF] (AR v2)
Track 2 accurately ripped (confidence 8) [3160BBCB] (AR v2)
Track 3 accurately ripped (confidence 8) [A907B01B] (AR v2)
Track 4 accurately ripped (confidence 8) [0D6C920C] (AR v2)
Track 5 accurately ripped (confidence 8) [7F305A34] (AR v2)
Track 6 accurately ripped (confidence 8) [8FD305E8] (AR v2)
Track 7 accurately ripped (confidence 8) [573107D0] (AR v2)
Track 8 accurately ripped (confidence 8) [2933D5F0] (AR v2)
Track 9 accurately ripped (confidence 8) [58C37847] (AR v2)
Track 10 accurately ripped (confidence 8) [289CA18E] (AR v2)
Track 11 accurately ripped (confidence 8) [0A8DF130] (AR v2)
Track 12 accurately ripped (confidence 8) [293ADB63] (AR v2)

All tracks accurately ripped

End of status report

–– CUETools DB Plugin V2.1.6

[CTDB TOCID: JdT039rMxNAWfzims1uOWetM98k-] found
Submit result: JdT039rMxNAWfzims1uOWetM98k- has been confirmed
Track | CTDB Status
1 | (10/10) Accurately ripped
2 | (10/10) Accurately ripped
3 | (10/10) Accurately ripped
4 | (10/10) Accurately ripped
5 | (10/10) Accurately ripped
6 | (10/10) Accurately ripped
7 | (10/10) Accurately ripped
8 | (10/10) Accurately ripped
9 | (10/10) Accurately ripped
10 | (10/10) Accurately ripped
11 | (10/10) Accurately ripped
12 | (10/10) Accurately ripped


==== Log checksum 2C0EFDA6C8D892FBB3004621BED23B7FBE15B81FF163546BA2D978062A294836 ====

[Disc ID: 00108d75-0099e0b3-a4089c0c]
Track [ CRC ] Status
01 [bc06d744] (12/20) Accurately ripped as in pressing(s) #1
02 [948afd25] (12/20) Accurately ripped as in pressing(s) #1
03 [63c8ea2a] (12/20) Accurately ripped as in pressing(s) #1
04 [069baba2] (12/20) Accurately ripped as in pressing(s) #1
05 [5f033f6b] (12/20) Accurately ripped as in pressing(s) #1
06 [a8207090] (12/20) Accurately ripped as in pressing(s) #1
07 [d7015138] (12/20) Accurately ripped as in pressing(s) #1
08 [524110ca] (12/20) Accurately ripped as in pressing(s) #1
09 [630ba3b8] (12/20) Accurately ripped as in pressing(s) #1
10 [7fd86ae9] (12/20) Accurately ripped as in pressing(s) #1
11 [e100162b] (12/20) Accurately ripped as in pressing(s) #1
12 [da5da56a] (12/20) Accurately ripped as in pressing(s) #1

––––––––––––––––––––––––––––––––––––––––
Analyzed: Olivia Newton-John / Long Live Love
––––––––––––––––––––––––––––––––––––––––

DR Peak RMS Duration Track
––––––––––––––––––––––––––––––––––––––––
DR9 -0.77 dB -12.43 dB 3:20 01-Free The People
DR8 -1.14 dB -11.57 dB 2:45 02-Angel Eyes
DR8 -0.98 dB -11.63 dB 3:50 03-Country Girl
DR9 -0.95 dB -14.10 dB 2:58 04-Someday
DR10 -1.41 dB -13.25 dB 2:49 05-God Only Knows
DR7 -0.82 dB -10.58 dB 2:47 06-Loving You Ain't Easy
DR9 -1.08 dB -11.95 dB 2:53 07-Home Ain't Home Anymore
DR8 -1.07 dB -11.08 dB 2:46 08-Have Love Will Travel
DR10 -1.55 dB -16.51 dB 3:38 09-I Love You, I Honestly Love You
DR8 -1.09 dB -10.78 dB 2:56 10-Hands Across The Sea
DR9 -0.86 dB -12.21 dB 3:16 11-The River's Too Wide
DR7 -0.81 dB -10.26 dB 2:47 12-Long Live Love
––––––––––––––––––––––––––––––––––––––––

Number of tracks: 12
Official DR value: DR9

Samplerate: 44100 Hz
Channels: 2
Bits per sample: 16
Bitrate: 870 kbps
Codec: FLAC
================================================================================

See also:


password: BlondStyle