Subcategories

Onslaught - VI (2013) [Japanese Ed.]

Posted By: Andi_Deris
Onslaught - VI (2013) [Japanese Ed.]

Onslaught - VI (2013) [Japanese Ed.]
EAC Rip | FLAC: Image+Cue+Log | 409 Mb | MP3 CBR 320 kbps | 132 Mb | Scans | 37 Mb | Time: 51:28
Spiritual Beast Co., Ltd. | IUCP-16174
Thrash Metal

VI is the sixth studio album by English thrash metal band Onslaught, released on 20 September 2013. It is their second album to have bassist Jeff Williams, first to have drummer Michael Hourihan and third in a row to have vocalist Sy Keeler. ONSLAUGHT once again deliver neck breaking riffs, ripping leads and simply powerful songs that no metalhead should miss.

Onslaught - VI (2013) [Japanese Ed.]




Track Listing

01. A New World Order (00:36)
02. Chaos Is King (04:06)
03. Fuel For My Fire (05:06)
04. Children Of The Sand (06:05)
05. Slaughterize (04:01)
06. 66 Fucking 6 (05:11)
07. Cruci-Fiction (05:08)
08. Dead Man Walking (04:06)
09. Enemy Of My Enemy (05:10)

Bonus tracks
10. Shellshock (Re-Recorded 2013) (06:39)
11. Metal Forces (Re-Recorded 2013) (05:21)

Produced by Onslaught

The Band

• Sy Keeler - Vocals
• Nige Rockett - Guitar
• Andy Rosser Davies - Guitar
• Jeff Williams - Bass
• Mic Hourihan - Drums

Exact Audio Copy V1.1 from 23. June 2015

EAC extraction logfile from 13. June 2016, 13:49

Onslaught / VI (Japan)

Used drive : ATAPI iHAS122 W Adapter: 2 ID: 0

Read mode : Secure
Utilize accurate stream : Yes
Defeat audio cache : Yes
Make use of C2 pointers : No

Read offset correction : 48
Overread into Lead-In and Lead-Out : No
Fill up missing offset samples with silence : Yes
Delete leading and trailing silent blocks : No
Null samples used in CRC calculations : Yes
Used interface : Installed external ASPI interface

Used output format : User Defined Encoder
Selected bitrate : 1024 kBit/s
Quality : High
Add ID3 tag : No
Command line compressor : C:\Program Files\FLAC\flac.exe
Additional command line options : -V -8 -T "Date=%year%" -T "Genre=%genre%" -T"COMMENT=Ripped by Ilijan" -8 -V %source%


TOC of the extracted CD

Track | Start | Length | Start sector | End sector
––––––––––––––––––––––––––––-
1 | 0:00.00 | 0:36.03 | 0 | 2702
2 | 0:36.03 | 4:05.61 | 2703 | 21138
3 | 4:41.64 | 5:05.42 | 21139 | 44055
4 | 9:47.31 | 6:04.71 | 44056 | 71426
5 | 15:52.27 | 4:01.12 | 71427 | 89513
6 | 19:53.39 | 5:11.14 | 89514 | 112852
7 | 25:04.53 | 5:08.31 | 112853 | 135983
8 | 30:13.09 | 4:05.71 | 135984 | 154429
9 | 34:19.05 | 5:09.35 | 154430 | 177639
10 | 39:28.40 | 6:38.36 | 177640 | 207525
11 | 46:07.01 | 5:20.52 | 207526 | 231577


Range status and errors

Selected range

Filename D:\ilко\Onslaught - VI (Japan).wav

Peak level 98.5 %
Extraction speed 3.8 X
Range quality 100.0 %
Test CRC C971D9FA
Copy CRC C971D9FA
Copy OK

No errors occurred


AccurateRip summary

Track 1 not present in database
Track 2 not present in database
Track 3 not present in database
Track 4 not present in database
Track 5 not present in database
Track 6 not present in database
Track 7 not present in database
Track 8 not present in database
Track 9 not present in database
Track 10 not present in database
Track 11 not present in database

None of the tracks are present in the AccurateRip database

End of status report

–– CUETools DB Plugin V2.1.6

[CTDB TOCID: hktlvh1PJPZMm0cx_QUIn3h8nI4-] found
Submit result: hktlvh1PJPZMm0cx_QUIn3h8nI4- has been confirmed
Track | CTDB Status
1 | (3/3) Accurately ripped
2 | (3/3) Accurately ripped
3 | (3/3) Accurately ripped
4 | (3/3) Accurately ripped
5 | (3/3) Accurately ripped
6 | (3/3) Accurately ripped
7 | (3/3) Accurately ripped
8 | (3/3) Accurately ripped
9 | (3/3) Accurately ripped
10 | (3/3) Accurately ripped
11 | (3/3) Accurately ripped


==== Log checksum CD50DD5833713044A33DD5D283B484184840DAD721BBEFE213B6408B88FAFAF3 ====


Many thanks to the original uploader: Ilijan