Subcategories

Opeth - Ghost Reveries (2006) [Limited Edition]

Posted By: gribovar
Opeth - Ghost Reveries (2006) [Limited Edition]

Opeth - Ghost Reveries (2006) [Limited Edition]
EAC Rip | FLAC (image+.cue+log) - 488 MB | MP3 CBR 320 kbps (LAME 3.93) - 165 MB | Covers - 276 MB
Genre: Extreme Progressive Metal | RAR 3% Rec. | Label: Roadrunner Records (168 618 078-2)

Stockholm's most unpredictable metallic sons Opeth have offered another step on their dark journey into the Maelstrom that combines progressive sonics, and acoustic and electric instrumentation, all the while extrapolating on their now-trademark brand of death metal. Stepping aside from the malevolent acoustic elegance of 2003's Damnation without abandoning the textural advances, Ghost Reveries is a tour de force of creativity, power, and innovation. Alternately melodic and brutal, the album takes the band's progressive acumen to a new level while never abandoning the crunch. Vocalist, guitarist, and lyricist Mikael Åkerfeldt has become a complete poet of the dark side. With bandmates Per Wiberg on keyboards, drummer Martin Lopez, guitarist Peter Lindgren, and bassist Martin Mendez, Åkerfeldt has forged ahead into a vein of this music that moves it further forward while embracing not only elements of the band's foundational past, but also elements from the annals of heavy metal. The sheer, harsh, tragic beauty of Ghost Reveries reveals it as more a hunted album than a haunted one. The opener "Ghost of Perdition" is layered with heartbreakingly lyrical beauty - amidst its crack and burn - with vocals either sung poetically or growled from the depths of the ravages of the human throat: "In time the hissing of her sanity/Faded out her voice and soiled her name/And like marked pages in a diary/Everything seemed that is unstained/The incoherent talk of ordinary days/Why would we really need to live/Decide what is clear and what's within a haze/What you should take and what to give…." The guitars, electric and acoustic, intertwining and winding around one another with quick figures, move the melody into the labyrinthine "Reverie/Harlequin Forest," that goes on for over 11 minutes while its tales of sickness and tenderness rub against one another and become one tortured being. Justification and easy moral judgments become futile, reflections of painful memory and dislocation are taut, walking a rusty razor wire as propulsive drums and crackling guitars carry the singer into his desolation. Ultimately, Ghost Reveries comes together like a suite, characters have various faces and traits, but they are all reflections in a mirror that retains no permanent image. This album is a culmination of everything Opeth have worked toward throughout their career. It's fully realized, stunningly beautiful, and emotionally fragmented; it's a terrain where power, tenderness, and sheer grief hold forth under heavy manners. Awesome.

Tracklist:
01. Ghost Of Perdition
02. The Baying Of The Hounds
03. Beneath The Mire
04. Atonement
05. Reverie / Harlequin Forest
06. Hours Of Wealth
07. The Grand Conjuration
08. Isolation Years
09. Soldier Of Fortune (Deep Purple cover, Bonus Track)

Total time: 01:10:17

Exact Audio Copy V1.1 from 23. June 2015

EAC extraction logfile from 13. April 2017, 16:29

Opeth / Ghost Reveries [Limited Edition]

Used drive : PLEXTOR CD-R PX-240A Adapter: 0 ID: 0

Read mode : Secure
Utilize accurate stream : Yes
Defeat audio cache : Yes
Make use of C2 pointers : No

Read offset correction : 6
Overread into Lead-In and Lead-Out : No
Fill up missing offset samples with silence : Yes
Delete leading and trailing silent blocks : No
Null samples used in CRC calculations : Yes
Used interface : Installed external ASPI interface

Used output format : Internal WAV Routines
Sample format : 44.100 Hz; 16 Bit; Stereo


TOC of the extracted CD

Track | Start | Length | Start sector | End sector
––––––––––––––––––––––––––––-
1 | 0:00.00 | 10:29.36 | 0 | 47210
2 | 10:29.36 | 10:41.21 | 47211 | 95306
3 | 21:10.57 | 7:57.37 | 95307 | 131118
4 | 29:08.19 | 6:28.06 | 131119 | 160224
5 | 35:36.25 | 11:39.35 | 160225 | 212684
6 | 47:15.60 | 5:20.34 | 212685 | 236718
7 | 52:36.19 | 10:21.24 | 236719 | 283317
8 | 62:57.43 | 3:51.32 | 283318 | 300674
9 | 66:49.00 | 3:28.39 | 300675 | 316313


Range status and errors

Selected range

Filename Z:\data\hexonut\Seeding\Opeth\2005-Ghost Reveries\2006-Ghost Reveries [Roadrunner Records, US, 168 618 078-2]\Ghost Reveries (US Limited Edition).wav

Peak level 97.7 %
Extraction speed 10.3 X
Range quality 100.0 %
Test CRC FAAE6914
Copy CRC FAAE6914
Copy OK

No errors occurred


AccurateRip summary

Track 1 accurately ripped (confidence 57) [D31CCC06] (AR v2)
Track 2 accurately ripped (confidence 56) [1FB9ADAB] (AR v2)
Track 3 accurately ripped (confidence 57) [5F0853A3] (AR v2)
Track 4 accurately ripped (confidence 57) [FAC1ABE6] (AR v2)
Track 5 accurately ripped (confidence 53) [F048303A] (AR v2)
Track 6 accurately ripped (confidence 57) [D3EBF4A1] (AR v2)
Track 7 accurately ripped (confidence 56) [7228A9AA] (AR v2)
Track 8 accurately ripped (confidence 57) [3CCC7AE1] (AR v2)
Track 9 accurately ripped (confidence 54) [FACF2202] (AR v2)

All tracks accurately ripped

End of status report

==== Log checksum FE7BB703B4BD78EA4836605341C93103C9D0CEF7F1F4B7885B16245F8073A585 ====

[CUETools log; Date: 17.11.2017 22:23:58; Version: 2.1.4]
HDCD: peak extend: none, transient filter: none, gain: none
[CTDB TOCID: WR.M0Y1PqSvcCvCvxXq3qoqnYXE-] found.
Track | CTDB Status
1 | (173/173) Accurately ripped
2 | (173/173) Accurately ripped
3 | (173/173) Accurately ripped
4 | (173/173) Accurately ripped
5 | (171/173) Accurately ripped
6 | (171/173) Accurately ripped
7 | (165/173) Accurately ripped, or (3/173) differs in 60 samples @06:35:44-06:35:45
8 | (172/173) Accurately ripped
9 | (172/173) Accurately ripped
[AccurateRip ID: 001b3715-00c2edbf-78107909] found.
Track [ CRC | V2 ] Status
01 [66db0846|d31ccc06] (094+061/200) Accurately ripped
02 [57eda611|1fb9adab] (094+060/200) Accurately ripped
03 [64b98102|5f0853a3] (094+061/200) Accurately ripped
04 [a2ca95e2|fac1abe6] (093+061/201) Accurately ripped
05 [6b9be424|f048303a] (093+057/195) Accurately ripped
06 [92804eab|d3ebf4a1] (095+061/201) Accurately ripped
07 [5c286f3c|7228a9aa] (092+060/191) Accurately ripped
08 [1354fb40|3ccc7ae1] (094+061/200) Accurately ripped
09 [2478e804|facf2202] (095+058/195) Accurately ripped
Offsetted by -662:
01 [8dff847a] (011/200) Accurately ripped
02 [05841abb] (011/200) Accurately ripped
03 [5b2c0df5] (011/200) Accurately ripped
04 [2f1152d0] (011/201) Accurately ripped
05 [955361f4] (011/195) Accurately ripped
06 [13cce2df] (011/201) Accurately ripped
07 [0b2470c3] (011/191) Accurately ripped
08 [ef025671] (011/200) Accurately ripped
09 [2527c0f7] (010/195) Accurately ripped
Offsetted by -646:
01 [f9500388] (007/200) Accurately ripped
02 [2966c446] (007/200) Accurately ripped
03 [9d038962] (007/200) Accurately ripped
04 [38fd5c5e] (007/201) Accurately ripped
05 [df06aa93] (007/195) Accurately ripped
06 [c5f7a909] (007/201) Accurately ripped
07 [dee9bd0f] (006/191) Accurately ripped
08 [ad341d85] (006/200) Accurately ripped
09 [8ca596fa] (006/195) Accurately ripped
Offsetted by -754:
01 [2cd5920a] (000/200) No match (V2 was not tested)
02 [61bc83af] (000/200) No match (V2 was not tested)
03 [2c5848fd] (000/200) No match (V2 was not tested)
04 [8e4a4944] (000/201) No match (V2 was not tested)
05 [f65e1ee2] (000/195) No match (V2 was not tested)
06 [acc1d3a0] (000/201) No match (V2 was not tested)
07 [18f65f78] (000/191) No match (V2 was not tested)
08 [a3c833b0] (000/200) No match (V2 was not tested)
09 [11ba2e26] (000/195) No match (V2 was not tested)
Offsetted by -664:
01 [48e36f26] (003/200) Accurately ripped
02 [bb9ca58c] (003/200) Accurately ripped
03 [0710c2bc] (002/200) Accurately ripped
04 [fd50d324] (002/201) Accurately ripped
05 [5afd45c1] (002/195) Accurately ripped
06 [37650156] (002/201) Accurately ripped
07 [4d6f6437] (000/191) No match (V2 was not tested)
08 [19c02631] (002/200) Accurately ripped
09 [99474cd6] (002/195) Accurately ripped
Offsetted by 6:
01 [09641139] (000/200) No match (V2 was not tested)
02 [5eec8c04] (000/200) No match (V2 was not tested)
03 [63c1e4c0] (000/200) No match (V2 was not tested)
04 [4da48673] (002/201) Accurately ripped
05 [5d692ea9] (000/195) No match (V2 was not tested)
06 [e22d967a] (000/201) No match (V2 was not tested)
07 [651a94e5] (000/191) No match (V2 was not tested)
08 [93308c70] (002/200) Accurately ripped
09 [6506a375] (000/195) No match (V2 was not tested)

Track Peak [ CRC32 ] [W/O NULL] [ LOG ]
– 97,7 [FAAE6914] [594605E9] CRC32
01 97,7 [5EF3AE58] [8082B683]
02 97,7 [B9F0C1F9] [4EA59AEE]
03 97,7 [D96A797D] [09A7EAD8]
04 97,4 [F492F2A0] [06001E4D]
05 97,6 [626A7C5D] [21E0142B]
06 77,2 [D080A16B] [E93E7B4C]
07 97,7 [5FEF11B5] [1CEB98BF]
08 97,4 [94D1E7EC] [1F197EB2]
09 97,7 [90B01B2B] [D4B8A6B9]

Thanks to hexonut

See also:
Opeth - Blackwater Park (2001) [Legacy Edition 2010]
Opeth - Deliverance (2002) & Damnation (2003) [Remixed 2015, 2CD+2DVD Audio]
Opeth - In Live Concert at the Royal Albert Hall [3CD] (2010)
Opeth - Heritage (2011)
Opeth - Pale Communion (2014) [Japanese Edition]
Storm Corrosion - Storm Corrosion (2012)